Junicode-Italic.glyphspackage
{
glyphname = numbersign;
layers = (
{
layerId = master01;
shapes = (
{
closed = 1;
nodes = (
(165,3,l),
(244,196,l),
(358,196,l),
(281,3,l),
(324,3,l),
(403,196,l),
(498,196,l),
(519,244,l),
(421,244,l),
(489,408,l),
(589,408,l),
(609,457,l),
(509,457,l),
(580,630,l),
(532,630,l),
(463,457,l),
(350,457,l),
(421,630,l),
(374,630,l),
(304,457,l),
(198,457,l),
(175,408,l),
(284,408,l),
(218,244,l),
(112,244,l),
(91,196,l),
(200,196,l),
(123,3,l)
);
},
{
closed = 1;
nodes = (
(330,408,l),
(443,408,l),
(376,244,l),
(262,244,l)
);
}
);
width = 500;
},
{
layerId = "2438E31C-45B5-47A7-9B3D-1A0FEFB47671";
shapes = (
{
closed = 1;
nodes = (
(115,5,l),
(195,186,l),
(283,186,l),
(203,5,l),
(269,5,l),
(349,186,l),
(454,186,l),
(465,251,l),
(378,251,l),
(440,392,l),
(544,392,l),
(555,456,l),
(468,456,l),
(536,610,l),
(470,610,l),
(402,456,l),
(314,456,l),
(382,610,l),
(316,610,l),
(249,456,l),
(137,456,l),
(125,392,l),
(220,392,l),
(158,251,l),
(46,251,l),
(35,186,l),
(129,186,l),
(49,5,l)
);
},
{
closed = 1;
nodes = (
(286,392,l),
(374,392,l),
(312,251,l),
(224,251,l)
);
}
);
width = 495;
},
{
layerId = "7904EAEE-2B64-409E-B923-0048172372BE";
shapes = (
{
closed = 1;
nodes = (
(182,2,l),
(261,199,l),
(383,199,l),
(307,2,l),
(343,2,l),
(421,199,l),
(513,199,l),
(537,242,l),
(435,242,l),
(505,414,l),
(604,414,l),
(627,458,l),
(522,458,l),
(595,637,l),
(553,637,l),
(483,458,l),
(362,458,l),
(434,637,l),
(394,637,l),
(323,458,l),
(219,458,l),
(191,414,l),
(306,414,l),
(238,242,l),
(134,242,l),
(109,199,l),
(224,199,l),
(148,2,l)
);
},
{
closed = 1;
nodes = (
(345,414,l),
(466,414,l),
(397,242,l),
(275,242,l)
);
}
);
width = 502;
},
{
layerId = "E06D8587-1A71-4EC2-BD94-397D882F5FC1";
shapes = (
{
closed = 1;
nodes = (
(134,3,l),
(197,192,l),
(280,192,l),
(217,3,l),
(259,3,l),
(323,192,l),
(402,192,l),
(416,247,l),
(341,247,l),
(394,403,l),
(475,403,l),
(488,457,l),
(412,457,l),
(468,623,l),
(424,623,l),
(368,457,l),
(287,457,l),
(342,623,l),
(298,623,l),
(243,457,l),
(157,457,l),
(142,403,l),
(225,403,l),
(173,247,l),
(86,247,l),
(73,192,l),
(155,192,l),
(92,3,l)
);
},
{
closed = 1;
nodes = (
(268,403,l),
(350,403,l),
(298,247,l),
(216,247,l)
);
}
);
width = 400;
},
{
layerId = "8F7CDE40-C368-4484-AA71-76B7ABD5539F";
shapes = (
{
closed = 1;
nodes = (
(196,2,l),
(291,199,l),
(436,199,l),
(344,2,l),
(389,2,l),
(483,199,l),
(594,199,l),
(623,242,l),
(500,242,l),
(584,414,l),
(703,414,l),
(730,458,l),
(605,458,l),
(692,637,l),
(641,637,l),
(558,458,l),
(414,458,l),
(500,637,l),
(450,637,l),
(365,458,l),
(240,458,l),
(208,414,l),
(344,414,l),
(263,242,l),
(138,242,l),
(109,199,l),
(246,199,l),
(154,2,l)
);
},
{
closed = 1;
nodes = (
(392,414,l),
(536,414,l),
(454,242,l),
(309,242,l)
);
}
);
width = 600;
},
{
layerId = "997BDFA1-EC67-4686-8CFE-E56BDBE179FE";
shapes = (
{
closed = 1;
nodes = (
(165,3,l),
(244,196,l),
(358,196,l),
(281,3,l),
(324,3,l),
(403,196,l),
(498,196,l),
(519,244,l),
(421,244,l),
(489,408,l),
(589,408,l),
(609,457,l),
(509,457,l),
(580,630,l),
(532,630,l),
(463,457,l),
(350,457,l),
(421,630,l),
(374,630,l),
(304,457,l),
(198,457,l),
(175,408,l),
(284,408,l),
(218,244,l),
(112,244,l),
(91,196,l),
(200,196,l),
(123,3,l)
);
},
{
closed = 1;
nodes = (
(330,408,l),
(443,408,l),
(376,244,l),
(262,244,l)
);
}
);
width = 500;
}
);
unicode = 35;
}
{
glyphname = plus;
layers = (
{
layerId = master01;
shapes = (
{
closed = 1;
nodes = (
(280,0,l),
(280,181,l),
(443,181,l),
(443,230,l),
(280,230,l),
(280,394,l),
(221,394,l),
(221,230,l),
(58,230,l),
(58,181,l),
(221,181,l),
(221,0,l)
);
}
);
width = 500;
},
{
layerId = "2438E31C-45B5-47A7-9B3D-1A0FEFB47671";
shapes = (
{
closed = 1;
nodes = (
(305,0,l),
(305,177,l),
(461,177,l),
(461,249,l),
(305,249,l),
(305,408,l),
(217,408,l),
(217,249,l),
(60,249,l),
(60,177,l),
(217,177,l),
(217,0,l)
);
}
);
width = 519;
},
{
layerId = "7904EAEE-2B64-409E-B923-0048172372BE";
shapes = (
{
closed = 1;
nodes = (
(271,0,l),
(271,183,l),
(437,183,l),
(437,224,l),
(271,224,l),
(271,389,l),
(223,389,l),
(223,224,l),
(58,224,l),
(58,183,l),
(223,183,l),
(223,0,l)
);
}
);
width = 494;
},
{
layerId = "E06D8587-1A71-4EC2-BD94-397D882F5FC1";
shapes = (
{
closed = 1;
nodes = (
(231,0,l),
(231,180,l),
(360,180,l),
(360,236,l),
(231,236,l),
(231,399,l),
(175,399,l),
(175,236,l),
(46,236,l),
(46,180,l),
(175,180,l),
(175,0,l)
);
}
);
width = 405;
},
{
layerId = "8F7CDE40-C368-4484-AA71-76B7ABD5539F";
shapes = (
{
closed = 1;
nodes = (
(328,0,l),
(328,183,l),
(526,183,l),
(526,224,l),
(328,224,l),
(328,389,l),
(268,389,l),
(268,224,l),
(70,224,l),
(70,183,l),
(268,183,l),
(268,0,l)
);
}
);
width = 595;
},
{
layerId = "997BDFA1-EC67-4686-8CFE-E56BDBE179FE";
shapes = (
{
closed = 1;
nodes = (
(280,0,l),
(280,181,l),
(443,181,l),
(443,230,l),
(280,230,l),
(280,394,l),
(221,394,l),
(221,230,l),
(58,230,l),
(58,181,l),
(221,181,l),
(221,0,l)
);
}
);
width = 500;
}
);
unicode = 43;
}
{
glyphname = N;
kernLeft = B;
kernRight = N;
layers = (
{
anchors = (
{
name = bottom;
pos = (343,0);
},
{
name = top;
pos = (506,666);
},
{
name = zzcurly;
pos = (670,655);
}
);
layerId = master01;
shapes = (
{
closed = 1;
nodes = (
(583,-14,o),
(586,-9,o),
(589,0,cs),
(753,575,ls),
(767,621,o),
(783,631,o),
(840,631,cs),
(849,631,o),
(859,668,o),
(851,668,c),
(819,667,o),
(788,666,o),
(756,666,cs),
(725,666,o),
(693,667,o),
(662,668,c),
(653,668,o),
(642,631,o),
(651,631,cs),
(721,631,o),
(733,621,o),
(720,575,cs),
(587,118,l),
(580,117,l),
(329,643,ls),
(320,661,o),
(311,666,o),
(276,666,cs),
(247,666,o),
(218,667,o),
(189,668,c),
(180,668,o),
(170,631,o),
(179,631,cs),
(247,631,o),
(261,613,o),
(242,546,cs),
(113,91,ls),
(100,44,o),
(81,34,o),
(12,34,cs),
(3,34,o),
(-7,-3,o),
(2,-3,c),
(35,-1,o),
(67,0,o),
(100,0,cs),
(132,0,o),
(165,-1,o),
(198,-3,c),
(207,-3,o),
(216,34,o),
(208,34,cs),
(145,34,o),
(133,44,o),
(147,91,cs),
(282,567,l),
(290,568,l),
(562,0,ls),
(566,-9,o),
(572,-14,o),
(577,-14,cs)
);
}
);
width = 763;
},
{
anchors = (
{
name = bottom;
pos = (324,0);
},
{
name = top;
pos = (488,666);
},
{
name = zzcurly;
pos = (662,655);
}
);
layerId = "2438E31C-45B5-47A7-9B3D-1A0FEFB47671";
shapes = (
{
closed = 1;
nodes = (
(572,-14,o),
(581,-5,o),
(585,7,cs),
(748,572,ls),
(759,609,o),
(780,622,o),
(837,622,cs),
(846,622,o),
(859,667,o),
(850,667,c),
(817,666,o),
(784,665,o),
(751,665,cs),
(717,665,o),
(684,666,o),
(651,667,c),
(642,667,o),
(627,622,o),
(636,622,cs),
(697,622,o),
(709,611,o),
(695,564,cs),
(579,168,l),
(571,168,l),
(342,634,ls),
(329,660,o),
(315,666,o),
(263,666,cs),
(236,666,o),
(211,666,o),
(184,667,c),
(173,667,o),
(162,622,o),
(170,622,cs),
(233,622,o),
(245,604,o),
(226,537,cs),
(102,99,ls),
(89,54,o),
(68,42,o),
(6,42,cs),
(-4,42,o),
(-15,-4,o),
(-5,-4,c),
(28,-1,o),
(62,0,o),
(96,0,cs),
(129,0,o),
(163,-1,o),
(196,-4,c),
(207,-4,o),
(218,42,o),
(209,42,cs),
(150,42,o),
(139,53,o),
(152,99,cs),
(269,510,l),
(276,511,l),
(527,7,ls),
(534,-5,o),
(545,-14,o),
(558,-14,cs)
);
}
);
width = 762;
},
{
anchors = (
{
name = bottom;
pos = (351,0);
},
{
name = top;
pos = (515,666);
},
{
name = zzcurly;
pos = (677,655);
}
);
layerId = "7904EAEE-2B64-409E-B923-0048172372BE";
shapes = (
{
closed = 1;
nodes = (
(588,-14,o),
(590,-10,o),
(593,0,cs),
(757,575,ls),
(771,623,o),
(787,634,o),
(843,634,cs),
(852,634,o),
(861,668,o),
(853,668,c),
(822,666,o),
(791,666,o),
(760,666,cs),
(729,666,o),
(699,666,o),
(668,668,c),
(659,668,o),
(649,634,o),
(658,634,cs),
(730,634,o),
(744,624,o),
(730,578,cs),
(592,101,l),
(584,100,l),
(328,646,ls),
(320,661,o),
(311,666,o),
(283,666,cs),
(252,666,o),
(223,666,o),
(192,668,c),
(183,668,o),
(176,634,o),
(184,634,cs),
(254,634,o),
(269,616,o),
(250,550,cs),
(119,88,ls),
(107,46,o),
(79,31,o),
(16,31,cs),
(5,31,o),
(-2,-3,o),
(6,-3,c),
(39,-1,o),
(71,0,o),
(103,0,cs),
(136,0,o),
(168,-1,o),
(200,-3,c),
(211,-3,o),
(218,31,o),
(209,31,cs),
(147,31,o),
(134,43,o),
(146,88,cs),
(289,586,l),
(296,587,l),
(574,0,ls),
(579,-10,o),
(582,-14,o),
(585,-14,cs)
);
}
);
width = 766;
},
{
anchors = (
{
name = bottom;
pos = (274,0);
},
{
name = top;
pos = (405,666);
},
{
name = zzcurly;
pos = (543,655);
}
);
layerId = "E06D8587-1A71-4EC2-BD94-397D882F5FC1";
shapes = (
{
closed = 1;
nodes = (
(468,-14,o),
(473,-9,o),
(475,0,cs),
(608,577,ls),
(617,619,o),
(632,631,o),
(678,631,cs),
(687,631,o),
(695,668,o),
(686,668,c),
(660,666,o),
(635,666,o),
(609,666,cs),
(583,666,o),
(558,666,o),
(532,668,c),
(523,668,o),
(514,631,o),
(523,631,cs),
(570,631,o),
(584,616,o),
(575,575,cs),
(473,135,l),
(467,134,l),
(273,640,ls),
(265,662,o),
(257,666,o),
(222,666,cs),
(200,666,o),
(178,666,o),
(156,667,c),
(147,667,o),
(138,630,o),
(147,630,cs),
(200,630,o),
(210,612,o),
(195,546,cs),
(92,91,ls),
(82,46,o),
(65,34,o),
(13,34,cs),
(4,34,o),
(-4,-3,o),
(5,-3,c),
(32,-1,o),
(58,0,o),
(85,0,cs),
(111,0,o),
(138,-1,o),
(164,-3,c),
(173,-3,o),
(181,34,o),
(172,34,cs),
(125,34,o),
(115,46,o),
(125,91,cs),
(228,547,l),
(234,548,l),
(446,0,ls),
(449,-9,o),
(455,-14,o),
(462,-14,cs)
);
}
);
width = 615;
},
{
anchors = (
{
name = bottom;
pos = (423,0);
},
{
name = top;
pos = (595,666);
},
{
name = zzcurly;
pos = (795,655);
}
);
layerId = "8F7CDE40-C368-4484-AA71-76B7ABD5539F";
shapes = (
{
closed = 1;
nodes = (
(709,-14,o),
(711,-9,o),
(714,0,cs),
(890,572,ls),
(905,620,o),
(924,631,o),
(992,631,cs),
(1000,631,o),
(1011,668,o),
(1003,668,c),
(966,667,o),
(928,666,o),
(891,666,cs),
(855,666,o),
(817,667,o),
(780,668,c),
(771,668,o),
(760,631,o),
(768,631,cs),
(855,631,o),
(872,621,o),
(857,575,cs),
(710,105,l),
(697,104,l),
(374,646,ls),
(364,663,o),
(355,666,o),
(317,666,cs),
(281,666,o),
(245,667,o),
(209,668,c),
(200,668,o),
(191,631,o),
(200,631,cs),
(287,631,o),
(302,616,o),
(281,547,cs),
(141,91,ls),
(127,44,o),
(104,34,o),
(20,34,cs),
(12,34,o),
(1,-3,o),
(10,-3,c),
(49,-1,o),
(88,0,o),
(127,0,cs),
(164,0,o),
(204,-1,o),
(243,-3,c),
(252,-3,o),
(261,34,o),
(253,34,cs),
(176,34,o),
(162,44,o),
(176,91,cs),
(325,581,l),
(338,583,l),
(689,0,ls),
(695,-9,o),
(700,-14,o),
(704,-14,cs)
);
}
);
width = 916;
},
{
anchors = (
{
name = bottom;
pos = (318,0);
},
{
name = top;
pos = (481,666);
},
{
name = zzcurly;
pos = (650,655);
}
);
layerId = "997BDFA1-EC67-4686-8CFE-E56BDBE179FE";
shapes = (
{
closed = 1;
nodes = (
(557,-14,o),
(561,-9,o),
(564,0,cs),
(728,575,ls),
(742,621,o),
(758,631,o),
(815,631,cs),
(824,631,o),
(834,668,o),
(825,668,c),
(794,667,o),
(763,666,o),
(731,666,cs),
(700,666,o),
(668,667,o),
(637,668,c),
(628,668,o),
(617,631,o),
(626,631,cs),
(696,631,o),
(708,621,o),
(695,575,cs),
(562,118,l),
(554,117,l),
(304,643,ls),
(295,661,o),
(285,666,o),
(251,666,cs),
(221,666,o),
(193,667,o),
(163,668,c),
(155,668,o),
(145,631,o),
(154,631,cs),
(222,631,o),
(236,613,o),
(217,546,cs),
(88,91,ls),
(75,44,o),
(56,34,o),
(-13,34,cs),
(-22,34,o),
(-32,-3,o),
(-23,-3,c),
(10,-1,o),
(42,0,o),
(75,0,cs),
(107,0,o),
(140,-1,o),
(173,-3,c),
(181,-3,o),
(191,34,o),
(182,34,cs),
(119,34,o),
(108,44,o),
(121,91,cs),
(257,567,l),
(264,568,l),
(536,0,ls),
(541,-9,o),
(547,-14,o),
(552,-14,cs)
);
}
);
width = 763;
}
);
metricLeft = "=I*0.8";
metricRight = "=I*0.4";
unicode = 78;
}
{
glyphname = bracketleft;
kernRight = bracketleft.alt;
layers = (
{
layerId = master01;
shapes = (
{
closed = 1;
nodes = (
(315,-173,ls),
(327,-173,o),
(327,-135,o),
(315,-135,cs),
(205,-135,ls),
(201,-135,o),
(198,-130,o),
(198,-121,cs),
(198,698,ls),
(198,706,o),
(202,709,o),
(208,709,cs),
(315,709,ls),
(327,709,o),
(327,747,o),
(315,747,cs),
(140,747,ls),
(134,747,o),
(130,744,o),
(130,738,cs),
(130,-162,ls),
(130,-169,o),
(134,-173,o),
(141,-173,cs)
);
}
);
width = 344;
},
{
layerId = "2438E31C-45B5-47A7-9B3D-1A0FEFB47671";
shapes = (
{
closed = 1;
nodes = (
(358,-173,ls),
(372,-173,o),
(372,-126,o),
(358,-126,cs),
(245,-126,ls),
(241,-126,o),
(238,-121,o),
(238,-112,cs),
(238,689,ls),
(238,696,o),
(242,700,o),
(248,700,cs),
(358,700,ls),
(372,700,o),
(372,747,o),
(358,747,cs),
(144,747,ls),
(138,747,o),
(134,744,o),
(134,738,cs),
(134,-162,ls),
(134,-169,o),
(138,-173,o),
(145,-173,cs)
);
}
);
width = 379;
},
{
layerId = "7904EAEE-2B64-409E-B923-0048172372BE";
shapes = (
{
closed = 1;
nodes = (
(311,-173,ls),
(322,-173,o),
(322,-138,o),
(311,-138,cs),
(202,-138,ls),
(197,-138,o),
(195,-133,o),
(195,-124,cs),
(195,701,ls),
(195,708,o),
(198,712,o),
(205,712,cs),
(311,712,ls),
(322,712,o),
(322,747,o),
(311,747,cs),
(148,747,ls),
(142,747,o),
(139,744,o),
(139,738,cs),
(139,-162,ls),
(139,-169,o),
(143,-173,o),
(149,-173,cs)
);
}
);
width = 342;
},
{
layerId = "E06D8587-1A71-4EC2-BD94-397D882F5FC1";
shapes = (
{
closed = 1;
nodes = (
(250,-173,ls),
(260,-173,o),
(260,-135,o),
(250,-135,cs),
(162,-135,ls),
(159,-135,o),
(157,-130,o),
(157,-121,cs),
(157,698,ls),
(157,706,o),
(159,709,o),
(165,709,cs),
(250,709,ls),
(260,709,o),
(260,747,o),
(250,747,cs),
(110,747,ls),
(105,747,o),
(103,744,o),
(103,738,cs),
(103,-162,ls),
(103,-169,o),
(105,-173,o),
(111,-173,cs)
);
}
);
width = 273;
},
{
layerId = "8F7CDE40-C368-4484-AA71-76B7ABD5539F";
shapes = (
{
closed = 1;
nodes = (
(361,-173,ls),
(375,-173,o),
(375,-135,o),
(361,-135,cs),
(229,-135,ls),
(223,-135,o),
(220,-130,o),
(220,-121,cs),
(220,698,ls),
(220,706,o),
(225,709,o),
(232,709,cs),
(361,709,ls),
(375,709,o),
(375,747,o),
(361,747,cs),
(150,747,ls),
(143,747,o),
(139,744,o),
(139,738,cs),
(139,-162,ls),
(139,-169,o),
(143,-173,o),
(152,-173,cs)
);
}
);
width = 396;
},
{
layerId = "997BDFA1-EC67-4686-8CFE-E56BDBE179FE";
shapes = (
{
closed = 1;
nodes = (
(325,-173,ls),
(336,-173,o),
(336,-135,o),
(325,-135,cs),
(215,-135,ls),
(210,-135,o),
(208,-130,o),
(208,-121,cs),
(208,698,ls),
(208,706,o),
(211,709,o),
(218,709,cs),
(325,709,ls),
(336,709,o),
(336,747,o),
(325,747,cs),
(150,747,ls),
(144,747,o),
(140,744,o),
(140,738,cs),
(140,-162,ls),
(140,-169,o),
(144,-173,o),
(151,-173,cs)
);
}
);
width = 354;
}
);
unicode = 91;
}
{
glyphname = asciicircum;
layers = (
{
layerId = master01;
shapes = (
{
closed = 1;
nodes = (
(171,261,l),
(328,614,l),
(310,614,l),
(466,261,l),
(533,261,l),
(345,670,l),
(293,670,l),
(104,261,l)
);
}
);
width = 599;
},
{
layerId = "2438E31C-45B5-47A7-9B3D-1A0FEFB47671";
shapes = (
{
closed = 1;
nodes = (
(122,268,l),
(291,620,l),
(248,620,l),
(415,268,l),
(495,268,l),
(287,685,l),
(254,685,l),
(46,268,l)
);
}
);
width = 500;
},
{
layerId = "7904EAEE-2B64-409E-B923-0048172372BE";
shapes = (
{
closed = 1;
nodes = (
(188,259,l),
(340,612,l),
(331,612,l),
(483,259,l),
(545,259,l),
(364,665,l),
(306,665,l),
(124,259,l)
);
}
);
width = 632;
},
{
layerId = "E06D8587-1A71-4EC2-BD94-397D882F5FC1";
shapes = (
{
closed = 1;
nodes = (
(140,264,l),
(269,616,l),
(247,616,l),
(375,264,l),
(433,264,l),
(276,675,l),
(241,675,l),
(83,264,l)
);
}
);
width = 486;
},
{
layerId = "8F7CDE40-C368-4484-AA71-76B7ABD5539F";
shapes = (
{
closed = 1;
nodes = (
(203,259,l),
(386,612,l),
(374,612,l),
(557,259,l),
(632,259,l),
(414,665,l),
(345,665,l),
(125,259,l)
);
}
);
width = 712;
},
{
layerId = "997BDFA1-EC67-4686-8CFE-E56BDBE179FE";
shapes = (
{
closed = 1;
nodes = (
(171,261,l),
(328,614,l),
(310,614,l),
(466,261,l),
(533,261,l),
(345,670,l),
(293,670,l),
(104,261,l)
);
}
);
width = 599;
}
);
unicode = 94;
}
{
glyphname = grave;
layers = (
{
layerId = master01;
shapes = (
{
closed = 1;
nodes = (
(240,493,o),
(228,520,cs),
(158,676,ls),
(147,701,o),
(91,669,o),
(105,647,cs),
(193,505,ls),
(208,479,o)
);
}
);
width = 278;
},
{
layerId = "2438E31C-45B5-47A7-9B3D-1A0FEFB47671";
shapes = (
{
closed = 1;
nodes = (
(331,487,o),
(321,510,cs),
(248,686,ls),
(236,714,o),
(158,677,o),
(179,647,cs),
(286,492,ls),
(306,462,o)
);
}
);
width = 447;
},
{
layerId = "7904EAEE-2B64-409E-B923-0048172372BE";
shapes = (
{
closed = 1;
nodes = (
(208,499,o),
(198,521,cs),
(126,678,ls),
(116,700,o),
(66,669,o),
(77,651,cs),
(165,504,ls),
(180,479,o)
);
}
);
width = 222;
},
{
layerId = "E06D8587-1A71-4EC2-BD94-397D882F5FC1";
shapes = (
{
closed = 1;
nodes = (
(210,494,o),
(199,521,cs),
(131,677,ls),
(122,698,o),
(67,672,o),
(83,647,cs),
(171,503,ls),
(184,483,o)
);
}
);
width = 239;
},
{
layerId = "8F7CDE40-C368-4484-AA71-76B7ABD5539F";
shapes = (
{
closed = 1;
nodes = (
(238,498,o),
(228,520,cs),
(158,676,ls),
(146,703,o),
(95,664,o),
(105,646,cs),
(193,505,ls),
(207,482,o)
);
}
);
width = 293;
},
{
layerId = "997BDFA1-EC67-4686-8CFE-E56BDBE179FE";
shapes = (
{
closed = 1;
nodes = (
(240,493,o),
(228,520,cs),
(158,676,ls),
(147,701,o),
(91,669,o),
(105,647,cs),
(193,505,ls),
(208,479,o)
);
}
);
width = 278;
}
);
unicode = 96;
}
{
color = 9;
glyphname = n;
kernLeft = m;
layers = (
{
anchors = (
{
name = bottom;
pos = (232,0);
},
{
name = top;
pos = (293,418);
},
{
name = us;
pos = (418,415);
},
{
name = zzcurly;
pos = (418,378);
}
);
layerId = master01;
shapes = (
{
closed = 1;
nodes = (
(105,-13,o),
(117,-8,o),
(120,1,cs),
(157,102,o),
(207,189,o),
(258,264,cs),
(309,339,o),
(349,377,o),
(377,377,cs),
(388,377,o),
(393,370,o),
(393,356,cs),
(393,345,o),
(387,319,o),
(377,284,cs),
(322,90,ls),
(314,62,o),
(311,41,o),
(311,25,cs),
(311,-1,o),
(320,-13,o),
(340,-13,cs),
(382,-13,o),
(450,42,o),
(475,77,cs),
(481,85,o),
(463,103,o),
(456,96,cs),
(426,66,o),
(403,56,o),
(392,56,cs),
(376,56,o),
(377,74,o),
(389,117,cs),
(435,277,ls),
(448,320,o),
(452,343,o),
(452,361,cs),
(452,399,o),
(434,416,o),
(397,416,cs),
(331,416,o),
(258,339,o),
(177,185,c),
(174,187,l),
(211,316,ls),
(219,344,o),
(225,365,o),
(225,381,cs),
(225,405,o),
(214,416,o),
(194,416,cs),
(156,416,o),
(82,361,o),
(57,326,cs),
(52,318,o),
(70,301,o),
(76,307,cs),
(106,337,o),
(130,347,o),
(140,347,cs),
(154,347,o),
(155,330,o),
(148,305,cs),
(62,3,ls),
(59,-8,o),
(67,-13,o),
(86,-13,cs)
);
}
);
width = 497;
},
{
anchors = (
{
name = bottom;
pos = (226,0);
},
{
name = top;
pos = (287,418);
},
{
name = us;
pos = (408,415);
},
{
name = zzcurly;
pos = (418,378);
}
);
layerId = "2438E31C-45B5-47A7-9B3D-1A0FEFB47671";
shapes = (
{
closed = 1;
nodes = (
(110,-13,o),
(127,-9,o),
(130,0,cs),
(154,69,o),
(192,146,o),
(241,233,cs),
(290,320,o),
(330,363,o),
(355,363,cs),
(363,363,o),
(368,356,o),
(368,343,cs),
(368,330,o),
(366,316,o),
(356,283,cs),
(303,110,ls),
(294,80,o),
(289,56,o),
(289,37,cs),
(289,3,o),
(305,-13,o),
(338,-13,cs),
(381,-13,o),
(445,43,o),
(477,82,cs),
(482,89,o),
(458,115,o),
(450,107,cs),
(425,81,o),
(409,67,o),
(399,67,cs),
(390,67,o),
(394,85,o),
(407,128,cs),
(455,287,ls),
(463,314,o),
(468,337,o),
(468,355,cs),
(468,397,o),
(445,416,o),
(398,416,cs),
(331,416,o),
(267,359,o),
(202,244,c),
(198,246,l),
(216,304,ls),
(225,333,o),
(232,356,o),
(232,374,cs),
(232,403,o),
(217,416,o),
(190,416,cs),
(141,416,o),
(81,359,o),
(49,320,cs),
(43,313,o),
(69,289,o),
(76,296,cs),
(101,322,o),
(118,336,o),
(127,336,cs),
(134,336,o),
(136,329,o),
(132,316,cs),
(34,0,ls),
(31,-8,o),
(46,-13,o),
(78,-13,cs)
);
}
);
width = 496;
},
{
anchors = (
{
name = bottom;
pos = (241,0);
},
{
name = top;
pos = (297,418);
},
{
name = us;
pos = (423,415);
},
{
name = zzcurly;
pos = (420,378);
}
);
layerId = "7904EAEE-2B64-409E-B923-0048172372BE";
shapes = (
{
closed = 1;
nodes = (
(106,-13,o),
(116,-8,o),
(120,1,cs),
(166,111,o),
(215,202,o),
(266,274,cs),
(317,346,o),
(357,382,o),
(386,382,cs),
(397,382,o),
(403,375,o),
(403,360,cs),
(403,351,o),
(397,325,o),
(386,285,cs),
(331,83,ls),
(324,56,o),
(320,35,o),
(320,19,cs),
(320,-3,o),
(328,-13,o),
(343,-13,cs),
(377,-13,o),
(454,40,o),
(479,74,cs),
(485,82,o),
(468,98,o),
(461,91,cs),
(430,60,o),
(401,46,o),
(389,46,cs),
(371,46,o),
(374,65,o),
(387,111,cs),
(433,280,ls),
(442,313,o),
(448,340,o),
(448,361,cs),
(448,399,o),
(431,416,o),
(400,416,cs),
(333,416,o),
(257,332,o),
(172,166,c),
(168,167,l),
(210,320,ls),
(218,348,o),
(224,369,o),
(224,385,cs),
(224,406,o),
(214,416,o),
(198,416,cs),
(164,416,o),
(87,363,o),
(61,329,cs),
(56,322,o),
(71,304,o),
(79,312,cs),
(114,346,o),
(138,357,o),
(148,357,cs),
(160,357,o),
(166,339,o),
(156,302,cs),
(74,4,ls),
(71,-8,o),
(77,-13,o),
(91,-13,cs)
);
}
);
width = 502;
},
{
anchors = (
{
name = bottom;
pos = (194,0);
},
{
name = top;
pos = (240,418);
},
{
name = us;
pos = (375,415);
},
{
name = zzcurly;
pos = (336,378);
}
);
layerId = "E06D8587-1A71-4EC2-BD94-397D882F5FC1";
shapes = (
{
closed = 1;
nodes = (
(91,-13,o),
(104,-9,o),
(106,0,cs),
(131,92,o),
(167,176,o),
(207,254,cs),
(248,333,o),
(278,377,o),
(301,377,cs),
(308,377,o),
(313,370,o),
(313,355,cs),
(313,344,o),
(309,319,o),
(301,284,cs),
(258,97,ls),
(251,68,o),
(249,45,o),
(249,28,cs),
(249,0,o),
(258,-13,o),
(276,-13,cs),
(309,-13,o),
(366,43,o),
(389,83,cs),
(391,87,o),
(372,103,o),
(368,98,cs),
(347,72,o),
(331,60,o),
(323,60,cs),
(314,60,o),
(316,77,o),
(326,119,cs),
(359,274,ls),
(366,306,o),
(373,345,o),
(373,361,cs),
(373,399,o),
(357,416,o),
(323,416,cs),
(271,416,o),
(216,345,o),
(156,204,c),
(153,206,l),
(178,312,ls),
(184,339,o),
(188,360,o),
(188,376,cs),
(188,404,o),
(179,416,o),
(160,416,cs),
(126,416,o),
(70,360,o),
(47,320,cs),
(42,311,o),
(61,296,o),
(68,305,cs),
(89,331,o),
(105,343,o),
(113,343,cs),
(121,343,o),
(125,332,o),
(119,309,cs),
(47,2,ls),
(45,-8,o),
(54,-13,o),
(73,-13,cs)
);
}
);
width = 404;
},
{
anchors = (
{
name = bottom;
pos = (286,0);
},
{
name = top;
pos = (339,418);
},
{
name = us;
pos = (539,415);
},
{
name = zzcurly;
pos = (496,378);
}
);
layerId = "8F7CDE40-C368-4484-AA71-76B7ABD5539F";
shapes = (
{
closed = 1;
nodes = (
(127,-13,o),
(138,-8,o),
(142,1,cs),
(188,115,o),
(246,202,o),
(305,273,cs),
(365,346,o),
(411,377,o),
(442,377,cs),
(456,377,o),
(463,370,o),
(463,355,cs),
(463,346,o),
(460,322,o),
(449,285,cs),
(390,83,ls),
(383,57,o),
(379,37,o),
(379,22,cs),
(379,-2,o),
(389,-13,o),
(409,-13,cs),
(450,-13,o),
(536,42,o),
(562,71,cs),
(567,76,o),
(549,97,o),
(541,90,cs),
(509,62,o),
(478,52,o),
(468,52,cs),
(445,52,o),
(445,71,o),
(458,115,cs),
(508,280,ls),
(518,312,o),
(523,337,o),
(523,357,cs),
(523,398,o),
(502,416,o),
(463,416,cs),
(384,416,o),
(295,333,o),
(200,167,c),
(196,168,l),
(242,320,ls),
(251,346,o),
(256,366,o),
(256,381,cs),
(256,405,o),
(244,416,o),
(221,416,cs),
(179,416,o),
(92,361,o),
(66,332,cs),
(60,325,o),
(81,307,o),
(87,313,cs),
(119,341,o),
(150,351,o),
(160,351,cs),
(177,351,o),
(185,335,o),
(174,302,cs),
(83,4,ls),
(80,-8,o),
(89,-13,o),
(107,-13,cs)
);
}
);
width = 585;
},
{
anchors = (
{
name = bottom;
pos = (356,8);
},
{
name = top;
pos = (451,680);
},
{
name = us;
pos = (700,680);
},
{
name = zzcurly;
pos = (648,631);
}
);
layerId = "997BDFA1-EC67-4686-8CFE-E56BDBE179FE";
shapes = (
{
closed = 1;
nodes = (
(143,-13,o),
(157,-5,o),
(163,11,cs),
(235,195,o),
(319,344,o),
(401,453,cs),
(487,568,o),
(552,624,o),
(595,624,cs),
(613,624,o),
(622,613,o),
(622,589,cs),
(622,576,o),
(615,537,o),
(595,465,cs),
(506,139,ls),
(494,94,o),
(488,60,o),
(488,36,cs),
(488,2,o),
(499,-13,o),
(523,-13,cs),
(573,-13,o),
(665,38,o),
(736,124,cs),
(745,134,o),
(722,163,o),
(710,151,cs),
(660,101,o),
(621,88,o),
(601,88,cs),
(576,88,o),
(570,118,o),
(590,190,cs),
(666,459,ls),
(680,510,o),
(688,554,o),
(688,588,cs),
(688,650,o),
(663,676,o),
(611,676,cs),
(508,676,o),
(383,539,o),
(245,267,c),
(239,270,l),
(308,524,ls),
(320,568,o),
(329,602,o),
(329,626,cs),
(329,660,o),
(314,676,o),
(289,676,cs),
(234,676,o),
(145,625,o),
(74,539,cs),
(65,528,o),
(90,502,o),
(100,512,cs),
(150,562,o),
(193,575,o),
(209,575,cs),
(232,575,o),
(238,543,o),
(224,491,cs),
(94,14,ls),
(89,-5,o),
(99,-13,o),
(120,-13,cs)
);
}
);
width = 775;
}
);
unicode = 110;
}
{
color = 9;
glyphname = u;
kernLeft = u;
layers = (
{
anchors = (
{
name = bottom;
pos = (243,0);
},
{
name = center;
pos = (253,244);
},
{
name = ogonek;
pos = (383,5);
},
{
name = ogonek_above;
pos = (142,405);
},
{
name = top;
pos = (286,416);
},
{
name = topright;
pos = (518,418);
},
{
name = us;
pos = (486,415);
},
{
name = zzcurly;
pos = (429,378);
}
);
layerId = master01;
shapes = (
{
closed = 1;
nodes = (
(174,-13,o),
(270,98,o),
(361,223,c),
(355,228,l),
(315,90,ls),
(305,54,o),
(303,42,o),
(303,28,cs),
(303,1,o),
(312,-13,o),
(333,-13,cs),
(376,-13,o),
(444,42,o),
(471,78,cs),
(475,84,o),
(457,103,o),
(450,96,cs),
(424,70,o),
(402,56,o),
(386,56,cs),
(372,56,o),
(371,75,o),
(383,117,cs),
(465,406,l),
(465,413,o),
(455,416,o),
(435,416,cs),
(418,416,o),
(408,412,o),
(405,405,cs),
(385,344,o),
(365,297,o),
(346,264,cs),
(300,185,o),
(199,50,o),
(157,50,cs),
(148,50,o),
(144,57,o),
(144,72,cs),
(144,86,o),
(151,117,o),
(164,163,cs),
(208,316,ls),
(217,346,o),
(219,362,o),
(219,375,cs),
(219,402,o),
(210,416,o),
(191,416,cs),
(153,416,o),
(85,358,o),
(58,322,cs),
(53,316,o),
(72,298,o),
(77,303,cs),
(106,333,o),
(125,347,o),
(136,347,cs),
(149,347,o),
(153,334,o),
(145,305,cs),
(83,88,ls),
(77,65,o),
(73,47,o),
(73,35,cs),
(73,3,o),
(86,-13,o),
(114,-13,cs)
);
}
);
width = 488;
},
{
anchors = (
{
name = bottom;
pos = (225,0);
},
{
name = center;
pos = (245,244);
},
{
name = ogonek;
pos = (382,5);
},
{
name = ogonek_above;
pos = (133,405);
},
{
name = top;
pos = (284,416);
},
{
name = topright;
pos = (523,418);
},
{
name = us;
pos = (492,415);
},
{
name = zzcurly;
pos = (435,378);
}
);
layerId = "2438E31C-45B5-47A7-9B3D-1A0FEFB47671";
shapes = (
{
closed = 1;
nodes = (
(173,-13,o),
(252,72,o),
(319,167,c),
(319,178,l),
(298,110,ls),
(286,71,o),
(285,59,o),
(285,43,cs),
(285,11,o),
(300,-13,o),
(333,-13,cs),
(375,-13,o),
(440,40,o),
(473,82,cs),
(479,90,o),
(452,113,o),
(446,107,cs),
(419,78,o),
(404,67,o),
(395,67,cs),
(387,67,o),
(388,81,o),
(399,117,cs),
(486,403,l),
(486,414,o),
(473,416,o),
(436,416,cs),
(407,416,o),
(392,412,o),
(390,405,cs),
(372,347,o),
(355,302,o),
(338,270,cs),
(298,194,o),
(209,65,o),
(172,65,cs),
(165,65,o),
(161,72,o),
(161,85,cs),
(161,98,o),
(167,124,o),
(179,162,cs),
(223,304,ls),
(233,337,o),
(235,356,o),
(235,371,cs),
(235,400,o),
(217,416,o),
(192,416,cs),
(144,416,o),
(79,360,o),
(50,320,cs),
(44,312,o),
(69,290,o),
(75,296,cs),
(100,325,o),
(115,336,o),
(125,336,cs),
(132,336,o),
(134,330,o),
(130,316,cs),
(63,102,ls),
(56,81,o),
(53,63,o),
(53,47,cs),
(53,7,o),
(74,-13,o),
(114,-13,cs)
);
}
);
width = 509;
},
{
anchors = (
{
name = bottom;
pos = (226,0);
},
{
name = center;
pos = (256,244);
},
{
name = ogonek;
pos = (384,5);
},
{
name = ogonek_above;
pos = (145,405);
},
{
name = top;
pos = (287,416);
},
{
name = topright;
pos = (517,418);
},
{
name = us;
pos = (484,415);
},
{
name = zzcurly;
pos = (427,378);
}
);
layerId = "7904EAEE-2B64-409E-B923-0048172372BE";
shapes = (
{
closed = 1;
nodes = (
(175,-13,o),
(275,106,o),
(376,242,c),
(367,245,l),
(321,83,ls),
(311,49,o),
(309,36,o),
(309,23,cs),
(309,-2,o),
(316,-13,o),
(333,-13,cs),
(367,-13,o),
(444,40,o),
(469,74,cs),
(473,80,o),
(456,97,o),
(451,91,cs),
(421,61,o),
(396,46,o),
(379,46,cs),
(364,46,o),
(364,66,o),
(378,117,cs),
(459,407,l),
(459,412,o),
(449,416,o),
(434,416,cs),
(421,416,o),
(413,412,o),
(411,405,cs),
(390,343,o),
(369,295,o),
(350,262,cs),
(303,182,o),
(197,45,o),
(153,45,cs),
(143,45,o),
(138,52,o),
(138,67,cs),
(138,83,o),
(145,114,o),
(159,164,cs),
(203,320,ls),
(211,349,o),
(214,364,o),
(214,377,cs),
(214,402,o),
(207,416,o),
(191,416,cs),
(157,416,o),
(86,359,o),
(60,322,cs),
(56,316,o),
(71,300,o),
(78,307,cs),
(108,337,o),
(128,351,o),
(141,351,cs),
(161,351,o),
(159,337,o),
(150,302,cs),
(90,83,ls),
(83,60,o),
(80,42,o),
(80,31,cs),
(80,1,o),
(91,-13,o),
(114,-13,cs)
);
}
);
width = 511;
},
{
anchors = (
{
name = bottom;
pos = (180,0);
},
{
name = center;
pos = (254,244);
},
{
name = ogonek;
pos = (312,5);
},
{
name = ogonek_above;
pos = (143,405);
},
{
name = top;
pos = (234,416);
},
{
name = topright;
pos = (422,418);
},
{
name = us;
pos = (409,415);
},
{
name = zzcurly;
pos = (352,378);
}
);
layerId = "E06D8587-1A71-4EC2-BD94-397D882F5FC1";
shapes = (
{
closed = 1;
nodes = (
(145,-13,o),
(217,89,o),
(282,206,c),
(278,213,l),
(252,97,ls),
(244,63,o),
(242,48,o),
(242,33,cs),
(242,5,o),
(251,-13,o),
(270,-13,cs),
(303,-13,o),
(360,43,o),
(383,83,cs),
(386,88,o),
(366,103,o),
(362,98,cs),
(341,72,o),
(327,60,o),
(317,60,cs),
(307,60,o),
(307,75,o),
(317,117,cs),
(384,405,l),
(384,413,o),
(375,416,o),
(354,416,cs),
(336,416,o),
(327,412,o),
(325,404,cs),
(310,343,o),
(295,296,o),
(280,263,cs),
(245,185,o),
(167,50,o),
(135,50,cs),
(128,50,o),
(125,58,o),
(125,71,cs),
(125,86,o),
(129,114,o),
(140,158,cs),
(177,312,ls),
(184,344,o),
(186,360,o),
(186,374,cs),
(186,401,o),
(176,416,o),
(158,416,cs),
(125,416,o),
(71,359,o),
(49,322,cs),
(43,313,o),
(63,296,o),
(70,305,cs),
(91,331,o),
(104,343,o),
(111,343,cs),
(122,343,o),
(121,333,o),
(116,309,cs),
(66,92,ls),
(61,70,o),
(58,51,o),
(58,39,cs),
(58,4,o),
(71,-13,o),
(97,-13,cs)
);
}
);
width = 415;
},
{
anchors = (
{
name = bottom;
pos = (295,0);
},
{
name = center;
pos = (250,244);
},
{
name = ogonek;
pos = (464,5);
},
{
name = ogonek_above;
pos = (139,405);
},
{
name = top;
pos = (333,416);
},
{
name = topright;
pos = (609,418);
},
{
name = us;
pos = (556,415);
},
{
name = zzcurly;
pos = (499,378);
}
);
layerId = "8F7CDE40-C368-4484-AA71-76B7ABD5539F";
shapes = (
{
closed = 1;
nodes = (
(213,-13,o),
(329,105,o),
(442,240,c),
(432,243,l),
(384,83,ls),
(374,49,o),
(372,36,o),
(372,27,cs),
(372,-2,o),
(384,-13,o),
(405,-13,cs),
(446,-13,o),
(532,42,o),
(558,71,cs),
(563,77,o),
(545,97,o),
(537,90,cs),
(511,67,o),
(481,52,o),
(464,52,cs),
(446,52,o),
(440,66,o),
(451,101,cs),
(541,407,l),
(541,412,o),
(530,416,o),
(510,416,cs),
(495,416,o),
(483,412,o),
(481,406,cs),
(457,345,o),
(433,298,o),
(411,265,cs),
(357,185,o),
(237,50,o),
(187,50,cs),
(175,50,o),
(169,58,o),
(169,74,cs),
(169,89,o),
(176,121,o),
(190,168,cs),
(236,320,ls),
(243,344,o),
(247,360,o),
(247,375,cs),
(247,402,o),
(238,416,o),
(218,416,cs),
(177,416,o),
(99,359,o),
(64,322,cs),
(62,320,o),
(79,299,o),
(82,302,cs),
(122,336,o),
(146,351,o),
(159,351,cs),
(179,351,o),
(181,336,o),
(171,302,cs),
(105,83,ls),
(99,62,o),
(96,44,o),
(96,34,cs),
(96,3,o),
(111,-13,o),
(141,-13,cs)
);
}
);
width = 601;
},
{
anchors = (
{
name = bottom;
pos = (362,8);
},
{
name = center;
pos = (318,323);
},
{
name = ogonek;
pos = (587,16);
},
{
name = ogonek_above;
pos = (172,535);
},
{
name = top;
pos = (433,676);
},
{
name = topright;
pos = (799,676);
},
{
name = us;
pos = (730,676);
},
{
name = zzcurly;
pos = (655,627);
}
);
layerId = "997BDFA1-EC67-4686-8CFE-E56BDBE179FE";
shapes = (
{
closed = 1;
nodes = (
(256,-13,o),
(422,182,o),
(583,406,c),
(568,409,l),
(491,138,ls),
(475,83,o),
(473,63,o),
(473,43,cs),
(473,3,o),
(482,-13,o),
(508,-13,cs),
(559,-13,o),
(651,38,o),
(722,124,cs),
(730,134,o),
(707,162,o),
(696,151,cs),
(654,110,o),
(617,88,o),
(587,88,cs),
(560,88,o),
(555,114,o),
(571,171,cs),
(706,661,l),
(706,670,o),
(692,676,o),
(671,676,cs),
(652,676,o),
(638,670,o),
(635,659,cs),
(601,557,o),
(568,479,o),
(535,423,cs),
(456,292,o),
(284,66,o),
(213,66,cs),
(198,66,o),
(190,79,o),
(190,103,cs),
(190,128,o),
(201,179,o),
(224,260,cs),
(296,524,ls),
(308,571,o),
(314,593,o),
(314,614,cs),
(314,655,o),
(305,676,o),
(279,676,cs),
(227,676,o),
(113,583,o),
(72,526,cs),
(65,517,o),
(90,492,o),
(99,501,cs),
(161,563,o),
(191,588,o),
(205,588,cs),
(230,588,o),
(235,562,o),
(220,505,cs),
(120,140,ls),
(109,103,o),
(104,72,o),
(104,56,cs),
(104,10,o),
(121,-13,o),
(156,-13,cs)
);
}
);
width = 775;
}
);
unicode = 117;
}
{
glyphname = yen;
layers = (
{
layerId = master01;
shapes = (
{
closed = 1;
nodes = (
(163,-1,o),
(202,0,o),
(251,0,cs),
(301,0,o),
(339,-1,o),
(368,-3,c),
(373,-3,o),
(381,13,o),
(381,23,cs),
(381,30,o),
(380,34,o),
(377,34,cs),
(345,34,o),
(309,39,o),
(309,62,cs),
(309,71,o),
(311,81,o),
(313,91,cs),
(355,238,ls),
(365,272,o),
(379,299,o),
(398,319,cs),
(584,517,ls),
(675,614,o),
(689,628,o),
(757,628,cs),
(763,628,o),
(771,645,o),
(771,656,cs),
(771,662,o),
(771,666,o),
(768,666,c),
(744,664,o),
(711,663,o),
(670,663,cs),
(628,663,o),
(597,664,o),
(576,666,c),
(569,666,o),
(562,650,o),
(562,639,cs),
(562,632,o),
(563,628,o),
(565,628,cs),
(598,628,o),
(614,622,o),
(614,609,cs),
(614,599,o),
(605,585,o),
(589,568,cs),
(372,335,ls),
(368,330,o),
(364,328,o),
(360,328,cs),
(357,328,o),
(354,331,o),
(353,336,cs),
(279,572,ls),
(276,582,o),
(274,589,o),
(274,597,cs),
(274,624,o),
(304,628,o),
(344,628,cs),
(350,628,o),
(358,645,o),
(358,655,cs),
(358,662,o),
(357,666,o),
(354,666,c),
(339,664,o),
(303,663,o),
(248,663,cs),
(193,663,o),
(158,664,o),
(143,666,c),
(137,666,o),
(129,649,o),
(129,639,cs),
(129,632,o),
(130,628,o),
(132,628,cs),
(176,628,o),
(195,616,o),
(209,572,cs),
(283,336,ls),
(290,313,o),
(294,295,o),
(294,284,cs),
(294,272,o),
(290,251,o),
(281,221,cs),
(244,91,ls),
(229,39,o),
(204,34,o),
(146,34,cs),
(140,34,o),
(132,18,o),
(132,7,cs),
(132,0,o),
(133,-3,o),
(135,-3,c)
);
},
{
closed = 1;
nodes = (
(549,230,ls),
(554,230,o),
(556,239,o),
(556,255,cs),
(556,271,o),
(554,279,o),
(549,279,cs),
(114,279,ls),
(109,279,o),
(106,271,o),
(106,255,cs),
(106,239,o),
(109,230,o),
(114,230,cs)
);
},
{
closed = 1;
nodes = (
(308,360,l),
(293,410,l),
(144,410,ls),
(139,410,o),
(136,401,o),
(136,385,cs),
(136,368,o),
(139,360,o),
(144,360,cs)
);
},
{
closed = 1;
nodes = (
(579,360,ls),
(583,360,o),
(586,368,o),
(586,385,cs),
(586,401,o),
(583,410,o),
(579,410,cs),
(462,410,l),
(417,360,l)
);
}
);
width = 600;
},
{
layerId = "2438E31C-45B5-47A7-9B3D-1A0FEFB47671";
shapes = (
{
closed = 1;
nodes = (
(138,-1,o),
(181,0,o),
(242,0,cs),
(303,0,o),
(345,-1,o),
(370,-4,c),
(378,-4,o),
(385,28,o),
(385,36,cs),
(385,40,o),
(384,42,o),
(382,42,cs),
(341,42,o),
(319,53,o),
(321,73,cs),
(321,81,o),
(323,89,o),
(325,98,cs),
(368,248,ls),
(376,278,o),
(387,300,o),
(400,313,cs),
(585,510,ls),
(659,588,o),
(682,620,o),
(759,620,cs),
(770,620,o),
(774,652,o),
(774,660,cs),
(774,664,o),
(773,666,o),
(771,666,c),
(752,664,o),
(717,663,o),
(666,663,cs),
(615,663,o),
(581,664,o),
(562,666,c),
(554,666,o),
(546,631,o),
(546,626,cs),
(546,622,o),
(547,620,o),
(550,620,cs),
(581,620,o),
(596,614,o),
(596,603,cs),
(596,594,o),
(589,581,o),
(573,565,cs),
(384,367,ls),
(377,361,o),
(373,357,o),
(369,357,cs),
(364,357,o),
(360,361,o),
(358,368,cs),
(294,565,ls),
(291,576,o),
(289,585,o),
(289,593,cs),
(289,611,o),
(309,620,o),
(348,620,cs),
(355,620,o),
(362,650,o),
(362,659,cs),
(362,664,o),
(361,666,o),
(358,666,c),
(339,664,o),
(298,663,o),
(234,663,cs),
(170,663,o),
(129,664,o),
(111,666,c),
(101,666,o),
(97,633,o),
(97,626,cs),
(97,622,o),
(99,620,o),
(101,620,cs),
(148,620,o),
(162,606,o),
(178,556,cs),
(252,331,ls),
(258,313,o),
(262,298,o),
(262,288,cs),
(262,277,o),
(258,258,o),
(250,231,cs),
(212,106,ls),
(196,55,o),
(182,42,o),
(125,42,cs),
(117,42,o),
(110,10,o),
(110,3,cs),
(110,-1,o),
(111,-4,o),
(113,-4,c)
);
},
{
closed = 1;
nodes = (
(539,227,ls),
(543,227,o),
(548,236,o),
(553,253,cs),
(557,270,o),
(557,278,o),
(553,278,cs),
(91,278,ls),
(87,278,o),
(83,270,o),
(78,253,cs),
(73,236,o),
(73,227,o),
(78,227,cs)
);
},
{
closed = 1;
nodes = (
(299,367,l),
(282,418,l),
(129,418,ls),
(125,418,o),
(120,410,o),
(115,393,cs),
(111,376,o),
(111,367,o),
(115,367,cs)
);
},
{
closed = 1;
nodes = (
(576,367,ls),
(582,367,o),
(586,376,o),
(590,393,cs),
(594,410,o),
(594,418,o),
(590,418,cs),
(469,418,l),
(422,367,l)
);
}
);
width = 619;
},
{
layerId = "7904EAEE-2B64-409E-B923-0048172372BE";
shapes = (
{
closed = 1;
nodes = (
(171,-1,o),
(209,0,o),
(255,0,cs),
(300,0,o),
(337,-1,o),
(367,-3,c),
(371,-3,o),
(380,8,o),
(380,20,cs),
(380,27,o),
(378,31,o),
(376,31,cs),
(347,31,o),
(305,35,o),
(305,58,cs),
(305,67,o),
(307,78,o),
(310,88,cs),
(351,234,ls),
(361,270,o),
(376,299,o),
(397,321,cs),
(583,520,ls),
(681,623,o),
(691,631,o),
(757,631,cs),
(761,631,o),
(771,643,o),
(771,654,cs),
(771,662,o),
(770,666,o),
(767,666,c),
(741,664,o),
(709,663,o),
(671,663,cs),
(633,663,o),
(603,664,o),
(580,666,c),
(574,666,o),
(566,657,o),
(566,644,cs),
(566,635,o),
(567,631,o),
(570,631,cs),
(604,631,o),
(620,625,o),
(620,611,cs),
(620,601,o),
(611,586,o),
(595,569,cs),
(368,324,ls),
(364,320,o),
(361,318,o),
(357,318,cs),
(354,318,o),
(352,320,o),
(351,326,cs),
(274,575,ls),
(271,583,o),
(270,591,o),
(270,598,cs),
(270,628,o),
(303,631,o),
(343,631,cs),
(348,631,o),
(356,643,o),
(356,654,cs),
(356,662,o),
(355,666,o),
(354,666,c),
(339,664,o),
(305,663,o),
(252,663,cs),
(200,663,o),
(167,664,o),
(153,666,c),
(149,666,o),
(140,655,o),
(140,643,cs),
(140,635,o),
(140,631,o),
(143,631,cs),
(186,631,o),
(207,619,o),
(219,578,cs),
(293,338,ls),
(301,313,o),
(305,294,o),
(305,282,cs),
(305,271,o),
(300,249,o),
(291,217,cs),
(254,86,ls),
(240,34,o),
(211,31,o),
(152,31,cs),
(148,31,o),
(139,20,o),
(139,8,cs),
(139,0,o),
(140,-3,o),
(143,-3,c)
);
},
{
closed = 1;
nodes = (
(550,231,ls),
(556,231,o),
(557,240,o),
(557,255,cs),
(557,271,o),
(556,280,o),
(550,280,cs),
(122,280,ls),
(116,280,o),
(115,271,o),
(115,255,cs),
(115,240,o),
(120,231,o),
(125,231,cs)
);
},
{
closed = 1;
nodes = (
(311,357,l),
(297,407,l),
(153,407,ls),
(147,407,o),
(146,398,o),
(146,382,cs),
(146,365,o),
(147,357,o),
(153,357,cs)
);
},
{
closed = 1;
nodes = (
(577,357,ls),
(583,357,o),
(584,365,o),
(584,382,cs),
(584,398,o),
(583,407,o),
(577,407,cs),
(460,407,l),
(415,357,l)
);
}
);
width = 593;
},
{
layerId = "E06D8587-1A71-4EC2-BD94-397D882F5FC1";
shapes = (
{
closed = 1;
nodes = (
(133,-1,o),
(167,0,o),
(208,0,cs),
(248,0,o),
(282,-1,o),
(304,-3,c),
(310,-3,o),
(316,18,o),
(316,27,cs),
(316,34,o),
(314,37,o),
(313,37,cs),
(285,37,o),
(260,43,o),
(260,65,cs),
(260,74,o),
(262,83,o),
(264,93,cs),
(298,241,ls),
(305,274,o),
(316,300,o),
(329,317,cs),
(477,515,ls),
(544,605,o),
(558,625,o),
(616,625,cs),
(622,625,o),
(627,647,o),
(627,657,cs),
(627,663,o),
(626,666,o),
(625,666,c),
(607,664,o),
(580,663,o),
(544,663,cs),
(508,663,o),
(481,664,o),
(465,666,c),
(460,666,o),
(454,644,o),
(454,635,cs),
(454,629,o),
(455,625,o),
(457,625,cs),
(481,625,o),
(495,620,o),
(495,607,cs),
(495,598,o),
(488,584,o),
(476,567,cs),
(311,346,ls),
(307,340,o),
(304,337,o),
(300,337,cs),
(298,337,o),
(295,339,o),
(293,347,cs),
(238,570,ls),
(235,580,o),
(234,588,o),
(234,595,cs),
(234,620,o),
(254,625,o),
(286,625,cs),
(291,625,o),
(297,646,o),
(297,656,cs),
(297,663,o),
(296,666,o),
(294,666,c),
(281,664,o),
(250,663,o),
(203,663,cs),
(157,663,o),
(126,664,o),
(113,666,c),
(107,666,o),
(102,643,o),
(102,635,cs),
(102,629,o),
(103,625,o),
(105,625,cs),
(145,625,o),
(156,607,o),
(166,567,cs),
(225,334,ls),
(230,313,o),
(234,296,o),
(234,285,cs),
(234,274,o),
(230,254,o),
(224,224,cs),
(194,96,ls),
(183,49,o),
(171,37,o),
(119,37,cs),
(114,37,o),
(107,14,o),
(107,5,cs),
(107,0,o),
(108,-3,o),
(110,-3,c)
);
},
{
closed = 1;
nodes = (
(445,229,ls),
(449,229,o),
(452,236,o),
(453,254,cs),
(455,271,o),
(453,279,o),
(450,279,cs),
(93,279,ls),
(89,279,o),
(86,271,o),
(85,254,cs),
(83,238,o),
(84,229,o),
(88,229,cs)
);
},
{
closed = 1;
nodes = (
(253,362,l),
(240,413,l),
(119,413,ls),
(115,413,o),
(112,402,o),
(111,387,cs),
(110,374,o),
(111,362,o),
(115,362,cs)
);
},
{
closed = 1;
nodes = (
(472,362,ls),
(476,362,o),
(479,371,o),
(479,387,cs),
(480,403,o),
(480,413,o),
(476,413,cs),
(382,413,l),
(344,362,l)
);
}
);
width = 490;
},
{
layerId = "8F7CDE40-C368-4484-AA71-76B7ABD5539F";
shapes = (
{
closed = 1;
nodes = (
(193,-1,o),
(238,0,o),
(295,0,cs),
(354,0,o),
(397,-1,o),
(431,-3,c),
(437,-3,o),
(447,8,o),
(447,20,cs),
(447,27,o),
(445,31,o),
(442,31,cs),
(405,31,o),
(358,35,o),
(358,58,cs),
(358,68,o),
(359,79,o),
(363,88,cs),
(413,234,ls),
(425,270,o),
(443,298,o),
(467,321,cs),
(691,519,ls),
(807,623,o),
(820,631,o),
(899,631,cs),
(904,631,o),
(916,643,o),
(916,654,cs),
(916,661,o),
(915,666,o),
(912,666,c),
(880,664,o),
(842,663,o),
(795,663,cs),
(749,663,o),
(713,664,o),
(686,666,c),
(679,666,o),
(669,657,o),
(669,644,cs),
(669,635,o),
(670,631,o),
(673,631,cs),
(714,631,o),
(733,625,o),
(733,611,cs),
(733,601,o),
(723,587,o),
(703,569,cs),
(433,324,ls),
(428,320,o),
(424,318,o),
(420,318,cs),
(416,318,o),
(414,322,o),
(412,326,cs),
(320,575,ls),
(316,583,o),
(315,590,o),
(315,598,cs),
(315,628,o),
(354,631,o),
(402,631,cs),
(408,631,o),
(419,643,o),
(419,654,cs),
(419,662,o),
(417,666,o),
(415,666,c),
(397,664,o),
(356,663,o),
(293,663,cs),
(229,663,o),
(189,664,o),
(172,666,c),
(167,666,o),
(156,656,o),
(156,643,cs),
(156,635,o),
(157,631,o),
(160,631,cs),
(208,631,o),
(235,624,o),
(252,578,cs),
(340,338,ls),
(350,312,o),
(354,294,o),
(354,282,cs),
(354,271,o),
(349,249,o),
(338,217,cs),
(293,86,ls),
(275,29,o),
(237,31,o),
(172,31,cs),
(167,31,o),
(156,21,o),
(156,8,cs),
(156,0,o),
(157,-3,o),
(160,-3,c)
);
},
{
closed = 1;
nodes = (
(652,231,ls),
(659,231,o),
(661,242,o),
(659,256,cs),
(658,271,o),
(654,280,o),
(648,280,cs),
(135,280,ls),
(128,280,o),
(126,271,o),
(128,255,cs),
(129,240,o),
(133,231,o),
(139,231,cs)
);
},
{
closed = 1;
nodes = (
(363,357,l),
(346,407,l),
(168,407,ls),
(162,407,o),
(161,401,o),
(162,382,cs),
(163,362,o),
(167,357,o),
(172,357,cs)
);
},
{
closed = 1;
nodes = (
(686,357,ls),
(691,357,o),
(693,365,o),
(692,383,cs),
(691,399,o),
(687,407,o),
(681,407,cs),
(543,407,l),
(489,357,l)
);
}
);
width = 709;
},
{
layerId = "997BDFA1-EC67-4686-8CFE-E56BDBE179FE";
shapes = (
{
closed = 1;
nodes = (
(163,-1,o),
(202,0,o),
(251,0,cs),
(301,0,o),
(339,-1,o),
(368,-3,c),
(373,-3,o),
(381,13,o),
(381,23,cs),
(381,30,o),
(380,34,o),
(377,34,cs),
(345,34,o),
(309,39,o),
(309,62,cs),
(309,71,o),
(311,81,o),
(313,91,cs),
(355,238,ls),
(365,272,o),
(379,299,o),
(398,319,cs),
(584,517,ls),
(675,614,o),
(689,628,o),
(757,628,cs),
(763,628,o),
(771,645,o),
(771,656,cs),
(771,662,o),
(771,666,o),
(768,666,c),
(744,664,o),
(711,663,o),
(670,663,cs),
(628,663,o),
(597,664,o),
(576,666,c),
(569,666,o),
(562,650,o),
(562,639,cs),
(562,632,o),
(563,628,o),
(565,628,cs),
(598,628,o),
(614,622,o),
(614,609,cs),
(614,599,o),
(605,585,o),
(589,568,cs),
(372,335,ls),
(368,330,o),
(364,328,o),
(360,328,cs),
(357,328,o),
(354,331,o),
(353,336,cs),
(279,572,ls),
(276,582,o),
(274,589,o),
(274,597,cs),
(274,624,o),
(304,628,o),
(344,628,cs),
(350,628,o),
(358,645,o),
(358,655,cs),
(358,662,o),
(357,666,o),
(354,666,c),
(339,664,o),
(303,663,o),
(248,663,cs),
(193,663,o),
(158,664,o),
(143,666,c),
(137,666,o),
(129,649,o),
(129,639,cs),
(129,632,o),
(130,628,o),
(132,628,cs),
(176,628,o),
(195,616,o),
(209,572,cs),
(283,336,ls),
(290,313,o),
(294,295,o),
(294,284,cs),
(294,272,o),
(290,251,o),
(281,221,cs),
(244,91,ls),
(229,39,o),
(204,34,o),
(146,34,cs),
(140,34,o),
(132,18,o),
(132,7,cs),
(132,0,o),
(133,-3,o),
(135,-3,c)
);
},
{
closed = 1;
nodes = (
(549,230,ls),
(554,230,o),
(556,239,o),
(556,255,cs),
(556,271,o),
(554,279,o),
(549,279,cs),
(114,279,ls),
(109,279,o),
(106,271,o),
(106,255,cs),
(106,239,o),
(109,230,o),
(114,230,cs)
);
},
{
closed = 1;
nodes = (
(308,360,l),
(293,410,l),
(144,410,ls),
(139,410,o),
(136,401,o),
(136,385,cs),
(136,368,o),
(139,360,o),
(144,360,cs)
);
},
{
closed = 1;
nodes = (
(579,360,ls),
(583,360,o),
(586,368,o),
(586,385,cs),
(586,401,o),
(583,410,o),
(579,410,cs),
(462,410,l),
(417,360,l)
);
}
);
width = 600;
}
);
unicode = 165;
}
{
glyphname = threesuperior;
layers = (
{
layerId = master01;
shapes = (
{
closed = 1;
nodes = (
(206,246,o),
(309,313,o),
(309,409,cs),
(309,438,o),
(297,458,o),
(275,470,cs),
(266,475,o),
(266,479,o),
(275,484,cs),
(307,502,o),
(335,533,o),
(335,577,cs),
(335,617,o),
(308,644,o),
(266,644,cs),
(216,644,o),
(182,614,o),
(141,573,cs),
(136,568,o),
(152,554,o),
(157,560,cs),
(183,588,o),
(206,605,o),
(235,605,cs),
(258,605,o),
(267,588,o),
(267,569,cs),
(267,518,o),
(218,477,o),
(154,477,cs),
(145,477,o),
(142,458,o),
(142,453,cs),
(142,448,o),
(143,444,o),
(149,445,cs),
(159,448,o),
(168,450,o),
(180,450,cs),
(216,450,o),
(234,428,o),
(234,395,cs),
(234,351,o),
(193,276,o),
(150,276,cs),
(135,276,o),
(123,289,o),
(119,299,cs),
(114,313,o),
(105,324,o),
(91,324,cs),
(69,324,o),
(47,309,o),
(47,287,cs),
(47,254,o),
(96,246,o),
(127,246,cs)
);
}
);
width = 303;
},
{
layerId = "2438E31C-45B5-47A7-9B3D-1A0FEFB47671";
shapes = (
{
closed = 1;
nodes = (
(201,246,o),
(311,309,o),
(311,413,cs),
(311,438,o),
(302,457,o),
(284,471,cs),
(279,476,o),
(279,481,o),
(284,484,cs),
(306,500,o),
(336,530,o),
(336,573,cs),
(336,615,o),
(306,644,o),
(261,644,cs),
(203,644,o),
(171,607,o),
(128,564,cs),
(124,561,o),
(140,545,o),
(145,551,cs),
(174,583,o),
(197,602,o),
(230,602,cs),
(251,602,o),
(256,584,o),
(256,568,cs),
(256,521,o),
(216,478,o),
(150,478,cs),
(138,478,o),
(137,454,o),
(137,450,cs),
(137,445,o),
(139,441,o),
(144,442,cs),
(156,446,o),
(165,447,o),
(175,447,cs),
(208,447,o),
(224,427,o),
(224,397,cs),
(224,355,o),
(186,280,o),
(147,280,cs),
(132,280,o),
(120,295,o),
(118,304,cs),
(117,316,o),
(106,330,o),
(87,330,cs),
(62,330,o),
(37,313,o),
(37,290,cs),
(37,252,o),
(98,246,o),
(124,246,cs)
);
}
);
width = 291;
},
{
layerId = "7904EAEE-2B64-409E-B923-0048172372BE";
shapes = (
{
closed = 1;
nodes = (
(202,246,o),
(290,320,o),
(290,400,cs),
(290,438,o),
(272,462,o),
(237,470,cs),
(228,472,o),
(228,476,o),
(237,479,cs),
(293,507,o),
(319,541,o),
(319,585,cs),
(319,621,o),
(295,644,o),
(258,644,cs),
(221,644,o),
(185,623,o),
(147,584,cs),
(143,581,o),
(156,569,o),
(159,572,cs),
(185,598,o),
(207,612,o),
(230,612,cs),
(256,612,o),
(272,598,o),
(272,571,cs),
(272,509,o),
(208,474,o),
(147,474,cs),
(143,474,o),
(139,465,o),
(139,457,cs),
(139,453,o),
(139,450,o),
(141,450,cs),
(150,454,o),
(162,455,o),
(175,455,cs),
(217,455,o),
(238,432,o),
(238,392,cs),
(238,342,o),
(193,269,o),
(142,269,cs),
(126,269,o),
(114,276,o),
(105,290,cs),
(96,304,o),
(88,312,o),
(81,312,cs),
(68,312,o),
(50,300,o),
(50,283,cs),
(50,258,o),
(73,246,o),
(117,246,cs)
);
}
);
width = 289;
},
{
layerId = "E06D8587-1A71-4EC2-BD94-397D882F5FC1";
shapes = (
{
closed = 1;
nodes = (
(167,246,o),
(251,313,o),
(251,409,cs),
(251,437,o),
(243,459,o),
(227,470,cs),
(221,474,o),
(221,479,o),
(227,484,cs),
(249,503,o),
(271,534,o),
(271,578,cs),
(271,616,o),
(250,644,o),
(214,644,cs),
(173,644,o),
(145,613,o),
(111,571,cs),
(107,566,o),
(122,554,o),
(125,559,cs),
(146,587,o),
(165,605,o),
(189,605,cs),
(207,605,o),
(213,589,o),
(213,569,cs),
(213,517,o),
(177,477,o),
(125,477,cs),
(118,477,o),
(115,458,o),
(115,453,cs),
(115,447,o),
(117,444,o),
(121,445,cs),
(131,449,o),
(137,450,o),
(146,450,cs),
(174,450,o),
(188,428,o),
(188,395,cs),
(188,352,o),
(156,275,o),
(123,275,cs),
(110,275,o),
(101,288,o),
(99,299,cs),
(96,313,o),
(87,323,o),
(75,323,cs),
(57,323,o),
(38,309,o),
(38,287,cs),
(38,255,o),
(80,246,o),
(104,246,cs)
);
}
);
width = 245;
},
{
layerId = "8F7CDE40-C368-4484-AA71-76B7ABD5539F";
shapes = (
{
closed = 1;
nodes = (
(240,246,o),
(361,313,o),
(361,409,cs),
(361,439,o),
(346,458,o),
(318,470,cs),
(306,475,o),
(306,479,o),
(318,483,cs),
(360,501,o),
(394,533,o),
(394,577,cs),
(394,617,o),
(360,644,o),
(312,644,cs),
(254,644,o),
(214,614,o),
(166,575,cs),
(160,569,o),
(176,554,o),
(183,560,cs),
(213,588,o),
(242,604,o),
(276,604,cs),
(303,604,o),
(314,588,o),
(314,569,cs),
(314,518,o),
(254,477,o),
(178,477,cs),
(168,477,o),
(164,458,o),
(164,453,cs),
(164,449,o),
(164,443,o),
(172,445,cs),
(181,447,o),
(194,449,o),
(209,449,cs),
(253,449,o),
(275,429,o),
(275,395,cs),
(275,351,o),
(225,277,o),
(172,277,cs),
(155,277,o),
(140,289,o),
(134,299,cs),
(127,313,o),
(117,324,o),
(101,324,cs),
(77,324,o),
(50,310,o),
(50,287,cs),
(50,253,o),
(106,246,o),
(145,246,cs)
);
}
);
width = 360;
},
{
layerId = "997BDFA1-EC67-4686-8CFE-E56BDBE179FE";
shapes = (
{
closed = 1;
nodes = (
(196,246,o),
(299,313,o),
(299,409,cs),
(299,438,o),
(287,458,o),
(265,470,cs),
(256,475,o),
(256,479,o),
(265,484,cs),
(297,502,o),
(325,533,o),
(325,577,cs),
(325,617,o),
(297,644,o),
(255,644,cs),
(206,644,o),
(172,614,o),
(131,573,cs),
(126,568,o),
(142,554,o),
(146,560,cs),
(172,588,o),
(196,605,o),
(225,605,cs),
(248,605,o),
(256,588,o),
(256,569,cs),
(256,518,o),
(208,477,o),
(144,477,cs),
(135,477,o),
(132,458,o),
(132,453,cs),
(132,448,o),
(133,444,o),
(139,445,cs),
(148,448,o),
(158,450,o),
(170,450,cs),
(206,450,o),
(224,428,o),
(224,395,cs),
(224,351,o),
(183,276,o),
(140,276,cs),
(125,276,o),
(113,289,o),
(109,299,cs),
(104,313,o),
(95,324,o),
(81,324,cs),
(59,324,o),
(37,309,o),
(37,287,cs),
(37,254,o),
(85,246,o),
(117,246,cs)
);
}
);
width = 302;
}
);
metricLeft = "=three*0.6";
metricWidth = zerosuperior;
unicode = 179;
}
{
color = 9;
glyphname = oslash;
kernLeft = c;
layers = (
{
anchors = (
{
name = bottom;
pos = (164,0);
},
{
name = ogonek_above;
pos = (224,405);
},
{
name = top;
pos = (284,416);
},
{
name = us;
pos = (469,415);
}
);
layerId = master01;
shapes = (
{
closed = 1;
nodes = (
(295,-13,o),
(400,128,o),
(400,267,cs),
(400,356,o),
(360,416,o),
(282,416,cs),
(165,416,o),
(47,276,o),
(47,149,cs),
(47,52,o),
(85,-13,o),
(160,-13,cs)
);
},
{
closed = 1;
nodes = (
(125,33,o),
(104,60,o),
(104,113,cs),
(104,214,o),
(206,375,o),
(282,375,cs),
(324,375,o),
(345,346,o),
(345,282,cs),
(345,187,o),
(244,33,o),
(174,33,cs)
);
},
{
closed = 1;
nodes = (
(391,432,ls),
(395,438,o),
(369,455,o),
(365,448,cs),
(52,-34,ls),
(47,-42,o),
(72,-58,o),
(77,-50,cs)
);
}
);
width = 408;
},
{
anchors = (
{
name = bottom;
pos = (172,0);
},
{
name = ogonek_above;
pos = (205,405);
},
{
name = top;
pos = (292,416);
},
{
name = us;
pos = (450,415);
}
);
layerId = "2438E31C-45B5-47A7-9B3D-1A0FEFB47671";
shapes = (
{
closed = 1;
nodes = (
(311,-13,o),
(425,126,o),
(425,263,cs),
(425,351,o),
(380,416,o),
(289,416,cs),
(164,416,o),
(36,277,o),
(36,154,cs),
(36,58,o),
(82,-13,o),
(167,-13,cs)
);
},
{
closed = 1;
nodes = (
(141,42,o),
(125,61,o),
(125,99,cs),
(125,192,o),
(226,365,o),
(294,365,cs),
(323,365,o),
(338,346,o),
(338,302,cs),
(338,210,o),
(238,42,o),
(177,42,cs)
);
},
{
closed = 1;
nodes = (
(411,423,ls),
(416,429,o),
(388,451,o),
(382,443,cs),
(38,-31,ls),
(32,-39,o),
(61,-59,o),
(67,-51,cs)
);
}
);
width = 430;
},
{
anchors = (
{
name = bottom;
pos = (162,0);
},
{
name = ogonek_above;
pos = (231,405);
},
{
name = top;
pos = (282,416);
},
{
name = us;
pos = (476,415);
}
);
layerId = "7904EAEE-2B64-409E-B923-0048172372BE";
shapes = (
{
closed = 1;
nodes = (
(290,-13,o),
(392,129,o),
(392,269,cs),
(392,358,o),
(355,416,o),
(280,416,cs),
(166,416,o),
(51,275,o),
(51,147,cs),
(51,50,o),
(87,-13,o),
(158,-13,cs)
);
},
{
closed = 1;
nodes = (
(121,30,o),
(98,59,o),
(98,117,cs),
(98,222,o),
(200,378,o),
(279,378,cs),
(325,378,o),
(348,346,o),
(348,275,cs),
(348,179,o),
(248,30,o),
(174,30,cs)
);
},
{
closed = 1;
nodes = (
(385,435,ls),
(390,443,o),
(365,457,o),
(361,450,cs),
(58,-36,ls),
(53,-43,o),
(77,-58,o),
(81,-50,cs)
);
}
);
width = 401;
},
{
anchors = (
{
name = bottom;
pos = (120,0);
},
{
name = ogonek_above;
pos = (215,405);
},
{
name = top;
pos = (217,416);
},
{
name = us;
pos = (460,415);
}
);
layerId = "E06D8587-1A71-4EC2-BD94-397D882F5FC1";
shapes = (
{
closed = 1;
nodes = (
(247,-13,o),
(335,128,o),
(335,266,cs),
(335,354,o),
(301,416,o),
(234,416,cs),
(137,416,o),
(40,276,o),
(40,151,cs),
(40,55,o),
(72,-13,o),
(135,-13,cs)
);
},
{
closed = 1;
nodes = (
(112,33,o),
(97,58,o),
(97,108,cs),
(97,208,o),
(178,375,o),
(236,375,cs),
(265,375,o),
(279,348,o),
(279,290,cs),
(279,194,o),
(200,33,o),
(147,33,cs)
);
},
{
closed = 1;
nodes = (
(332,435,ls),
(336,442,o),
(312,456,o),
(309,449,cs),
(47,-33,ls),
(43,-40,o),
(66,-53,o),
(70,-46,cs)
);
}
);
width = 342;
},
{
anchors = (
{
name = bottom;
pos = (217,0);
},
{
name = ogonek_above;
pos = (237,405);
},
{
name = top;
pos = (346,416);
},
{
name = us;
pos = (482,415);
}
);
layerId = "8F7CDE40-C368-4484-AA71-76B7ABD5539F";
shapes = (
{
closed = 1;
nodes = (
(349,-13,o),
(465,124,o),
(465,260,cs),
(465,358,o),
(413,416,o),
(325,416,cs),
(190,416,o),
(58,280,o),
(58,153,cs),
(58,49,o),
(109,-13,o),
(195,-13,cs)
);
},
{
closed = 1;
nodes = (
(146,33,o),
(116,63,o),
(116,123,cs),
(116,226,o),
(231,375,o),
(325,375,cs),
(381,375,o),
(411,339,o),
(411,271,cs),
(411,175,o),
(296,33,o),
(208,33,cs)
);
},
{
closed = 1;
nodes = (
(444,430,ls),
(448,435,o),
(421,454,o),
(416,448,cs),
(69,-36,ls),
(62,-45,o),
(89,-63,o),
(95,-54,cs)
);
}
);
width = 476;
},
{
anchors = (
{
name = bottom;
pos = (254,0);
},
{
name = ogonek_above;
pos = (320,659);
},
{
name = top;
pos = (410,676);
},
{
name = us;
pos = (633,676);
}
);
layerId = "997BDFA1-EC67-4686-8CFE-E56BDBE179FE";
shapes = (
{
closed = 1;
nodes = (
(424,-13,o),
(588,216,o),
(588,440,cs),
(588,583,o),
(528,676,o),
(409,676,cs),
(227,676,o),
(43,450,o),
(43,244,cs),
(43,86,o),
(100,-13,o),
(214,-13,cs)
);
},
{
closed = 1;
nodes = (
(153,56,o),
(114,103,o),
(114,198,cs),
(114,367,o),
(279,617,o),
(406,617,cs),
(482,617,o),
(520,563,o),
(520,448,cs),
(520,292,o),
(358,56,o),
(237,56,cs)
);
},
{
closed = 1;
nodes = (
(580,713,ls),
(585,722,o),
(551,743,o),
(546,734,cs),
(51,-45,ls),
(44,-57,o),
(77,-78,o),
(84,-67,cs)
);
}
);
width = 591;
}
);
metricLeft = o;
metricRight = o;
unicode = 248;
}
{
glyphname = Eng;
kernLeft = B;
layers = (
{
anchors = (
{
name = bottom;
pos = (262,-224);
},
{
name = top;
pos = (493,666);
}
);
layerId = master01;
shapes = (
{
closed = 1;
nodes = (
(392,-243,o),
(433,-231,o),
(461,-208,cs),
(521,-156,o),
(552,-85,o),
(577,2,cs),
(741,575,ls),
(752,611,o),
(760,631,o),
(828,631,cs),
(837,631,o),
(847,668,o),
(838,668,c),
(807,666,o),
(775,666,o),
(744,666,cs),
(713,666,o),
(681,666,o),
(650,668,c),
(641,668,o),
(630,631,o),
(639,631,cs),
(720,631,o),
(719,611,o),
(708,575,cs),
(582,142,ls),
(579,132,o),
(575,127,o),
(570,127,cs),
(565,127,o),
(560,131,o),
(556,141,cs),
(317,643,ls),
(308,662,o),
(299,666,o),
(264,666,cs),
(234,666,o),
(206,666,o),
(176,668,c),
(168,668,o),
(158,631,o),
(167,631,cs),
(248,631,o),
(249,612,o),
(230,546,cs),
(101,91,ls),
(90,53,o),
(80,34,o),
(0,34,cs),
(-9,34,o),
(-19,-3,o),
(-10,-3,c),
(23,-1,o),
(55,0,o),
(88,0,cs),
(120,0,o),
(153,-1,o),
(186,-3,c),
(194,-3,o),
(204,34,o),
(195,34,cs),
(123,34,o),
(124,53,o),
(134,91,cs),
(263,542,ls),
(266,553,o),
(269,558,o),
(274,558,cs),
(279,558,o),
(284,554,o),
(287,548,cs),
(530,41,ls),
(538,24,o),
(541,14,o),
(541,7,cs),
(541,1,o),
(539,-7,o),
(536,-18,cs),
(523,-61,ls),
(504,-125,o),
(450,-207,o),
(395,-207,cs),
(390,-207,o),
(382,-203,o),
(372,-195,cs),
(361,-187,o),
(352,-182,o),
(342,-182,cs),
(326,-182,o),
(307,-193,o),
(307,-207,cs),
(307,-227,o),
(321,-243,o),
(338,-243,cs)
);
}
);
width = 771;
},
{
anchors = (
{
name = bottom;
pos = (256,-224);
},
{
name = top;
pos = (487,666);
}
);
layerId = "2438E31C-45B5-47A7-9B3D-1A0FEFB47671";
shapes = (
{
closed = 1;
nodes = (
(385,-253,o),
(436,-233,o),
(478,-188,cs),
(505,-159,o),
(548,-106,o),
(573,-19,cs),
(742,564,ls),
(753,603,o),
(781,623,o),
(825,623,cs),
(834,623,o),
(847,668,o),
(838,668,c),
(808,666,o),
(776,666,o),
(743,666,cs),
(711,666,o),
(680,666,o),
(647,668,c),
(638,668,o),
(626,623,o),
(634,623,cs),
(685,623,o),
(704,603,o),
(692,564,cs),
(593,219,ls),
(590,209,o),
(584,204,o),
(576,204,cs),
(572,204,o),
(570,207,o),
(567,211,cs),
(342,636,ls),
(329,661,o),
(310,666,o),
(251,666,cs),
(223,666,o),
(195,666,o),
(168,668,c),
(159,668,o),
(146,623,o),
(155,623,cs),
(211,623,o),
(233,603,o),
(223,566,cs),
(89,99,ls),
(79,62,o),
(65,42,o),
(-5,42,cs),
(-14,42,o),
(-27,-3,o),
(-18,-3,c),
(19,-1,o),
(54,0,o),
(87,0,cs),
(119,0,o),
(151,-1,o),
(184,-3,c),
(193,-3,o),
(206,42,o),
(197,42,cs),
(128,42,o),
(128,62,o),
(139,99,cs),
(252,495,ls),
(255,502,o),
(259,505,o),
(263,505,cs),
(265,505,o),
(267,503,o),
(270,498,cs),
(525,34,ls),
(528,28,o),
(529,23,o),
(529,18,cs),
(529,14,o),
(529,10,o),
(528,6,cs),
(521,-19,ls),
(494,-112,o),
(434,-188,o),
(402,-188,cs),
(396,-188,o),
(393,-185,o),
(385,-174,cs),
(376,-160,o),
(360,-153,o),
(343,-153,cs),
(310,-153,o),
(280,-178,o),
(280,-213,cs),
(280,-236,o),
(300,-253,o),
(330,-253,cs)
);
}
);
width = 767;
},
{
anchors = (
{
name = bottom;
pos = (259,-224);
},
{
name = top;
pos = (489,666);
}
);
layerId = "7904EAEE-2B64-409E-B923-0048172372BE";
shapes = (
{
closed = 1;
nodes = (
(396,-240,o),
(434,-231,o),
(457,-214,cs),
(530,-159,o),
(555,-79,o),
(580,9,cs),
(742,578,ls),
(752,614,o),
(763,634,o),
(830,634,cs),
(838,634,o),
(848,668,o),
(839,668,c),
(808,666,o),
(776,666,o),
(745,666,cs),
(714,666,o),
(683,666,o),
(651,668,c),
(643,668,o),
(632,634,o),
(641,634,cs),
(725,634,o),
(725,614,o),
(714,578,cs),
(579,116,ls),
(576,106,o),
(573,101,o),
(569,101,cs),
(564,101,o),
(558,106,o),
(553,117,cs),
(310,646,ls),
(303,661,o),
(297,666,o),
(270,666,cs),
(240,666,o),
(211,667,o),
(181,668,c),
(172,668,o),
(163,634,o),
(172,634,cs),
(243,634,o),
(256,618,o),
(234,540,cs),
(106,88,ls),
(93,45,o),
(85,31,o),
(2,31,cs),
(-7,31,o),
(-15,-3,o),
(-6,-3,c),
(26,-1,o),
(58,0,o),
(90,0,cs),
(123,0,o),
(155,-1,o),
(187,-3,c),
(196,-3,o),
(205,31,o),
(196,31,cs),
(123,31,o),
(122,45,o),
(134,88,cs),
(268,559,ls),
(271,569,o),
(274,575,o),
(279,575,cs),
(286,575,o),
(291,571,o),
(294,564,cs),
(533,42,ls),
(542,23,o),
(546,10,o),
(546,4,cs),
(546,-3,o),
(544,-13,o),
(540,-26,cs),
(525,-75,ls),
(508,-129,o),
(456,-213,o),
(393,-213,cs),
(390,-213,o),
(380,-209,o),
(369,-202,cs),
(358,-194,o),
(350,-192,o),
(343,-192,cs),
(332,-192,o),
(317,-198,o),
(317,-205,cs),
(317,-223,o),
(329,-240,o),
(342,-240,cs)
);
}
);
width = 774;
},
{
anchors = (
{
name = bottom;
pos = (206,-224);
},
{
name = top;
pos = (402,666);
}
);
layerId = "E06D8587-1A71-4EC2-BD94-397D882F5FC1";
shapes = (
{
closed = 1;
nodes = (
(317,-247,o),
(354,-232,o),
(380,-201,cs),
(417,-157,o),
(446,-92,o),
(466,-5,cs),
(599,571,ls),
(608,611,o),
(616,631,o),
(668,631,cs),
(676,631,o),
(686,668,o),
(677,668,c),
(651,667,o),
(626,666,o),
(601,666,cs),
(576,666,o),
(550,667,o),
(525,668,c),
(516,668,o),
(507,631,o),
(516,631,cs),
(575,631,o),
(577,611,o),
(567,571,cs),
(475,167,ls),
(473,157,o),
(469,153,o),
(464,153,cs),
(461,153,o),
(457,156,o),
(454,164,cs),
(268,641,ls),
(261,659,o),
(249,666,o),
(213,666,cs),
(190,666,o),
(167,667,o),
(144,668,c),
(135,668,o),
(127,631,o),
(136,631,cs),
(190,631,o),
(201,609,o),
(189,556,cs),
(82,91,ls),
(72,45,o),
(48,34,o),
(3,34,cs),
(-5,34,o),
(-14,-3,o),
(-5,-3,c),
(22,-1,o),
(48,0,o),
(75,0,cs),
(101,0,o),
(127,-1,o),
(154,-3,c),
(163,-3,o),
(171,34,o),
(162,34,cs),
(113,34,o),
(107,58,o),
(114,91,cs),
(213,526,ls),
(215,536,o),
(218,540,o),
(221,540,cs),
(225,540,o),
(227,537,o),
(230,531,cs),
(428,39,ls),
(433,26,o),
(435,18,o),
(435,11,cs),
(435,4,o),
(434,-1,o),
(432,-10,cs),
(423,-46,ls),
(406,-121,o),
(360,-201,o),
(324,-201,cs),
(320,-201,o),
(315,-197,o),
(308,-188,cs),
(300,-179,o),
(291,-172,o),
(280,-172,cs),
(261,-172,o),
(242,-188,o),
(242,-208,cs),
(242,-229,o),
(256,-247,o),
(274,-247,cs)
);
}
);
width = 626;
},
{
anchors = (
{
name = bottom;
pos = (336,-224);
},
{
name = top;
pos = (569,666);
}
);
layerId = "8F7CDE40-C368-4484-AA71-76B7ABD5539F";
shapes = (
{
closed = 1;
nodes = (
(488,-240,o),
(533,-231,o),
(559,-213,cs),
(640,-156,o),
(670,-80,o),
(697,9,cs),
(873,578,ls),
(883,611,o),
(893,631,o),
(977,631,cs),
(985,631,o),
(995,668,o),
(986,668,c),
(949,666,o),
(911,666,o),
(874,666,cs),
(837,666,o),
(798,666,o),
(761,668,c),
(753,668,o),
(741,631,o),
(750,631,cs),
(855,631,o),
(848,608,o),
(839,578,cs),
(694,116,ls),
(691,106,o),
(687,101,o),
(683,101,cs),
(676,101,o),
(670,105,o),
(663,117,cs),
(354,646,ls),
(342,666,o),
(336,666,o),
(300,666,cs),
(265,666,o),
(231,666,o),
(195,668,c),
(186,668,o),
(176,631,o),
(185,631,cs),
(294,631,o),
(286,615,o),
(262,537,cs),
(126,91,ls),
(116,60,o),
(121,34,o),
(4,34,cs),
(-4,34,o),
(-15,-3,o),
(-6,-3,c),
(33,-1,o),
(72,0,o),
(111,0,cs),
(149,0,o),
(188,-1,o),
(227,-3,c),
(236,-3,o),
(246,34,o),
(237,34,cs),
(147,34,o),
(147,44,o),
(161,91,cs),
(303,559,ls),
(306,570,o),
(310,575,o),
(317,575,cs),
(324,575,o),
(330,570,o),
(334,564,cs),
(640,42,ls),
(651,24,o),
(656,10,o),
(656,3,cs),
(656,-2,o),
(655,-13,o),
(651,-26,cs),
(634,-75,ls),
(615,-132,o),
(555,-213,o),
(483,-213,cs),
(477,-213,o),
(468,-210,o),
(453,-202,cs),
(439,-194,o),
(428,-192,o),
(421,-192,cs),
(407,-192,o),
(388,-198,o),
(388,-205,cs),
(388,-223,o),
(404,-240,o),
(420,-240,cs)
);
}
);
width = 921;
},
{
anchors = (
{
name = bottom;
pos = (247,-224);
},
{
name = top;
pos = (478,666);
}
);
layerId = "997BDFA1-EC67-4686-8CFE-E56BDBE179FE";
shapes = (
{
closed = 1;
nodes = (
(377,-243,o),
(418,-231,o),
(446,-208,cs),
(506,-156,o),
(537,-85,o),
(562,2,cs),
(726,575,ls),
(736,611,o),
(745,631,o),
(813,631,cs),
(822,631,o),
(832,668,o),
(823,668,c),
(792,666,o),
(760,666,o),
(729,666,cs),
(698,666,o),
(666,666,o),
(635,668,c),
(626,668,o),
(615,631,o),
(624,631,cs),
(705,631,o),
(704,611,o),
(693,575,cs),
(566,142,ls),
(564,132,o),
(560,127,o),
(555,127,cs),
(550,127,o),
(545,131,o),
(541,141,cs),
(302,643,ls),
(293,662,o),
(284,666,o),
(249,666,cs),
(219,666,o),
(190,666,o),
(161,668,c),
(152,668,o),
(143,631,o),
(151,631,cs),
(233,631,o),
(233,612,o),
(215,546,cs),
(85,91,ls),
(75,53,o),
(65,34,o),
(-16,34,cs),
(-24,34,o),
(-34,-3,o),
(-25,-3,c),
(7,-1,o),
(40,0,o),
(73,0,cs),
(105,0,o),
(138,-1,o),
(170,-3,c),
(179,-3,o),
(189,34,o),
(180,34,cs),
(107,34,o),
(108,53,o),
(119,91,cs),
(248,542,ls),
(251,553,o),
(254,558,o),
(259,558,cs),
(264,558,o),
(269,554,o),
(272,548,cs),
(515,41,ls),
(523,24,o),
(525,14,o),
(525,7,cs),
(525,1,o),
(524,-7,o),
(521,-18,cs),
(508,-61,ls),
(489,-125,o),
(435,-207,o),
(379,-207,cs),
(375,-207,o),
(367,-203,o),
(357,-195,cs),
(346,-187,o),
(336,-182,o),
(327,-182,cs),
(311,-182,o),
(292,-193,o),
(292,-207,cs),
(292,-227,o),
(306,-243,o),
(323,-243,cs)
);
}
);
width = 772;
}
);
metricLeft = N;
metricWidth = N;
unicode = 330;
}
{
glyphname = tcaron;
kernLeft = t;
kernRight = f_f_t;
layers = (
{
layerId = master01;
shapes = (
{
closed = 1;
nodes = (
(302,469,o),
(310,475,o),
(318,486,cs),
(362,549,o),
(384,603,o),
(384,646,cs),
(384,653,o),
(377,656,o),
(363,656,cs),
(331,656,o),
(316,649,o),
(316,637,cs),
(316,635,o),
(316,633,o),
(316,629,cs),
(317,624,o),
(317,618,o),
(317,609,cs),
(317,571,o),
(307,533,o),
(286,496,cs),
(282,490,o),
(281,485,o),
(281,481,cs),
(281,472,o),
(289,469,o),
(295,469,cs)
);
},
{
closed = 1;
nodes = (
(164,-13,o),
(220,49,o),
(273,127,cs),
(279,135,o),
(259,151,o),
(253,143,cs),
(203,81,o),
(168,50,o),
(147,50,cs),
(136,50,o),
(130,58,o),
(130,75,cs),
(130,84,o),
(132,96,o),
(136,110,cs),
(203,356,l),
(316,356,ls),
(326,356,o),
(336,395,o),
(326,395,cs),
(214,395,l),
(241,495,l),
(241,507,o),
(212,507,o),
(207,499,cs),
(155,399,l),
(75,385,ls),
(62,383,o),
(61,356,o),
(71,356,cs),
(142,356,l),
(65,72,ls),
(62,63,o),
(61,51,o),
(61,37,cs),
(61,13,o),
(75,-13,o),
(103,-13,cs)
);
}
);
width = 295;
},
{
layerId = "2438E31C-45B5-47A7-9B3D-1A0FEFB47671";
shapes = (
{
closed = 1;
nodes = (
(353,464,o),
(363,470,o),
(373,481,cs),
(431,545,o),
(460,593,o),
(460,625,cs),
(460,642,o),
(451,650,o),
(432,650,cs),
(392,650,o),
(371,641,o),
(371,623,cs),
(371,621,o),
(371,619,o),
(372,615,cs),
(372,610,o),
(373,604,o),
(373,595,cs),
(373,564,o),
(358,530,o),
(332,491,cs),
(328,485,o),
(327,480,o),
(327,476,cs),
(327,467,o),
(337,464,o),
(344,464,cs)
);
},
{
closed = 1;
nodes = (
(194,-13,o),
(252,51,o),
(308,129,cs),
(314,139,o),
(288,160,o),
(280,151,cs),
(230,90,o),
(193,61,o),
(173,61,cs),
(164,61,o),
(159,67,o),
(159,79,cs),
(159,87,o),
(162,99,o),
(166,114,cs),
(238,348,l),
(360,348,ls),
(370,348,o),
(380,400,o),
(370,400,cs),
(254,400,l),
(280,486,l),
(280,504,o),
(232,509,o),
(226,501,cs),
(157,405,l),
(72,387,ls),
(56,384,o),
(50,348,o),
(63,348,cs),
(140,348,l),
(60,88,ls),
(57,77,o),
(55,65,o),
(55,51,cs),
(55,18,o),
(78,-13,o),
(116,-13,cs)
);
}
);
width = 341;
},
{
layerId = "7904EAEE-2B64-409E-B923-0048172372BE";
shapes = (
{
closed = 1;
nodes = (
(289,470,o),
(295,476,o),
(302,487,cs),
(342,550,o),
(361,605,o),
(361,653,cs),
(361,656,o),
(355,657,o),
(343,657,cs),
(314,657,o),
(300,651,o),
(300,641,cs),
(300,639,o),
(300,636,o),
(301,633,cs),
(301,628,o),
(302,622,o),
(302,613,cs),
(302,573,o),
(294,533,o),
(274,497,cs),
(270,491,o),
(269,486,o),
(269,482,cs),
(269,473,o),
(277,470,o),
(281,470,cs)
);
},
{
closed = 1;
nodes = (
(155,-13,o),
(210,48,o),
(263,127,cs),
(268,135,o),
(252,149,o),
(244,140,cs),
(195,77,o),
(160,46,o),
(139,46,cs),
(127,46,o),
(121,55,o),
(121,74,cs),
(121,83,o),
(123,95,o),
(126,108,cs),
(192,359,l),
(302,359,ls),
(313,359,o),
(322,393,o),
(312,393,cs),
(201,393,l),
(229,498,l),
(229,507,o),
(206,506,o),
(202,498,cs),
(154,397,l),
(77,385,ls),
(67,383,o),
(63,359,o),
(74,359,cs),
(143,359,l),
(67,67,ls),
(64,58,o),
(63,47,o),
(63,33,cs),
(63,11,o),
(74,-13,o),
(99,-13,cs)
);
}
);
width = 287;
},
{
layerId = "E06D8587-1A71-4EC2-BD94-397D882F5FC1";
shapes = (
{
closed = 1;
nodes = (
(265,469,o),
(271,475,o),
(278,486,c),
(319,552,o),
(338,602,o),
(338,641,c),
(338,651,o),
(331,656,o),
(319,656,c),
(291,656,o),
(277,648,o),
(277,634,c),
(277,632,o),
(277,630,o),
(277,626,c),
(278,621,o),
(278,615,o),
(278,606,c),
(278,570,o),
(268,533,o),
(250,496,c),
(247,490,o),
(245,486,o),
(245,481,c),
(245,472,o),
(253,469,o),
(258,469,c)
);
},
{
closed = 1;
nodes = (
(145,-13,o),
(192,52,o),
(238,134,cs),
(241,142,o),
(222,157,o),
(217,147,cs),
(176,84,o),
(146,50,o),
(129,50,cs),
(121,50,o),
(116,58,o),
(116,73,cs),
(116,81,o),
(118,94,o),
(121,108,cs),
(178,354,l),
(271,354,ls),
(280,354,o),
(286,396,o),
(280,396,cs),
(188,396,l),
(210,492,l),
(210,506,o),
(180,508,o),
(176,500,cs),
(130,401,l),
(64,386,ls),
(52,383,o),
(49,354,o),
(58,354,cs),
(118,354,l),
(54,77,ls),
(52,67,o),
(51,54,o),
(51,42,cs),
(51,15,o),
(65,-13,o),
(91,-13,cs)
);
}
);
width = 253;
},
{
layerId = "8F7CDE40-C368-4484-AA71-76B7ABD5539F";
shapes = (
{
closed = 1;
nodes = (
(329,469,o),
(336,475,o),
(344,486,cs),
(388,549,o),
(410,603,o),
(410,646,cs),
(410,653,o),
(403,656,o),
(389,656,cs),
(357,656,o),
(342,649,o),
(342,637,cs),
(342,635,o),
(342,633,o),
(342,629,cs),
(343,624,o),
(343,618,o),
(343,609,cs),
(343,571,o),
(334,533,o),
(312,496,cs),
(309,490,o),
(307,485,o),
(307,481,cs),
(307,472,o),
(316,469,o),
(321,469,cs)
);
},
{
closed = 1;
nodes = (
(189,-13,o),
(253,42,o),
(312,119,cs),
(321,129,o),
(299,144,o),
(294,139,cs),
(237,77,o),
(196,50,o),
(173,50,cs),
(158,50,o),
(150,60,o),
(150,80,cs),
(150,89,o),
(152,99,o),
(156,112,cs),
(225,359,l),
(358,359,ls),
(370,359,o),
(380,393,o),
(368,393,cs),
(234,393,l),
(264,498,l),
(264,507,o),
(235,507,o),
(230,498,cs),
(174,397,l),
(82,385,ls),
(68,383,o),
(70,359,o),
(79,359,cs),
(164,359,l),
(81,67,ls),
(79,60,o),
(78,49,o),
(78,39,cs),
(78,7,o),
(96,-13,o),
(124,-13,cs)
);
}
);
width = 340;
},
{
layerId = "997BDFA1-EC67-4686-8CFE-E56BDBE179FE";
shapes = (
{
closed = 1;
nodes = (
(365,599,o),
(373,605,o),
(380,616,cs),
(424,679,o),
(446,733,o),
(446,776,cs),
(446,783,o),
(439,786,o),
(425,786,cs),
(394,786,o),
(378,779,o),
(378,767,cs),
(378,765,o),
(378,763,o),
(379,759,cs),
(379,754,o),
(380,748,o),
(380,739,cs),
(380,701,o),
(370,663,o),
(349,626,cs),
(345,620,o),
(344,615,o),
(344,611,cs),
(344,602,o),
(352,599,o),
(357,599,cs)
);
},
{
closed = 1;
nodes = (
(187,-13,o),
(262,63,o),
(338,177,cs),
(345,189,o),
(323,209,o),
(314,198,cs),
(237,100,o),
(194,59,o),
(167,59,cs),
(150,59,o),
(141,72,o),
(141,96,cs),
(141,106,o),
(145,125,o),
(150,143,cs),
(242,493,l),
(393,493,ls),
(407,493,o),
(418,537,o),
(405,537,cs),
(254,537,l),
(293,686,l),
(293,700,o),
(260,698,o),
(254,686,cs),
(185,543,l),
(79,525,ls),
(63,522,o),
(63,493,o),
(75,493,cs),
(171,493,l),
(67,98,ls),
(64,85,o),
(62,69,o),
(62,51,cs),
(62,21,o),
(78,-13,o),
(113,-13,cs)
);
}
);
width = 371;
}
);
metricLeft = t;
metricWidth = t;
unicode = 357;
}
{
color = 0;
glyphname = Dtopbar;
layers = (
{
layerId = master01;
shapes = (
{
closed = 1;
nodes = (
(302,-7,o),
(354,-3,o),
(382,-3,cs),
(429,-3,o),
(466,-4,o),
(494,-7,c),
(505,-7,o),
(514,30,o),
(505,30,cs),
(441,30,o),
(421,51,o),
(431,87,cs),
(569,569,ls),
(583,616,o),
(614,625,o),
(674,625,cs),
(683,625,o),
(693,662,o),
(684,662,c),
(646,662,o),
(609,660,o),
(571,660,cs),
(462,660,o),
(354,662,o),
(245,662,cs),
(209,662,o),
(193,658,o),
(190,649,cs),
(146,492,ls),
(142,480,o),
(179,480,o),
(183,492,cs),
(206,575,o),
(260,617,o),
(346,620,cs),
(495,625,ls),
(508,625,o),
(513,619,o),
(509,605,cs),
(436,351,l),
(416,356,o),
(377,365,o),
(320,365,cs),
(169,365,o),
(47,307,o),
(47,171,cs),
(47,39,o),
(170,-7,o),
(284,-7,cs)
);
},
{
closed = 1;
nodes = (
(193,22,o),
(121,62,o),
(121,155,cs),
(121,276,o),
(201,333,o),
(311,333,cs),
(373,333,o),
(410,315,o),
(410,280,cs),
(410,268,o),
(407,250,o),
(400,226,cs),
(350,51,ls),
(345,32,o),
(324,22,o),
(288,22,cs)
);
}
);
width = 593;
},
{
layerId = "2438E31C-45B5-47A7-9B3D-1A0FEFB47671";
shapes = (
{
closed = 1;
nodes = (
(283,-3,o),
(334,0,o),
(363,0,cs),
(455,0,o),
(488,-1,o),
(516,-4,c),
(525,-4,o),
(538,42,o),
(528,42,cs),
(448,42,o),
(447,63,o),
(458,99,cs),
(593,563,ls),
(604,601,o),
(616,620,o),
(692,620,cs),
(701,620,o),
(714,666,o),
(705,666,c),
(666,662,o),
(627,663,o),
(588,663,cs),
(482,663,o),
(325,666,o),
(219,666,cs),
(184,666,o),
(167,662,o),
(165,652,cs),
(121,496,ls),
(117,483,o),
(164,484,o),
(167,496,cs),
(189,573,o),
(242,612,o),
(328,615,cs),
(474,620,ls),
(487,620,o),
(492,614,o),
(488,601,cs),
(417,354,l),
(397,359,o),
(358,368,o),
(301,368,cs),
(137,368,o),
(3,310,o),
(3,174,cs),
(3,42,o),
(139,-3,o),
(265,-3,cs)
);
},
{
closed = 1;
nodes = (
(193,35,o),
(126,72,o),
(126,160,cs),
(126,273,o),
(197,327,o),
(296,327,cs),
(353,327,o),
(390,310,o),
(390,277,cs),
(390,266,o),
(386,249,o),
(380,227,cs),
(333,62,ls),
(328,44,o),
(311,35,o),
(279,35,cs)
);
}
);
width = 610;
},
{
layerId = "7904EAEE-2B64-409E-B923-0048172372BE";
shapes = (
{
closed = 1;
nodes = (
(308,-8,o),
(360,-4,o),
(388,-4,cs),
(420,-4,o),
(459,-5,o),
(487,-8,c),
(498,-8,o),
(506,26,o),
(497,26,cs),
(438,26,o),
(412,47,o),
(422,83,cs),
(561,571,ls),
(576,622,o),
(614,626,o),
(668,626,cs),
(677,626,o),
(687,661,o),
(677,661,c),
(640,662,o),
(603,659,o),
(566,659,cs),
(456,659,o),
(363,661,o),
(253,661,cs),
(218,661,o),
(201,657,o),
(199,648,cs),
(154,491,ls),
(150,479,o),
(185,479,o),
(188,491,cs),
(212,575,o),
(266,619,o),
(352,622,cs),
(501,627,ls),
(515,627,o),
(520,620,o),
(516,606,cs),
(442,350,l),
(422,355,o),
(384,364,o),
(327,364,cs),
(180,364,o),
(62,306,o),
(62,170,cs),
(62,38,o),
(180,-8,o),
(290,-8,cs)
);
},
{
closed = 1;
nodes = (
(193,18,o),
(119,58,o),
(119,154,cs),
(119,277,o),
(202,335,o),
(315,335,cs),
(379,335,o),
(417,317,o),
(417,281,cs),
(417,269,o),
(414,250,o),
(407,226,cs),
(356,47,ls),
(350,27,o),
(328,18,o),
(291,18,cs)
);
}
);
width = 590;
},
{
layerId = "E06D8587-1A71-4EC2-BD94-397D882F5FC1";
shapes = (
{
closed = 1;
nodes = (
(256,-6,o),
(300,-2,o),
(325,-2,cs),
(370,-2,o),
(404,-3,o),
(430,-6,c),
(438,-6,o),
(447,33,o),
(439,33,cs),
(381,33,o),
(369,54,o),
(377,90,cs),
(494,567,ls),
(503,608,o),
(522,624,o),
(582,624,cs),
(589,624,o),
(599,663,o),
(590,663,c),
(559,662,o),
(526,661,o),
(494,661,cs),
(402,661,o),
(299,663,o),
(208,663,cs),
(178,663,o),
(164,659,o),
(162,650,cs),
(124,493,ls),
(121,481,o),
(158,480,o),
(161,493,cs),
(181,576,o),
(227,618,o),
(299,621,cs),
(420,625,ls),
(432,626,o),
(436,619,o),
(433,606,cs),
(371,352,l),
(354,357,o),
(319,366,o),
(272,366,cs),
(143,366,o),
(39,307,o),
(39,172,cs),
(39,40,o),
(144,-6,o),
(241,-6,cs)
);
},
{
closed = 1;
nodes = (
(170,25,o),
(113,64,o),
(113,156,cs),
(113,276,o),
(176,332,o),
(264,332,cs),
(317,332,o),
(348,314,o),
(348,279,cs),
(348,268,o),
(346,250,o),
(340,226,cs),
(298,53,ls),
(293,35,o),
(275,25,o),
(246,25,cs)
);
}
);
width = 512;
},
{
layerId = "8F7CDE40-C368-4484-AA71-76B7ABD5539F";
shapes = (
{
closed = 1;
nodes = (
(354,-8,o),
(413,-4,o),
(445,-4,cs),
(494,-4,o),
(535,-5,o),
(565,-7,c),
(578,-7,o),
(586,27,o),
(575,27,cs),
(506,27,o),
(477,48,o),
(488,84,cs),
(630,570,ls),
(646,624,o),
(691,626,o),
(750,626,cs),
(761,626,o),
(771,661,o),
(760,661,c),
(716,662,o),
(674,659,o),
(631,659,cs),
(505,659,o),
(391,661,o),
(265,661,cs),
(227,661,o),
(206,658,o),
(203,648,cs),
(156,491,ls),
(153,479,o),
(190,481,o),
(193,491,cs),
(217,574,o),
(278,617,o),
(376,620,cs),
(553,625,ls),
(569,625,o),
(574,618,o),
(570,604,cs),
(495,350,l),
(472,355,o),
(429,364,o),
(361,364,cs),
(192,364,o),
(55,308,o),
(55,177,cs),
(55,38,o),
(202,-8,o),
(333,-8,cs)
);
},
{
closed = 1;
nodes = (
(215,19,o),
(130,62,o),
(130,162,cs),
(130,279,o),
(223,335,o),
(352,335,cs),
(422,335,o),
(468,317,o),
(468,278,cs),
(468,266,o),
(464,248,o),
(458,226,cs),
(407,48,ls),
(401,28,o),
(376,19,o),
(336,19,cs)
);
}
);
width = 674;
},
{
layerId = "997BDFA1-EC67-4686-8CFE-E56BDBE179FE";
shapes = (
{
closed = 1;
nodes = (
(302,-7,o),
(354,-3,o),
(382,-3,cs),
(429,-3,o),
(466,-4,o),
(494,-7,c),
(505,-7,o),
(514,30,o),
(505,30,cs),
(441,30,o),
(421,51,o),
(431,87,cs),
(569,569,ls),
(583,616,o),
(614,625,o),
(674,625,cs),
(683,625,o),
(693,662,o),
(684,662,c),
(646,662,o),
(609,660,o),
(571,660,cs),
(462,660,o),
(354,662,o),
(245,662,cs),
(209,662,o),
(193,658,o),
(190,649,cs),
(146,492,ls),
(142,480,o),
(179,480,o),
(183,492,cs),
(206,575,o),
(260,617,o),
(346,620,cs),
(495,625,ls),
(508,625,o),
(513,619,o),
(509,605,cs),
(436,351,l),
(416,356,o),
(377,365,o),
(320,365,cs),
(169,365,o),
(47,307,o),
(47,171,cs),
(47,39,o),
(170,-7,o),
(284,-7,cs)
);
},
{
closed = 1;
nodes = (
(193,22,o),
(121,62,o),
(121,155,cs),
(121,276,o),
(201,333,o),
(311,333,cs),
(373,333,o),
(410,315,o),
(410,280,cs),
(410,268,o),
(407,250,o),
(400,226,cs),
(350,51,ls),
(345,32,o),
(324,22,o),
(288,22,cs)
);
}
);
width = 619;
}
);
metricRight = I;
unicode = 395;
}
{
glyphname = deltaturned;
layers = (
{
layerId = master01;
shapes = (
{
closed = 1;
nodes = (
(193,-184,o),
(232,-120,o),
(232,-76,cs),
(232,18,o),
(104,39,o),
(104,143,cs),
(104,232,o),
(201,375,o),
(282,375,cs),
(324,375,o),
(345,350,o),
(345,300,cs),
(345,216,o),
(254,81,o),
(131,55,c),
(158,29,l),
(299,23,o),
(400,153,o),
(400,278,cs),
(400,359,o),
(365,416,o),
(282,416,cs),
(164,416,o),
(47,292,o),
(47,176,cs),
(47,86,o),
(92,43,o),
(146,-3,cs),
(172,-26,o),
(186,-51,o),
(186,-77,cs),
(186,-112,o),
(177,-140,o),
(147,-140,cs),
(101,-140,o),
(113,-95,o),
(66,-95,cs),
(42,-95,o),
(36,-110,o),
(36,-128,cs),
(36,-165,o),
(73,-184,o),
(101,-184,cs)
);
}
);
width = 409;
},
{
layerId = "2438E31C-45B5-47A7-9B3D-1A0FEFB47671";
shapes = (
{
closed = 1;
nodes = (
(198,-189,o),
(239,-131,o),
(239,-74,cs),
(239,28,o),
(117,48,o),
(117,166,cs),
(117,262,o),
(194,365,o),
(265,365,cs),
(305,365,o),
(330,332,o),
(330,285,cs),
(330,205,o),
(256,85,o),
(133,60,c),
(160,24,l),
(301,19,o),
(417,146,o),
(417,273,cs),
(417,354,o),
(370,416,o),
(280,416,cs),
(158,416,o),
(28,307,o),
(28,175,cs),
(28,100,o),
(76,43,o),
(134,-3,cs),
(164,-26,o),
(178,-50,o),
(178,-84,cs),
(178,-108,o),
(171,-135,o),
(144,-135,cs),
(106,-135,o),
(119,-85,o),
(70,-85,cs),
(37,-85,o),
(28,-108,o),
(28,-128,cs),
(28,-172,o),
(70,-189,o),
(117,-189,cs)
);
}
);
width = 418;
},
{
layerId = "7904EAEE-2B64-409E-B923-0048172372BE";
shapes = (
{
closed = 1;
nodes = (
(191,-183,o),
(229,-130,o),
(229,-80,cs),
(229,15,o),
(100,40,o),
(100,160,cs),
(100,266,o),
(204,378,o),
(286,378,cs),
(331,378,o),
(351,347,o),
(351,305,cs),
(351,210,o),
(254,60,o),
(131,34,c),
(158,21,l),
(299,21,o),
(395,146,o),
(395,279,cs),
(395,355,o),
(363,416,o),
(281,416,cs),
(166,416,o),
(53,297,o),
(53,171,cs),
(53,91,o),
(97,43,o),
(149,-3,cs),
(175,-26,o),
(188,-47,o),
(188,-80,cs),
(188,-109,o),
(181,-142,o),
(144,-142,cs),
(101,-142,o),
(111,-98,o),
(69,-98,cs),
(44,-98,o),
(39,-113,o),
(39,-128,cs),
(39,-165,o),
(74,-183,o),
(114,-183,cs)
);
}
);
width = 406;
},
{
guides = (
{
pos = (-203,331);
showMeasurement = 1;
}
);
layerId = "E06D8587-1A71-4EC2-BD94-397D882F5FC1";
shapes = (
{
closed = 1;
nodes = (
(180,-184,o),
(213,-124,o),
(213,-76,cs),
(213,22,o),
(105,42,o),
(105,152,cs),
(105,244,o),
(181,375,o),
(246,375,cs),
(280,375,o),
(300,346,o),
(300,294,cs),
(300,211,o),
(229,82,o),
(125,56,c),
(149,27,l),
(268,22,o),
(356,150,o),
(356,275,cs),
(356,357,o),
(322,416,o),
(250,416,cs),
(150,416,o),
(47,298,o),
(47,177,cs),
(47,90,o),
(86,43,o),
(134,-3,cs),
(157,-26,o),
(169,-51,o),
(169,-80,cs),
(169,-112,o),
(163,-140,o),
(138,-140,cs),
(103,-140,o),
(112,-95,o),
(72,-95,cs),
(49,-95,o),
(43,-112,o),
(43,-130,cs),
(43,-167,o),
(76,-184,o),
(106,-184,cs)
);
}
);
width = 368;
},
{
layerId = "8F7CDE40-C368-4484-AA71-76B7ABD5539F";
shapes = (
{
closed = 1;
nodes = (
(207,-184,o),
(249,-117,o),
(249,-77,cs),
(249,16,o),
(93,34,o),
(93,138,cs),
(93,224,o),
(206,375,o),
(301,375,cs),
(352,375,o),
(375,352,o),
(375,302,cs),
(375,218,o),
(271,79,o),
(131,53,c),
(162,30,l),
(323,25,o),
(429,152,o),
(429,273,cs),
(429,363,o),
(384,416,o),
(295,416,cs),
(162,416,o),
(36,291,o),
(36,179,cs),
(36,84,o),
(93,41,o),
(153,-3,cs),
(185,-27,o),
(201,-51,o),
(201,-82,cs),
(201,-116,o),
(190,-140,o),
(156,-140,cs),
(100,-140,o),
(113,-95,o),
(59,-95,cs),
(36,-95,o),
(29,-107,o),
(29,-124,cs),
(29,-163,o),
(71,-184,o),
(97,-184,cs)
);
}
);
width = 437;
},
{
layerId = "997BDFA1-EC67-4686-8CFE-E56BDBE179FE";
shapes = (
{
closed = 1;
nodes = (
(193,-184,o),
(232,-120,o),
(232,-76,cs),
(232,18,o),
(104,39,o),
(104,143,cs),
(104,232,o),
(201,375,o),
(282,375,cs),
(324,375,o),
(345,350,o),
(345,300,cs),
(345,216,o),
(254,81,o),
(131,55,c),
(158,29,l),
(299,23,o),
(400,153,o),
(400,278,cs),
(400,359,o),
(365,416,o),
(282,416,cs),
(164,416,o),
(47,292,o),
(47,176,cs),
(47,86,o),
(92,43,o),
(146,-3,cs),
(172,-26,o),
(186,-51,o),
(186,-77,cs),
(186,-112,o),
(177,-140,o),
(147,-140,cs),
(101,-140,o),
(113,-95,o),
(66,-95,cs),
(42,-95,o),
(36,-110,o),
(36,-128,cs),
(36,-165,o),
(73,-184,o),
(101,-184,cs)
);
}
);
width = 409;
}
);
unicode = 397;
}
{
glyphname = Mturned;
layers = (
{
guides = (
{
angle = 90;
pos = (1046,126);
},
{
pos = (716,702);
showMeasurement = 1;
}
);
layerId = master01;
shapes = (
{
closed = 1;
nodes = (
(712,-20,o),
(717,-18,o),
(724,-13,cs),
(730,-9,o),
(737,-4,o),
(764,11,cs),
(790,29,o),
(822,44,o),
(834,44,cs),
(845,44,o),
(854,73,o),
(842,73,cs),
(805,73,o),
(810,111,o),
(828,172,cs),
(943,573,ls),
(953,610,o),
(987,628,o),
(1044,628,cs),
(1056,628,o),
(1066,666,o),
(1054,666,c),
(1011,664,o),
(969,663,o),
(929,663,cs),
(891,663,o),
(848,664,o),
(806,666,c),
(796,666,o),
(786,628,o),
(796,628,cs),
(857,628,o),
(882,610,o),
(872,573,cs),
(750,149,ls),
(749,144,o),
(746,138,o),
(743,133,cs),
(715,82,o),
(629,32,o),
(572,32,cs),
(514,32,o),
(488,57,o),
(488,104,cs),
(488,124,o),
(493,146,o),
(500,172,cs),
(615,573,ls),
(626,610,o),
(660,628,o),
(718,628,cs),
(728,628,o),
(738,666,o),
(728,666,c),
(685,664,o),
(642,663,o),
(599,663,cs),
(561,663,o),
(520,664,o),
(479,666,c),
(468,666,o),
(459,628,o),
(468,628,cs),
(529,628,o),
(555,610,o),
(544,573,cs),
(437,200,ls),
(413,115,o),
(327,32,o),
(255,32,cs),
(190,32,o),
(151,52,o),
(151,99,cs),
(151,109,o),
(153,121,o),
(157,134,cs),
(283,575,ls),
(294,610,o),
(328,628,o),
(386,628,cs),
(397,628,o),
(407,666,o),
(396,666,c),
(353,664,o),
(310,663,o),
(272,663,cs),
(232,663,o),
(190,664,o),
(147,666,c),
(136,666,o),
(126,628,o),
(137,628,cs),
(198,628,o),
(223,610,o),
(213,575,cs),
(90,150,ls),
(85,130,o),
(82,113,o),
(82,97,cs),
(82,26,o),
(132,-13,o),
(209,-13,cs),
(269,-13,o),
(351,22,o),
(414,77,c),
(429,26,o),
(466,-13,o),
(534,-13,cs),
(596,-13,o),
(652,10,o),
(709,54,cs),
(712,56,o),
(715,58,o),
(719,58,cs),
(722,58,o),
(723,54,o),
(722,48,cs),
(716,30,o),
(710,12,o),
(704,-6,cs),
(701,-16,o),
(703,-20,o),
(708,-20,cs)
);
}
);
width = 965;
},
{
guides = (
{
pos = (722,971);
showMeasurement = 1;
}
);
layerId = "2438E31C-45B5-47A7-9B3D-1A0FEFB47671";
shapes = (
{
closed = 1;
nodes = (
(752,-20,o),
(757,-18,o),
(764,-13,cs),
(770,-9,o),
(791,1,o),
(824,16,cs),
(860,33,o),
(888,44,o),
(900,44,cs),
(911,44,o),
(920,73,o),
(908,73,cs),
(876,73,o),
(872,98,o),
(894,172,cs),
(1006,564,ls),
(1016,601,o),
(1045,620,o),
(1092,620,cs),
(1106,620,o),
(1116,666,o),
(1106,666,c),
(1061,664,o),
(1016,663,o),
(973,663,cs),
(930,663,o),
(885,664,o),
(841,666,c),
(832,666,o),
(818,620,o),
(828,620,cs),
(884,620,o),
(900,598,o),
(890,564,cs),
(772,154,ls),
(771,149,o),
(768,143,o),
(760,129,cs),
(725,71,o),
(684,36,o),
(615,36,cs),
(558,36,o),
(533,62,o),
(533,109,cs),
(533,128,o),
(537,151,o),
(545,177,cs),
(655,564,ls),
(666,601,o),
(695,620,o),
(743,620,cs),
(753,620,o),
(766,666,o),
(756,666,c),
(712,664,o),
(667,663,o),
(623,663,cs),
(579,663,o),
(535,664,o),
(491,666,c),
(481,666,o),
(467,620,o),
(478,620,cs),
(533,620,o),
(549,598,o),
(539,564,cs),
(436,205,ls),
(412,120,o),
(342,37,o),
(253,37,cs),
(206,37,o),
(173,58,o),
(173,98,cs),
(173,117,o),
(181,144,o),
(186,161,cs),
(302,566,ls),
(312,602,o),
(341,620,o),
(389,620,cs),
(400,620,o),
(413,666,o),
(402,666,c),
(358,664,o),
(313,663,o),
(271,663,cs),
(226,663,o),
(181,664,o),
(137,666,c),
(127,666,o),
(113,620,o),
(124,620,cs),
(179,620,o),
(195,599,o),
(186,566,cs),
(79,195,ls),
(70,165,o),
(65,138,o),
(65,111,cs),
(65,33,o),
(112,-13,o),
(205,-13,cs),
(278,-13,o),
(343,17,o),
(424,86,c),
(444,26,o),
(505,-13,o),
(578,-13,cs),
(634,-13,o),
(692,10,o),
(749,54,cs),
(752,56,o),
(755,58,o),
(759,58,cs),
(762,58,o),
(763,54,o),
(762,48,cs),
(756,30,o),
(751,12,o),
(744,-6,cs),
(740,-15,o),
(742,-20,o),
(748,-20,cs)
);
}
);
width = 1013;
},
{
layerId = "7904EAEE-2B64-409E-B923-0048172372BE";
shapes = (
{
closed = 1;
nodes = (
(699,-20,o),
(705,-18,o),
(712,-13,cs),
(718,-9,o),
(721,-6,o),
(746,9,cs),
(768,27,o),
(801,44,o),
(814,44,cs),
(825,44,o),
(833,73,o),
(822,73,cs),
(782,73,o),
(791,116,o),
(807,172,cs),
(922,576,ls),
(934,613,o),
(969,631,o),
(1029,631,cs),
(1041,631,o),
(1051,666,o),
(1039,666,c),
(996,664,o),
(954,663,o),
(915,663,cs),
(879,663,o),
(837,664,o),
(796,666,c),
(785,666,o),
(777,631,o),
(787,631,cs),
(849,631,o),
(878,614,o),
(867,576,cs),
(744,147,ls),
(743,142,o),
(740,137,o),
(738,134,cs),
(713,86,o),
(611,31,o),
(559,31,cs),
(500,31,o),
(475,56,o),
(475,103,cs),
(475,122,o),
(479,145,o),
(486,171,cs),
(603,576,ls),
(613,613,o),
(650,631,o),
(711,631,cs),
(721,631,o),
(731,666,o),
(720,666,c),
(677,664,o),
(635,663,o),
(592,663,cs),
(557,663,o),
(516,664,o),
(476,666,c),
(465,666,o),
(457,631,o),
(466,631,cs),
(529,631,o),
(558,614,o),
(547,576,cs),
(439,199,ls),
(414,113,o),
(323,31,o),
(256,31,cs),
(186,31,o),
(145,50,o),
(145,99,cs),
(145,106,o),
(145,114,o),
(149,125,cs),
(278,578,ls),
(289,613,o),
(325,631,o),
(386,631,cs),
(398,631,o),
(406,666,o),
(395,666,c),
(353,664,o),
(311,663,o),
(274,663,cs),
(235,663,o),
(193,664,o),
(152,666,c),
(140,666,o),
(132,631,o),
(142,631,cs),
(206,631,o),
(234,614,o),
(223,578,cs),
(95,135,ls),
(91,119,o),
(89,104,o),
(89,92,cs),
(89,23,o),
(140,-13,o),
(211,-13,cs),
(267,-13,o),
(355,24,o),
(412,74,c),
(426,26,o),
(455,-13,o),
(521,-13,cs),
(585,-13,o),
(640,10,o),
(696,54,cs),
(699,56,o),
(703,58,o),
(707,58,cs),
(711,58,o),
(711,54,o),
(710,48,cs),
(704,30,o),
(698,12,o),
(692,-6,cs),
(690,-16,o),
(691,-20,o),
(695,-20,cs)
);
}
);
width = 953;
},
{
layerId = "E06D8587-1A71-4EC2-BD94-397D882F5FC1";
shapes = (
{
closed = 1;
nodes = (
(613,-20,o),
(618,-18,o),
(623,-13,cs),
(631,-8,o),
(637,-4,o),
(661,12,cs),
(687,29,o),
(712,44,o),
(723,44,cs),
(732,44,o),
(740,73,o),
(730,73,cs),
(695,73,o),
(703,115,o),
(717,172,cs),
(814,571,ls),
(823,608,o),
(851,626,o),
(897,626,cs),
(908,626,o),
(916,666,o),
(907,666,c),
(870,664,o),
(833,663,o),
(799,663,cs),
(765,663,o),
(728,664,o),
(692,666,c),
(684,666,o),
(675,626,o),
(683,626,cs),
(733,626,o),
(753,607,o),
(744,571,cs),
(641,150,ls),
(640,146,o),
(639,143,o),
(634,131,cs),
(609,80,o),
(545,33,o),
(495,33,cs),
(446,33,o),
(424,59,o),
(424,105,cs),
(424,125,o),
(428,147,o),
(434,173,cs),
(531,571,ls),
(539,608,o),
(568,626,o),
(615,626,cs),
(623,626,o),
(633,666,o),
(624,666,c),
(587,664,o),
(550,663,o),
(514,663,cs),
(480,663,o),
(444,664,o),
(409,666,c),
(400,666,o),
(391,626,o),
(399,626,cs),
(450,626,o),
(469,607,o),
(460,571,cs),
(370,201,ls),
(350,118,o),
(282,33,o),
(215,33,cs),
(164,33,o),
(133,53,o),
(133,99,cs),
(133,110,o),
(135,126,o),
(139,140,cs),
(244,573,ls),
(253,608,o),
(281,626,o),
(328,626,cs),
(337,626,o),
(346,666,o),
(337,666,c),
(300,664,o),
(263,663,o),
(230,663,cs),
(195,663,o),
(158,664,o),
(122,666,c),
(113,666,o),
(103,626,o),
(112,626,cs),
(161,626,o),
(182,609,o),
(174,573,cs),
(73,160,ls),
(69,142,o),
(65,121,o),
(65,100,cs),
(65,28,o),
(107,-13,o),
(175,-13,cs),
(229,-13,o),
(294,20,o),
(353,79,c),
(367,26,o),
(405,-13,o),
(463,-13,cs),
(514,-13,o),
(562,10,o),
(611,54,cs),
(613,56,o),
(616,58,o),
(619,58,cs),
(621,58,o),
(623,54,o),
(621,48,cs),
(617,28,o),
(611,8,o),
(607,-6,cs),
(604,-16,o),
(605,-20,o),
(610,-20,cs)
);
}
);
width = 829;
},
{
layerId = "8F7CDE40-C368-4484-AA71-76B7ABD5539F";
shapes = (
{
closed = 1;
nodes = (
(819,-20,o),
(824,-19,o),
(833,-13,cs),
(840,-9,o),
(848,-5,o),
(875,11,cs),
(904,28,o),
(939,44,o),
(953,44,cs),
(966,44,o),
(974,73,o),
(962,73,cs),
(921,73,o),
(923,108,o),
(942,172,cs),
(1060,575,ls),
(1071,612,o),
(1110,630,o),
(1178,630,cs),
(1192,630,o),
(1201,666,o),
(1188,666,c),
(1138,664,o),
(1090,663,o),
(1045,663,cs),
(1002,663,o),
(954,664,o),
(906,666,c),
(894,666,o),
(885,630,o),
(896,630,cs),
(968,630,o),
(999,612,o),
(988,575,cs),
(862,148,ls),
(861,141,o),
(860,140,o),
(856,134,cs),
(826,84,o),
(719,31,o),
(658,31,cs),
(590,31,o),
(558,56,o),
(558,107,cs),
(558,124,o),
(562,147,o),
(569,171,cs),
(688,575,ls),
(699,612,o),
(739,630,o),
(808,630,cs),
(820,630,o),
(830,666,o),
(818,666,c),
(768,664,o),
(720,663,o),
(671,663,cs),
(628,663,o),
(581,664,o),
(534,666,c),
(523,666,o),
(513,630,o),
(525,630,cs),
(596,630,o),
(628,612,o),
(617,575,cs),
(506,199,ls),
(480,112,o),
(381,31,o),
(302,31,cs),
(223,31,o),
(175,50,o),
(175,101,cs),
(175,108,o),
(176,117,o),
(180,128,cs),
(312,577,ls),
(322,613,o),
(363,630,o),
(431,630,cs),
(444,630,o),
(453,666,o),
(441,666,c),
(392,664,o),
(343,663,o),
(300,663,cs),
(255,663,o),
(207,664,o),
(158,666,c),
(145,666,o),
(136,630,o),
(149,630,cs),
(222,630,o),
(251,612,o),
(240,577,cs),
(112,140,ls),
(107,121,o),
(105,107,o),
(105,97,cs),
(105,29,o),
(161,-13,o),
(252,-13,cs),
(318,-13,o),
(416,24,o),
(481,75,c),
(500,26,o),
(538,-13,o),
(614,-13,cs),
(688,-13,o),
(750,10,o),
(814,54,cs),
(817,56,o),
(821,58,o),
(826,58,cs),
(830,58,o),
(831,55,o),
(829,48,cs),
(824,31,o),
(819,19,o),
(811,-7,cs),
(808,-15,o),
(810,-20,o),
(815,-20,cs)
);
}
);
width = 1103;
},
{
guides = (
{
angle = 90;
pos = (1006,126);
}
);
layerId = "997BDFA1-EC67-4686-8CFE-E56BDBE179FE";
shapes = (
{
closed = 1;
nodes = (
(686,-20,o),
(691,-18,o),
(698,-13,cs),
(704,-9,o),
(712,-4,o),
(739,11,cs),
(765,29,o),
(796,44,o),
(808,44,cs),
(820,44,o),
(828,73,o),
(817,73,cs),
(779,73,o),
(785,111,o),
(802,172,cs),
(917,573,ls),
(928,610,o),
(961,628,o),
(1018,628,cs),
(1031,628,o),
(1040,666,o),
(1029,666,c),
(986,664,o),
(943,663,o),
(903,663,cs),
(865,663,o),
(823,664,o),
(781,666,c),
(770,666,o),
(761,628,o),
(770,628,cs),
(831,628,o),
(857,610,o),
(846,573,cs),
(724,149,ls),
(723,144,o),
(721,138,o),
(717,133,cs),
(689,82,o),
(603,32,o),
(547,32,cs),
(488,32,o),
(463,57,o),
(463,104,cs),
(463,124,o),
(467,146,o),
(474,172,cs),
(589,573,ls),
(600,610,o),
(634,628,o),
(692,628,cs),
(702,628,o),
(713,666,o),
(702,666,c),
(659,664,o),
(617,663,o),
(574,663,cs),
(535,663,o),
(494,664,o),
(453,666,c),
(443,666,o),
(433,628,o),
(443,628,cs),
(504,628,o),
(529,610,o),
(518,573,cs),
(411,200,ls),
(387,115,o),
(302,32,o),
(229,32,cs),
(164,32,o),
(125,52,o),
(125,99,cs),
(125,109,o),
(127,121,o),
(131,134,cs),
(258,575,ls),
(268,610,o),
(302,628,o),
(360,628,cs),
(371,628,o),
(381,666,o),
(370,666,c),
(327,664,o),
(285,663,o),
(246,663,cs),
(206,663,o),
(164,664,o),
(121,666,c),
(110,666,o),
(100,628,o),
(111,628,cs),
(172,628,o),
(197,610,o),
(187,575,cs),
(65,150,ls),
(59,130,o),
(56,113,o),
(56,97,cs),
(56,26,o),
(106,-13,o),
(183,-13,cs),
(243,-13,o),
(325,22,o),
(389,77,c),
(404,26,o),
(441,-13,o),
(508,-13,cs),
(571,-13,o),
(626,10,o),
(683,54,cs),
(686,56,o),
(689,58,o),
(693,58,cs),
(697,58,o),
(698,54,o),
(696,48,cs),
(691,30,o),
(684,12,o),
(679,-6,cs),
(676,-16,o),
(677,-20,o),
(682,-20,cs)
);
}
);
width = 965;
}
);
metricLeft = I;
metricRight = I;
unicode = 412;
}
{
glyphname = phook;
layers = (
{
anchors = (
{
name = center;
pos = (124,523);
}
);
layerId = master01;
shapes = (
{
closed = 1;
nodes = (
(-37,-271,o),
(-6,-269,o),
(28,-269,cs),
(62,-269,o),
(93,-271,o),
(123,-273,c),
(134,-273,o),
(141,-246,o),
(131,-246,cs),
(72,-246,o),
(67,-229,o),
(73,-205,cs),
(119,-7,l),
(134,-11,o),
(148,-13,o),
(160,-13,cs),
(289,-13,o),
(419,115,o),
(419,249,cs),
(419,345,o),
(363,411,o),
(272,411,cs),
(246,411,o),
(227,409,o),
(215,405,c),
(237,505,ls),
(259,604,o),
(290,681,o),
(336,681,cs),
(359,681,o),
(371,662,o),
(371,622,cs),
(371,603,o),
(386,587,o),
(408,587,cs),
(429,587,o),
(440,603,o),
(440,634,cs),
(440,680,o),
(401,715,o),
(351,715,cs),
(314,715,o),
(280,697,o),
(247,660,cs),
(212,622,o),
(184,535,o),
(155,399,cs),
(152,388,l),
(117,372,o),
(80,350,o),
(47,317,cs),
(40,309,o),
(62,288,o),
(71,296,cs),
(89,314,o),
(114,330,o),
(143,344,c),
(13,-209,ls),
(7,-234,o),
(-17,-246,o),
(-58,-246,cs),
(-69,-246,o),
(-76,-273,o),
(-66,-273,c)
);
},
{
closed = 1;
nodes = (
(144,19,o),
(131,29,o),
(131,48,cs),
(131,50,o),
(131,53,o),
(132,57,cs),
(205,363,l),
(219,367,o),
(234,369,o),
(249,369,cs),
(311,369,o),
(352,305,o),
(352,233,cs),
(352,126,o),
(269,19,o),
(168,19,cs)
);
}
);
width = 425;
},
{
anchors = (
{
name = center;
pos = (130,523);
}
);
layerId = "2438E31C-45B5-47A7-9B3D-1A0FEFB47671";
shapes = (
{
closed = 1;
nodes = (
(-43,-271,o),
(-8,-269,o),
(35,-269,cs),
(78,-269,o),
(113,-271,o),
(140,-273,c),
(150,-273,o),
(161,-237,o),
(149,-237,cs),
(91,-237,o),
(88,-221,o),
(94,-196,cs),
(140,-11,l),
(152,-13,o),
(161,-13,o),
(168,-13,cs),
(302,-13,o),
(443,113,o),
(443,252,cs),
(443,352,o),
(371,412,o),
(274,412,cs),
(270,412,o),
(258,412,o),
(242,410,c),
(264,522,ls),
(276,584,o),
(302,675,o),
(344,675,cs),
(364,675,o),
(375,659,o),
(375,627,cs),
(375,596,o),
(398,581,o),
(424,581,cs),
(453,581,o),
(471,601,o),
(471,639,cs),
(471,686,o),
(412,715,o),
(352,715,cs),
(315,715,o),
(280,698,o),
(247,666,cs),
(188,606,o),
(163,494,o),
(143,405,cs),
(137,379,l),
(106,362,o),
(75,340,o),
(47,313,cs),
(41,306,o),
(65,281,o),
(71,288,cs),
(92,309,o),
(112,320,o),
(127,327,c),
(-1,-200,ls),
(-7,-225,o),
(-27,-237,o),
(-59,-237,cs),
(-72,-237,o),
(-79,-273,o),
(-70,-273,c)
);
},
{
closed = 1;
nodes = (
(158,27,o),
(152,31,o),
(152,39,cs),
(152,44,o),
(153,49,o),
(154,55,cs),
(229,359,l),
(238,361,o),
(247,362,o),
(255,362,cs),
(319,362,o),
(338,301,o),
(338,235,cs),
(338,141,o),
(265,27,o),
(169,27,cs)
);
}
);
width = 446;
},
{
anchors = (
{
name = center;
pos = (123,523);
}
);
layerId = "7904EAEE-2B64-409E-B923-0048172372BE";
shapes = (
{
closed = 1;
nodes = (
(-34,-271,o),
(-4,-269,o),
(27,-269,cs),
(58,-269,o),
(88,-271,o),
(118,-273,c),
(130,-273,o),
(135,-249,o),
(126,-249,cs),
(67,-249,o),
(61,-231,o),
(66,-208,cs),
(113,-5,l),
(129,-11,o),
(144,-13,o),
(158,-13,cs),
(286,-13,o),
(413,115,o),
(413,248,cs),
(413,342,o),
(361,411,o),
(273,411,cs),
(239,411,o),
(218,408,o),
(207,403,c),
(229,499,ls),
(255,610,o),
(287,683,o),
(335,683,cs),
(359,683,o),
(371,663,o),
(371,621,cs),
(371,604,o),
(383,589,o),
(403,589,cs),
(422,589,o),
(431,603,o),
(431,632,cs),
(431,678,o),
(398,715,o),
(351,715,cs),
(315,715,o),
(280,697,o),
(247,658,cs),
(222,627,o),
(194,548,o),
(160,397,cs),
(158,391,l),
(121,375,o),
(83,353,o),
(48,318,cs),
(40,310,o),
(63,290,o),
(72,298,cs),
(89,316,o),
(115,333,o),
(149,350,c),
(18,-212,ls),
(13,-237,o),
(-12,-249,o),
(-56,-249,cs),
(-67,-249,o),
(-74,-273,o),
(-65,-273,c)
);
},
{
closed = 1;
nodes = (
(140,17,o),
(124,28,o),
(124,51,cs),
(124,52,o),
(125,54,o),
(126,58,cs),
(198,364,l),
(214,369,o),
(231,372,o),
(248,372,cs),
(310,372,o),
(357,307,o),
(357,232,cs),
(357,122,o),
(270,17,o),
(169,17,cs)
);
}
);
width = 420;
},
{
anchors = (
{
name = center;
pos = (129,523);
}
);
guides = (
{
pos = (-215,271);
showMeasurement = 1;
},
{
pos = (693,1298);
}
);
layerId = "E06D8587-1A71-4EC2-BD94-397D882F5FC1";
shapes = (
{
closed = 1;
nodes = (
(-29,-271,o),
(-1,-269,o),
(29,-269,cs),
(60,-269,o),
(87,-271,o),
(112,-273,c),
(121,-273,o),
(126,-246,o),
(119,-246,cs),
(68,-246,o),
(65,-228,o),
(70,-205,cs),
(108,-8,l),
(121,-12,o),
(132,-13,o),
(139,-13,cs),
(249,-13,o),
(361,113,o),
(361,249,cs),
(361,346,o),
(309,412,o),
(231,412,cs),
(214,412,o),
(200,410,o),
(189,406,c),
(208,509,ls),
(224,599,o),
(247,681,o),
(285,681,cs),
(304,681,o),
(314,662,o),
(314,623,cs),
(314,602,o),
(329,587,o),
(348,587,cs),
(368,587,o),
(378,603,o),
(378,634,cs),
(378,681,o),
(340,715,o),
(295,715,cs),
(267,715,o),
(237,699,o),
(208,662,cs),
(172,618,o),
(152,521,o),
(128,401,cs),
(126,386,l),
(94,368,o),
(66,345,o),
(42,316,cs),
(36,310,o),
(55,286,o),
(62,294,cs),
(77,313,o),
(97,329,o),
(118,342,c),
(10,-209,ls),
(5,-234,o),
(-14,-246,o),
(-46,-246,cs),
(-56,-246,o),
(-61,-273,o),
(-53,-273,c)
);
},
{
closed = 1;
nodes = (
(127,19,o),
(119,27,o),
(119,44,cs),
(119,47,o),
(119,50,o),
(120,55,cs),
(180,364,l),
(192,368,o),
(203,369,o),
(213,369,cs),
(266,369,o),
(294,304,o),
(294,233,cs),
(294,129,o),
(228,19,o),
(145,19,cs)
);
}
);
width = 366;
},
{
anchors = (
{
name = center;
pos = (140,523);
}
);
layerId = "8F7CDE40-C368-4484-AA71-76B7ABD5539F";
shapes = (
{
closed = 1;
nodes = (
(-26,-271,o),
(8,-269,o),
(46,-269,cs),
(82,-269,o),
(118,-271,o),
(152,-273,c),
(166,-273,o),
(172,-246,o),
(162,-246,cs),
(94,-246,o),
(86,-229,o),
(92,-205,cs),
(138,-6,l),
(157,-11,o),
(173,-13,o),
(189,-13,cs),
(336,-13,o),
(478,112,o),
(478,243,cs),
(478,343,o),
(410,411,o),
(309,411,cs),
(273,411,o),
(249,409,o),
(236,403,c),
(259,500,ls),
(285,613,o),
(320,681,o),
(373,681,cs),
(400,681,o),
(414,661,o),
(416,622,cs),
(416,603,o),
(433,587,o),
(456,587,cs),
(478,587,o),
(488,601,o),
(488,629,cs),
(488,678,o),
(446,715,o),
(390,715,cs),
(346,715,o),
(307,694,o),
(272,659,cs),
(240,626,o),
(211,551,o),
(176,398,cs),
(175,391,l),
(136,376,o),
(91,354,o),
(51,318,cs),
(41,309,o),
(69,290,o),
(79,298,cs),
(101,317,o),
(132,333,o),
(164,347,c),
(32,-209,ls),
(26,-234,o),
(-2,-246,o),
(-52,-246,cs),
(-65,-246,o),
(-72,-273,o),
(-61,-273,c)
);
},
{
closed = 1;
nodes = (
(169,19,o),
(150,31,o),
(150,52,cs),
(150,54,o),
(151,55,o),
(152,60,cs),
(226,362,l),
(242,367,o),
(263,369,o),
(282,369,cs),
(353,369,o),
(410,306,o),
(410,227,cs),
(410,120,o),
(315,19,o),
(201,19,cs)
);
}
);
width = 487;
},
{
anchors = (
{
name = center;
pos = (111,523);
}
);
layerId = "997BDFA1-EC67-4686-8CFE-E56BDBE179FE";
shapes = (
{
closed = 1;
nodes = (
(-62,-271,o),
(-31,-269,o),
(3,-269,cs),
(37,-269,o),
(68,-271,o),
(97,-273,c),
(109,-273,o),
(115,-246,o),
(106,-246,cs),
(47,-246,o),
(42,-229,o),
(48,-205,cs),
(93,-7,l),
(109,-11,o),
(123,-13,o),
(134,-13,cs),
(264,-13,o),
(394,115,o),
(394,249,cs),
(394,345,o),
(338,411,o),
(247,411,cs),
(221,411,o),
(202,409,o),
(190,405,c),
(212,505,ls),
(234,604,o),
(265,681,o),
(311,681,cs),
(334,681,o),
(346,662,o),
(346,622,cs),
(346,603,o),
(361,587,o),
(382,587,cs),
(404,587,o),
(415,603,o),
(415,634,cs),
(415,680,o),
(376,715,o),
(325,715,cs),
(289,715,o),
(255,697,o),
(221,660,cs),
(187,622,o),
(159,535,o),
(130,399,cs),
(127,388,l),
(91,372,o),
(55,350,o),
(22,317,cs),
(14,309,o),
(37,288,o),
(46,296,cs),
(64,314,o),
(89,330,o),
(117,344,c),
(-13,-209,ls),
(-18,-234,o),
(-42,-246,o),
(-83,-246,cs),
(-95,-246,o),
(-101,-273,o),
(-92,-273,c)
);
},
{
closed = 1;
nodes = (
(118,19,o),
(106,29,o),
(106,48,cs),
(106,50,o),
(106,53,o),
(107,57,cs),
(179,363,l),
(194,367,o),
(209,369,o),
(224,369,cs),
(286,369,o),
(326,305,o),
(326,233,cs),
(326,126,o),
(243,19,o),
(143,19,cs)
);
}
);
width = 425;
}
);
metricLeft = p;
metricRight = p;
unicode = 421;
}
{
glyphname = Esh;
layers = (
{
layerId = master01;
shapes = (
{
closed = 1;
nodes = (
(124,-3,o),
(206,0,o),
(287,0,cs),
(364,0,o),
(440,-3,o),
(519,-3,cs),
(529,-3,o),
(535,3,o),
(538,11,cs),
(580,166,ls),
(583,178,o),
(549,177,o),
(545,166,cs),
(522,81,o),
(461,34,o),
(387,34,cs),
(103,34,l),
(417,307,ls),
(435,322,o),
(437,331,o),
(429,350,cs),
(301,637,l),
(525,628,ls),
(582,626,o),
(616,596,o),
(616,542,cs),
(616,528,o),
(613,513,o),
(608,496,cs),
(605,484,o),
(640,484,o),
(644,496,cs),
(685,646,ls),
(689,661,o),
(680,667,o),
(656,667,cs),
(592,667,o),
(528,666,o),
(464,666,cs),
(385,666,o),
(307,667,o),
(224,667,cs),
(206,667,o),
(197,652,o),
(197,644,cs),
(197,638,o),
(198,633,o),
(201,627,cs),
(350,295,l),
(38,26,ls),
(29,18,o),
(24,11,o),
(24,5,cs),
(24,0,o),
(29,-3,o),
(39,-3,cs)
);
}
);
width = 633;
},
{
layerId = "2438E31C-45B5-47A7-9B3D-1A0FEFB47671";
shapes = (
{
closed = 1;
nodes = (
(96,-3,o),
(188,0,o),
(279,0,cs),
(360,0,o),
(436,-3,o),
(517,-3,cs),
(528,-3,o),
(535,3,o),
(537,11,cs),
(582,168,ls),
(585,179,o),
(535,179,o),
(532,168,cs),
(507,82,o),
(456,43,o),
(369,43,cs),
(98,43,l),
(418,315,ls),
(436,331,o),
(438,340,o),
(430,358,cs),
(311,625,l),
(507,616,ls),
(571,613,o),
(603,576,o),
(603,527,cs),
(603,516,o),
(601,503,o),
(597,491,cs),
(594,479,o),
(642,479,o),
(646,491,cs),
(690,647,ls),
(694,661,o),
(685,667,o),
(660,667,cs),
(592,667,o),
(525,666,o),
(458,666,cs),
(375,666,o),
(277,667,o),
(194,667,cs),
(176,667,o),
(167,648,o),
(167,642,cs),
(167,636,o),
(169,631,o),
(172,625,cs),
(320,295,l),
(4,26,ls),
(-6,18,o),
(-10,11,o),
(-10,5,cs),
(-10,0,o),
(-5,-3,o),
(5,-3,cs)
);
}
);
width = 617;
},
{
layerId = "7904EAEE-2B64-409E-B923-0048172372BE";
shapes = (
{
closed = 1;
nodes = (
(133,-3,o),
(211,0,o),
(289,0,cs),
(366,0,o),
(442,-3,o),
(519,-3,cs),
(529,-3,o),
(535,3,o),
(538,11,cs),
(580,166,ls),
(583,178,o),
(553,177,o),
(550,166,cs),
(527,81,o),
(462,30,o),
(394,30,cs),
(105,30,l),
(416,304,ls),
(434,319,o),
(437,328,o),
(428,347,cs),
(297,641,l),
(531,632,ls),
(585,631,o),
(620,603,o),
(620,547,cs),
(620,533,o),
(618,516,o),
(612,497,cs),
(609,485,o),
(640,485,o),
(643,497,cs),
(683,645,ls),
(687,661,o),
(679,667,o),
(655,667,cs),
(592,667,o),
(529,666,o),
(466,666,cs),
(388,666,o),
(317,667,o),
(234,667,cs),
(216,667,o),
(207,654,o),
(207,644,cs),
(207,638,o),
(208,633,o),
(210,627,cs),
(359,295,l),
(49,26,ls),
(41,18,o),
(36,11,o),
(36,5,cs),
(36,0,o),
(41,-3,o),
(50,-3,cs)
);
}
);
width = 638;
},
{
layerId = "E06D8587-1A71-4EC2-BD94-397D882F5FC1";
shapes = (
{
closed = 1;
nodes = (
(108,-3,o),
(183,0,o),
(256,0,cs),
(323,0,o),
(388,-3,o),
(456,-3,cs),
(465,-3,o),
(471,3,o),
(473,11,cs),
(510,167,ls),
(513,179,o),
(476,178,o),
(473,167,cs),
(452,79,o),
(403,38,o),
(336,38,cs),
(101,38,l),
(371,311,ls),
(386,326,o),
(388,335,o),
(381,354,cs),
(276,631,l),
(454,623,ls),
(505,621,o),
(533,587,o),
(533,535,cs),
(533,521,o),
(532,512,o),
(527,493,cs),
(524,480,o),
(561,482,o),
(563,493,cs),
(600,646,ls),
(603,659,o),
(599,667,o),
(575,667,cs),
(519,667,o),
(463,666,o),
(407,666,cs),
(338,666,o),
(263,667,o),
(192,667,cs),
(177,667,o),
(169,650,o),
(169,643,cs),
(169,637,o),
(170,632,o),
(173,626,cs),
(300,295,l),
(32,26,ls),
(24,18,o),
(21,11,o),
(21,5,cs),
(21,0,o),
(25,-3,o),
(33,-3,cs)
);
}
);
width = 557;
},
{
layerId = "8F7CDE40-C368-4484-AA71-76B7ABD5539F";
shapes = (
{
closed = 1;
nodes = (
(140,-3,o),
(229,0,o),
(317,0,cs),
(405,0,o),
(493,-3,o),
(582,-3,cs),
(594,-3,o),
(601,4,o),
(603,11,cs),
(645,165,ls),
(648,177,o),
(616,178,o),
(612,165,cs),
(589,83,o),
(518,29,o),
(437,29,cs),
(104,29,l),
(452,303,ls),
(472,318,o),
(475,327,o),
(465,346,cs),
(303,642,l),
(574,634,ls),
(645,632,o),
(679,599,o),
(679,546,cs),
(679,534,o),
(677,515,o),
(672,498,cs),
(669,488,o),
(703,486,o),
(707,498,cs),
(747,645,ls),
(751,662,o),
(739,667,o),
(715,667,cs),
(643,667,o),
(570,666,o),
(498,666,cs),
(409,666,o),
(328,667,o),
(233,667,cs),
(212,667,o),
(203,655,o),
(203,645,cs),
(203,637,o),
(204,632,o),
(207,628,cs),
(389,295,l),
(43,26,ls),
(33,18,o),
(28,11,o),
(28,5,cs),
(28,0,o),
(34,-3,o),
(45,-3,cs)
);
}
);
width = 687;
},
{
layerId = "997BDFA1-EC67-4686-8CFE-E56BDBE179FE";
shapes = (
{
closed = 1;
nodes = (
(124,-3,o),
(206,0,o),
(287,0,cs),
(364,0,o),
(440,-3,o),
(519,-3,cs),
(529,-3,o),
(535,3,o),
(538,11,cs),
(580,166,ls),
(583,178,o),
(549,177,o),
(545,166,cs),
(522,81,o),
(461,34,o),
(387,34,cs),
(103,34,l),
(417,307,ls),
(435,322,o),
(437,331,o),
(429,350,cs),
(301,637,l),
(525,628,ls),
(582,626,o),
(616,596,o),
(616,542,cs),
(616,528,o),
(613,513,o),
(608,496,cs),
(605,484,o),
(640,484,o),
(644,496,cs),
(685,646,ls),
(689,661,o),
(680,667,o),
(656,667,cs),
(592,667,o),
(528,666,o),
(464,666,cs),
(385,666,o),
(307,667,o),
(224,667,cs),
(206,667,o),
(197,652,o),
(197,644,cs),
(197,638,o),
(198,633,o),
(201,627,cs),
(350,295,l),
(38,26,ls),
(29,18,o),
(24,11,o),
(24,5,cs),
(24,0,o),
(29,-3,o),
(39,-3,cs)
);
}
);
width = 633;
}
);
unicode = 425;
}
{
glyphname = tpalatalhook;
kernLeft = t;
kernRight = f_f_t;
layers = (
{
layerId = master01;
shapes = (
{
closed = 1;
nodes = (
(95,-133,o),
(140,-115,o),
(179,-71,cs),
(226,-20,o),
(253,54,o),
(273,127,cs),
(276,137,o),
(259,151,o),
(253,143,cs),
(203,81,o),
(168,50,o),
(147,50,cs),
(136,50,o),
(130,58,o),
(130,75,cs),
(130,84,o),
(132,96,o),
(136,110,cs),
(207,356,l),
(316,356,ls),
(326,356,o),
(336,395,o),
(326,395,cs),
(217,395,l),
(241,495,l),
(241,507,o),
(212,507,o),
(207,499,cs),
(157,399,l),
(75,385,ls),
(62,383,o),
(61,356,o),
(71,356,cs),
(147,356,l),
(65,72,ls),
(62,63,o),
(61,51,o),
(61,37,cs),
(61,13,o),
(75,-13,o),
(103,-13,cs),
(134,-13,o),
(164,3,o),
(193,29,c),
(178,-38,o),
(150,-91,o),
(102,-91,cs),
(93,-91,o),
(82,-88,o),
(73,-80,cs),
(64,-71,o),
(54,-67,o),
(44,-67,cs),
(27,-67,o),
(4,-76,o),
(4,-101,cs),
(4,-122,o),
(19,-133,o),
(54,-133,cs)
);
}
);
width = 295;
},
{
guides = (
{
pos = (162,-273);
},
{
pos = (692,265);
}
);
layerId = "2438E31C-45B5-47A7-9B3D-1A0FEFB47671";
shapes = (
{
closed = 1;
nodes = (
(119,-133,o),
(169,-113,o),
(216,-61,cs),
(264,-7,o),
(288,56,o),
(308,129,cs),
(311,140,o),
(288,160,o),
(280,151,cs),
(230,90,o),
(193,61,o),
(173,61,cs),
(164,61,o),
(159,67,o),
(159,79,cs),
(159,87,o),
(162,99,o),
(166,114,cs),
(238,348,l),
(360,348,ls),
(370,348,o),
(380,400,o),
(370,400,cs),
(253,400,l),
(280,486,l),
(280,504,o),
(232,509,o),
(226,501,cs),
(158,405,l),
(72,387,ls),
(56,384,o),
(50,348,o),
(63,348,cs),
(141,348,l),
(60,88,ls),
(57,77,o),
(55,65,o),
(55,51,cs),
(55,18,o),
(78,-13,o),
(116,-13,cs),
(146,-13,o),
(173,-3,o),
(199,13,c),
(190,-25,o),
(160,-81,o),
(131,-81,cs),
(114,-81,o),
(104,-75,o),
(91,-63,cs),
(78,-50,o),
(69,-43,o),
(56,-43,cs),
(34,-43,o),
(8,-57,o),
(8,-88,cs),
(8,-115,o),
(31,-133,o),
(72,-133,cs)
);
}
);
width = 341;
},
{
guides = (
{
pos = (119,-273);
},
{
pos = (649,260);
}
);
layerId = "7904EAEE-2B64-409E-B923-0048172372BE";
shapes = (
{
closed = 1;
nodes = (
(87,-133,o),
(131,-115,o),
(166,-77,cs),
(214,-25,o),
(242,54,o),
(263,127,cs),
(265,136,o),
(252,149,o),
(244,140,cs),
(195,77,o),
(160,46,o),
(139,46,cs),
(127,46,o),
(121,55,o),
(121,74,cs),
(121,83,o),
(122,95,o),
(126,108,cs),
(197,359,l),
(302,359,ls),
(313,359,o),
(322,393,o),
(312,393,cs),
(205,393,l),
(229,498,l),
(229,507,o),
(205,507,o),
(202,498,cs),
(157,397,l),
(77,385,ls),
(67,383,o),
(63,359,o),
(74,359,cs),
(149,359,l),
(67,67,ls),
(64,58,o),
(63,47,o),
(63,33,cs),
(63,11,o),
(74,-13,o),
(99,-13,cs),
(132,-13,o),
(166,9,o),
(198,43,c),
(179,-43,o),
(152,-95,o),
(97,-95,cs),
(86,-95,o),
(76,-92,o),
(68,-85,cs),
(59,-79,o),
(49,-75,o),
(39,-75,cs),
(24,-75,o),
(4,-81,o),
(4,-103,cs),
(4,-122,o),
(15,-133,o),
(49,-133,cs)
);
}
);
width = 287;
},
{
guides = (
{
pos = (134,-273);
},
{
pos = (664,275);
}
);
layerId = "E06D8587-1A71-4EC2-BD94-397D882F5FC1";
shapes = (
{
closed = 1;
nodes = (
(90,-133,o),
(127,-115,o),
(159,-70,cs),
(200,-14,o),
(222,62,o),
(238,134,cs),
(240,143,o),
(222,157,o),
(217,147,cs),
(176,84,o),
(146,50,o),
(129,50,cs),
(121,50,o),
(116,58,o),
(116,73,cs),
(116,81,o),
(118,94,o),
(121,108,cs),
(180,354,l),
(271,354,ls),
(280,354,o),
(286,396,o),
(280,396,cs),
(190,396,l),
(210,492,l),
(210,506,o),
(180,508,o),
(176,500,cs),
(130,401,l),
(64,386,ls),
(52,383,o),
(49,354,o),
(58,354,cs),
(119,354,l),
(54,77,ls),
(52,67,o),
(51,54,o),
(51,42,cs),
(51,15,o),
(65,-13,o),
(91,-13,cs),
(114,-13,o),
(136,-1,o),
(157,19,c),
(147,-32,o),
(125,-91,o),
(93,-91,cs),
(86,-91,o),
(79,-89,o),
(71,-80,cs),
(62,-70,o),
(53,-67,o),
(45,-67,cs),
(30,-67,o),
(11,-73,o),
(11,-100,cs),
(11,-123,o),
(25,-133,o),
(56,-133,cs)
);
}
);
width = 253;
},
{
guides = (
{
pos = (144,-273);
},
{
pos = (674,245);
}
);
layerId = "8F7CDE40-C368-4484-AA71-76B7ABD5539F";
shapes = (
{
closed = 1;
nodes = (
(113,-133,o),
(167,-114,o),
(211,-73,cs),
(262,-25,o),
(291,45,o),
(313,120,cs),
(317,130,o),
(300,145,o),
(294,139,cs),
(237,77,o),
(197,50,o),
(173,50,cs),
(158,50,o),
(150,60,o),
(150,80,cs),
(150,89,o),
(152,99,o),
(156,112,cs),
(230,359,l),
(358,359,ls),
(370,359,o),
(380,393,o),
(369,393,cs),
(240,393,l),
(264,498,l),
(264,507,o),
(235,507,o),
(230,498,cs),
(179,397,l),
(82,385,ls),
(68,383,o),
(70,359,o),
(79,359,cs),
(170,359,l),
(81,67,ls),
(80,61,o),
(78,53,o),
(78,40,cs),
(78,7,o),
(95,-13,o),
(124,-13,cs),
(164,-13,o),
(201,6,o),
(237,37,c),
(218,-45,o),
(188,-91,o),
(123,-91,cs),
(111,-91,o),
(98,-87,o),
(88,-80,cs),
(78,-72,o),
(67,-67,o),
(56,-67,cs),
(37,-67,o),
(11,-79,o),
(11,-101,cs),
(11,-123,o),
(29,-133,o),
(67,-133,cs)
);
}
);
width = 340;
},
{
layerId = "997BDFA1-EC67-4686-8CFE-E56BDBE179FE";
shapes = (
{
closed = 1;
nodes = (
(69,-133,o),
(115,-115,o),
(154,-71,cs),
(200,-20,o),
(227,54,o),
(247,127,cs),
(250,137,o),
(233,151,o),
(227,143,cs),
(178,81,o),
(142,50,o),
(121,50,cs),
(110,50,o),
(104,58,o),
(104,75,cs),
(104,84,o),
(106,96,o),
(110,110,cs),
(181,356,l),
(290,356,ls),
(301,356,o),
(310,395,o),
(301,395,cs),
(191,395,l),
(216,495,l),
(216,507,o),
(186,507,o),
(182,499,cs),
(131,399,l),
(50,385,ls),
(37,383,o),
(36,356,o),
(45,356,cs),
(121,356,l),
(39,72,ls),
(37,63,o),
(35,51,o),
(35,37,cs),
(35,13,o),
(49,-13,o),
(77,-13,cs),
(108,-13,o),
(138,3,o),
(167,29,c),
(152,-38,o),
(124,-91,o),
(76,-91,cs),
(67,-91,o),
(57,-88,o),
(47,-80,cs),
(38,-71,o),
(29,-67,o),
(18,-67,cs),
(1,-67,o),
(-22,-76,o),
(-22,-101,cs),
(-22,-122,o),
(-7,-133,o),
(29,-133,cs)
);
}
);
width = 371;
}
);
metricLeft = t;
metricWidth = t;
unicode = 427;
}
{
glyphname = thook;
kernLeft = t;
layers = (
{
guides = (
{
angle = 180;
pos = (695,1211);
},
{
angle = 73.9797;
pos = (339,478);
},
{
angle = 253.8987;
pos = (204,439);
}
);
layerId = master01;
shapes = (
{
closed = 1;
nodes = (
(164,-13,o),
(220,49,o),
(273,127,cs),
(279,135,o),
(259,151,o),
(253,143,cs),
(203,81,o),
(168,50,o),
(147,50,cs),
(136,50,o),
(130,58,o),
(130,75,cs),
(130,84,o),
(132,96,o),
(136,110,cs),
(207,356,l),
(316,356,ls),
(326,356,o),
(336,395,o),
(326,395,cs),
(218,395,l),
(243,482,o),
(270,558,o),
(316,558,cs),
(339,558,o),
(350,538,o),
(350,499,cs),
(350,479,o),
(366,463,o),
(387,463,cs),
(408,463,o),
(419,479,o),
(419,510,cs),
(419,556,o),
(380,591,o),
(330,591,cs),
(292,591,o),
(255,574,o),
(221,537,cs),
(199,512,o),
(179,466,o),
(157,399,c),
(75,385,ls),
(62,383,o),
(61,356,o),
(71,356,cs),
(147,356,l),
(65,72,ls),
(62,63,o),
(61,51,o),
(61,37,cs),
(61,13,o),
(75,-13,o),
(103,-13,cs)
);
}
);
width = 295;
},
{
guides = (
{
angle = 180;
pos = (728,1211);
},
{
angle = 252.7011;
pos = (200,447);
},
{
angle = 72.8637;
pos = (408,473);
}
);
layerId = "2438E31C-45B5-47A7-9B3D-1A0FEFB47671";
shapes = (
{
closed = 1;
nodes = (
(194,-13,o),
(252,51,o),
(308,129,cs),
(314,139,o),
(288,160,o),
(280,151,cs),
(230,90,o),
(193,61,o),
(173,61,cs),
(164,61,o),
(159,67,o),
(159,79,cs),
(159,87,o),
(162,99,o),
(166,114,cs),
(238,348,l),
(360,348,ls),
(370,348,o),
(380,400,o),
(370,400,cs),
(255,400,l),
(272,458,o),
(301,551,o),
(333,551,cs),
(353,551,o),
(363,535,o),
(363,503,cs),
(363,472,o),
(387,457,o),
(413,457,cs),
(442,457,o),
(460,477,o),
(460,515,cs),
(460,562,o),
(401,591,o),
(340,591,cs),
(302,591,o),
(265,575,o),
(231,542,cs),
(197,508,o),
(176,458,o),
(159,405,c),
(72,387,ls),
(56,384,o),
(50,348,o),
(63,348,cs),
(141,348,l),
(60,88,ls),
(57,77,o),
(55,65,o),
(55,51,cs),
(55,18,o),
(78,-13,o),
(116,-13,cs)
);
}
);
width = 341;
},
{
guides = (
{
angle = 180;
pos = (685,1211);
}
);
layerId = "7904EAEE-2B64-409E-B923-0048172372BE";
shapes = (
{
closed = 1;
nodes = (
(155,-13,o),
(210,48,o),
(262,126,cs),
(267,134,o),
(250,147,o),
(244,140,cs),
(195,77,o),
(160,46,o),
(139,46,cs),
(127,46,o),
(121,55,o),
(121,74,cs),
(121,83,o),
(122,95,o),
(126,108,cs),
(197,359,l),
(302,359,ls),
(312,359,o),
(322,393,o),
(312,393,cs),
(206,393,l),
(234,490,o),
(260,560,o),
(310,560,cs),
(334,560,o),
(347,539,o),
(347,497,cs),
(347,481,o),
(359,465,o),
(379,465,cs),
(398,465,o),
(406,479,o),
(406,509,cs),
(406,554,o),
(374,591,o),
(327,591,cs),
(289,591,o),
(251,574,o),
(218,535,cs),
(200,513,o),
(181,468,o),
(157,397,c),
(77,385,ls),
(65,383,o),
(66,359,o),
(74,359,cs),
(149,359,l),
(67,67,ls),
(64,58,o),
(63,47,o),
(63,33,cs),
(63,11,o),
(74,-13,o),
(99,-13,cs)
);
}
);
width = 287;
},
{
guides = (
{
angle = 180;
pos = (615,1211);
},
{
angle = 76.3697;
pos = (303,477);
},
{
pos = (170,102);
},
{
angle = 256.2954;
pos = (171,441);
}
);
layerId = "E06D8587-1A71-4EC2-BD94-397D882F5FC1";
shapes = (
{
closed = 1;
nodes = (
(147,-13,o),
(196,49,o),
(240,127,cs),
(245,136,o),
(226,153,o),
(221,145,cs),
(179,83,o),
(149,49,o),
(132,49,cs),
(122,49,o),
(118,58,o),
(118,73,cs),
(118,82,o),
(120,94,o),
(123,107,cs),
(183,356,l),
(278,356,ls),
(287,356,o),
(293,395,o),
(285,395,cs),
(193,395,l),
(214,485,o),
(237,558,o),
(270,558,cs),
(289,558,o),
(299,538,o),
(299,500,cs),
(299,478,o),
(313,462,o),
(333,462,cs),
(352,462,o),
(363,478,o),
(363,510,cs),
(363,558,o),
(324,591,o),
(281,591,cs),
(248,591,o),
(217,574,o),
(189,538,cs),
(166,510,o),
(149,459,o),
(133,401,c),
(63,386,ls),
(52,383,o),
(50,356,o),
(59,356,cs),
(123,356,l),
(55,76,ls),
(53,66,o),
(52,54,o),
(52,41,cs),
(52,14,o),
(66,-13,o),
(92,-13,cs)
);
}
);
width = 253;
},
{
guides = (
{
angle = 180;
pos = (785,1211);
}
);
layerId = "8F7CDE40-C368-4484-AA71-76B7ABD5539F";
shapes = (
{
closed = 1;
nodes = (
(190,-13,o),
(253,48,o),
(311,125,cs),
(318,135,o),
(295,148,o),
(290,142,cs),
(234,78,o),
(194,50,o),
(170,50,cs),
(156,50,o),
(149,60,o),
(149,80,cs),
(149,89,o),
(150,99,o),
(154,112,cs),
(227,356,l),
(351,356,ls),
(363,356,o),
(373,395,o),
(363,395,cs),
(239,395,l),
(265,479,o),
(293,558,o),
(351,558,cs),
(378,558,o),
(393,538,o),
(394,498,cs),
(394,480,o),
(411,465,o),
(434,465,cs),
(457,465,o),
(467,479,o),
(467,506,cs),
(467,555,o),
(425,591,o),
(368,591,cs),
(323,591,o),
(280,571,o),
(244,535,cs),
(222,514,o),
(201,471,o),
(176,398,c),
(83,385,ls),
(69,383,o),
(69,356,o),
(79,356,cs),
(167,356,l),
(82,68,ls),
(80,62,o),
(78,53,o),
(78,41,cs),
(78,7,o),
(95,-13,o),
(123,-13,cs)
);
}
);
width = 340;
},
{
layerId = "997BDFA1-EC67-4686-8CFE-E56BDBE179FE";
shapes = (
{
closed = 1;
nodes = (
(138,-13,o),
(195,49,o),
(247,127,cs),
(253,135,o),
(233,151,o),
(227,143,cs),
(178,81,o),
(142,50,o),
(121,50,cs),
(110,50,o),
(104,58,o),
(104,75,cs),
(104,84,o),
(106,96,o),
(110,110,cs),
(181,356,l),
(290,356,ls),
(301,356,o),
(310,395,o),
(301,395,cs),
(192,395,l),
(217,482,o),
(244,558,o),
(290,558,cs),
(313,558,o),
(325,538,o),
(325,499,cs),
(325,479,o),
(340,463,o),
(361,463,cs),
(383,463,o),
(393,479,o),
(393,510,cs),
(393,556,o),
(354,591,o),
(304,591,cs),
(267,591,o),
(229,574,o),
(195,537,cs),
(173,512,o),
(153,466,o),
(131,399,c),
(50,385,ls),
(37,383,o),
(36,356,o),
(45,356,cs),
(121,356,l),
(39,72,ls),
(37,63,o),
(35,51,o),
(35,37,cs),
(35,13,o),
(49,-13,o),
(77,-13,cs)
);
}
);
width = 371;
}
);
metricLeft = t;
metricWidth = t;
unicode = 429;
}
{
glyphname = Yhook;
kernRight = Y;
layers = (
{
anchors = (
{
name = bottom;
pos = (336,0);
},
{
name = top;
pos = (527,666);
}
);
layerId = master01;
shapes = (
{
closed = 1;
nodes = (
(259,-1,o),
(298,0,o),
(347,0,cs),
(396,0,o),
(435,-1,o),
(463,-3,c),
(473,-3,o),
(482,34,o),
(473,34,cs),
(418,34,o),
(395,42,o),
(409,91,cs),
(451,238,ls),
(461,272,o),
(477,298,o),
(493,319,cs),
(650,517,ls),
(733,622,o),
(755,628,o),
(823,628,cs),
(834,628,o),
(843,666,o),
(834,666,c),
(810,664,o),
(777,663,o),
(736,663,cs),
(695,663,o),
(663,664,o),
(642,666,c),
(630,666,o),
(623,628,o),
(631,628,cs),
(664,628,o),
(680,622,o),
(680,609,cs),
(680,599,o),
(670,586,o),
(656,568,cs),
(468,335,ls),
(464,330,o),
(459,328,o),
(456,328,cs),
(452,328,o),
(449,331,o),
(448,336,cs),
(419,448,ls),
(385,581,o),
(324,661,o),
(240,661,cs),
(181,661,o),
(133,620,o),
(133,577,cs),
(133,544,o),
(142,526,o),
(175,526,cs),
(211,526,o),
(240,585,o),
(240,624,c),
(305,624,o),
(314,590,o),
(368,375,cs),
(378,336,ls),
(384,313,o),
(388,295,o),
(388,284,cs),
(388,272,o),
(385,251,o),
(376,221,cs),
(339,91,ls),
(324,39,o),
(300,34,o),
(241,34,cs),
(231,34,o),
(222,-3,o),
(231,-3,c)
);
}
);
width = 743;
},
{
anchors = (
{
name = bottom;
pos = (348,0);
},
{
name = top;
pos = (539,666);
}
);
layerId = "2438E31C-45B5-47A7-9B3D-1A0FEFB47671";
shapes = (
{
closed = 1;
nodes = (
(236,-1,o),
(279,0,o),
(340,0,cs),
(401,0,o),
(444,-1,o),
(469,-4,c),
(478,-4,o),
(490,42,o),
(480,42,cs),
(423,42,o),
(412,59,o),
(424,98,cs),
(467,248,ls),
(475,278,o),
(487,299,o),
(498,313,cs),
(659,510,ls),
(727,593,o),
(756,620,o),
(833,620,cs),
(844,620,o),
(854,666,o),
(845,666,c),
(826,664,o),
(791,663,o),
(740,663,cs),
(689,663,o),
(655,664,o),
(636,666,c),
(627,666,o),
(615,620,o),
(624,620,cs),
(655,620,o),
(670,614,o),
(670,603,cs),
(670,594,o),
(661,582,o),
(647,565,cs),
(482,367,ls),
(476,360,o),
(471,357,o),
(467,357,cs),
(463,357,o),
(458,361,o),
(456,368,cs),
(435,448,ls),
(395,597,o),
(328,661,o),
(243,661,cs),
(179,661,o),
(126,625,o),
(126,577,cs),
(126,538,o),
(137,516,o),
(178,516,cs),
(217,516,o),
(248,571,o),
(253,612,c),
(281,590,o),
(297,530,o),
(339,375,cs),
(350,331,ls),
(355,313,o),
(359,298,o),
(359,288,cs),
(359,277,o),
(357,258,o),
(348,231,cs),
(310,106,ls),
(295,55,o),
(281,42,o),
(223,42,cs),
(215,42,o),
(203,-4,o),
(211,-4,c)
);
}
);
width = 747;
},
{
anchors = (
{
name = bottom;
pos = (334,0);
},
{
name = top;
pos = (525,666);
}
);
layerId = "7904EAEE-2B64-409E-B923-0048172372BE";
shapes = (
{
closed = 1;
nodes = (
(269,-1,o),
(306,0,o),
(352,0,cs),
(397,0,o),
(434,-1,o),
(464,-3,c),
(474,-3,o),
(482,31,o),
(473,31,cs),
(419,31,o),
(392,37,o),
(407,88,cs),
(449,234,ls),
(459,270,o),
(476,297,o),
(494,321,cs),
(650,520,ls),
(738,632,o),
(758,631,o),
(823,631,cs),
(833,631,o),
(842,666,o),
(833,666,c),
(807,664,o),
(775,663,o),
(738,663,cs),
(699,663,o),
(669,664,o),
(646,666,c),
(634,666,o),
(629,631,o),
(636,631,cs),
(670,631,o),
(686,625,o),
(686,611,cs),
(686,601,o),
(676,588,o),
(661,569,cs),
(465,324,ls),
(462,320,o),
(458,318,o),
(455,318,cs),
(451,318,o),
(449,320,o),
(448,326,cs),
(417,448,ls),
(385,576,o),
(325,661,o),
(242,661,cs),
(184,661,o),
(138,618,o),
(138,577,cs),
(138,546,o),
(146,529,o),
(177,529,cs),
(212,529,o),
(241,590,o),
(239,627,c),
(316,635,o),
(323,610,o),
(381,375,cs),
(390,338,ls),
(396,313,o),
(401,294,o),
(401,282,cs),
(401,271,o),
(397,249,o),
(388,217,cs),
(351,86,ls),
(337,34,o),
(308,31,o),
(249,31,cs),
(239,31,o),
(232,-3,o),
(240,-3,c)
);
}
);
width = 746;
},
{
anchors = (
{
name = bottom;
pos = (286,0);
},
{
name = top;
pos = (449,666);
}
);
layerId = "E06D8587-1A71-4EC2-BD94-397D882F5FC1";
shapes = (
{
closed = 1;
nodes = (
(214,-1,o),
(249,0,o),
(292,0,cs),
(334,0,o),
(369,-1,o),
(393,-3,c),
(402,-3,o),
(410,36,o),
(402,36,cs),
(354,36,o),
(338,46,o),
(349,92,cs),
(386,240,ls),
(394,273,o),
(406,297,o),
(419,317,cs),
(553,516,ls),
(615,609,o),
(636,626,o),
(701,626,cs),
(710,626,o),
(717,666,o),
(710,666,c),
(690,664,o),
(661,663,o),
(625,663,cs),
(588,663,o),
(560,664,o),
(542,666,c),
(534,666,o),
(527,626,o),
(533,626,cs),
(560,626,o),
(574,620,o),
(574,607,cs),
(574,597,o),
(564,583,o),
(554,567,cs),
(399,342,ls),
(395,337,o),
(391,334,o),
(389,334,cs),
(386,334,o),
(382,337,o),
(381,344,cs),
(358,448,ls),
(328,584,o),
(275,661,o),
(203,661,cs),
(152,661,o),
(109,621,o),
(109,577,cs),
(109,543,o),
(118,523,o),
(148,523,cs),
(179,523,o),
(204,582,o),
(205,621,c),
(252,616,o),
(260,577,o),
(305,375,cs),
(313,335,ls),
(318,315,o),
(322,296,o),
(322,285,cs),
(322,272,o),
(319,253,o),
(312,223,cs),
(280,94,ls),
(268,46,o),
(252,36,o),
(199,36,cs),
(191,36,o),
(183,-3,o),
(190,-3,c)
);
}
);
width = 638;
},
{
anchors = (
{
name = bottom;
pos = (390,0);
},
{
name = top;
pos = (587,666);
}
);
layerId = "8F7CDE40-C368-4484-AA71-76B7ABD5539F";
shapes = (
{
closed = 1;
nodes = (
(308,-1,o),
(352,0,o),
(408,0,cs),
(465,0,o),
(506,-1,o),
(539,-3,c),
(551,-3,o),
(559,32,o),
(548,32,cs),
(486,32,o),
(456,39,o),
(471,89,cs),
(513,235,ls),
(524,271,o),
(543,299,o),
(562,320,cs),
(735,519,ls),
(835,635,o),
(859,630,o),
(930,630,cs),
(942,630,o),
(951,666,o),
(941,666,c),
(912,664,o),
(875,663,o),
(830,663,cs),
(784,663,o),
(749,664,o),
(724,666,c),
(709,666,o),
(703,630,o),
(713,630,cs),
(751,630,o),
(770,624,o),
(770,610,cs),
(770,602,o),
(763,591,o),
(743,568,cs),
(531,328,ls),
(526,323,o),
(521,321,o),
(517,321,cs),
(514,321,o),
(512,323,o),
(510,329,cs),
(471,448,ls),
(427,582,o),
(353,661,o),
(261,661,cs),
(194,661,o),
(141,620,o),
(141,579,cs),
(141,544,o),
(156,528,o),
(190,528,cs),
(231,528,o),
(262,589,o),
(260,626,c),
(343,631,o),
(353,603,o),
(425,375,cs),
(437,338,ls),
(446,309,o),
(451,292,o),
(451,281,cs),
(451,271,o),
(448,249,o),
(439,218,cs),
(401,87,ls),
(386,32,o),
(351,32,o),
(287,32,cs),
(275,32,o),
(268,-3,o),
(278,-3,c)
);
}
);
width = 857;
},
{
anchors = (
{
name = bottom;
pos = (324,0);
},
{
name = top;
pos = (514,666);
}
);
layerId = "997BDFA1-EC67-4686-8CFE-E56BDBE179FE";
shapes = (
{
closed = 1;
nodes = (
(246,-1,o),
(285,0,o),
(335,0,cs),
(384,0,o),
(423,-1,o),
(451,-3,c),
(461,-3,o),
(470,34,o),
(461,34,cs),
(406,34,o),
(383,42,o),
(397,91,cs),
(439,238,ls),
(449,272,o),
(465,298,o),
(481,319,cs),
(638,517,ls),
(721,622,o),
(743,628,o),
(811,628,cs),
(822,628,o),
(830,666,o),
(822,666,c),
(798,664,o),
(765,663,o),
(724,663,cs),
(682,663,o),
(651,664,o),
(630,666,c),
(618,666,o),
(611,628,o),
(619,628,cs),
(652,628,o),
(668,622,o),
(668,609,cs),
(668,599,o),
(658,586,o),
(643,568,cs),
(455,335,ls),
(451,330,o),
(447,328,o),
(444,328,cs),
(440,328,o),
(437,331,o),
(436,336,cs),
(407,448,ls),
(373,581,o),
(312,661,o),
(228,661,cs),
(169,661,o),
(120,620,o),
(120,577,cs),
(120,544,o),
(130,526,o),
(163,526,cs),
(199,526,o),
(228,585,o),
(228,624,c),
(293,624,o),
(302,590,o),
(356,375,cs),
(366,336,ls),
(372,313,o),
(376,295,o),
(376,284,cs),
(376,272,o),
(373,251,o),
(364,221,cs),
(327,91,ls),
(312,39,o),
(287,34,o),
(229,34,cs),
(219,34,o),
(210,-3,o),
(219,-3,c)
);
}
);
width = 745;
}
);
metricLeft = Y;
metricRight = Y;
unicode = 435;
}
{
glyphname = aringacute;
layers = (
{
layerId = master01;
shapes = (
{
closed = 1;
nodes = (
(130,-13,o),
(196,39,o),
(273,142,c),
(279,140,l),
(258,84,ls),
(250,63,o),
(247,43,o),
(247,25,cs),
(247,0,o),
(256,-13,o),
(276,-13,cs),
(320,-13,o),
(388,35,o),
(417,77,cs),
(421,84,o),
(404,104,o),
(396,96,cs),
(365,65,o),
(344,50,o),
(333,50,cs),
(323,50,o),
(317,57,o),
(317,70,cs),
(317,78,o),
(319,88,o),
(322,99,cs),
(414,417,ls),
(419,435,o),
(362,435,o),
(357,419,cs),
(345,385,l),
(325,403,o),
(304,412,o),
(280,412,cs),
(147,412,o),
(16,201,o),
(16,69,cs),
(16,26,o),
(34,-13,o),
(76,-13,cs)
);
},
{
closed = 1;
nodes = (
(98,40,o),
(88,55,o),
(88,86,cs),
(88,184,o),
(173,380,o),
(268,380,cs),
(296,380,o),
(317,366,o),
(332,339,c),
(310,265,ls),
(301,236,o),
(288,208,o),
(270,180,cs),
(241,138,o),
(158,40,o),
(117,40,cs)
);
},
{
closed = 1;
nodes = (
(281,459,o),
(322,494,o),
(322,566,cs),
(322,613,o),
(277,649,o),
(223,649,cs),
(171,649,o),
(123,613,o),
(123,554,cs),
(123,503,o),
(161,459,o),
(223,459,cs)
);
},
{
closed = 1;
nodes = (
(196,492,o),
(170,514,o),
(170,554,cs),
(170,585,o),
(187,616,o),
(223,616,cs),
(252,616,o),
(276,595,o),
(276,554,cs),
(276,520,o),
(260,492,o),
(223,492,cs)
);
},
{
closed = 1;
nodes = (
(523,646,ls),
(542,667,o),
(497,701,o),
(481,679,cs),
(363,517,ls),
(345,492,o),
(371,477,o),
(393,502,cs)
);
}
);
width = 492;
},
{
layerId = "2438E31C-45B5-47A7-9B3D-1A0FEFB47671";
shapes = (
{
closed = 1;
nodes = (
(132,-13,o),
(191,27,o),
(264,108,c),
(270,105,l),
(258,76,ls),
(253,63,o),
(249,47,o),
(249,31,cs),
(249,1,o),
(261,-13,o),
(287,-13,cs),
(322,-13,o),
(400,34,o),
(434,79,cs),
(439,86,o),
(413,108,o),
(407,103,cs),
(384,80,o),
(368,69,o),
(355,69,cs),
(348,69,o),
(345,73,o),
(345,79,cs),
(345,82,o),
(345,84,o),
(348,95,cs),
(446,421,ls),
(451,437,o),
(360,437,o),
(354,421,cs),
(344,397,l),
(329,407,o),
(312,412,o),
(292,412,cs),
(153,412,o),
(9,217,o),
(9,81,cs),
(9,29,o),
(37,-13,o),
(87,-13,cs)
);
},
{
closed = 1;
nodes = (
(125,54,o),
(118,73,o),
(118,111,cs),
(118,202,o),
(199,371,o),
(278,371,cs),
(300,371,o),
(317,363,o),
(328,348,c),
(304,270,ls),
(295,241,o),
(282,211,o),
(265,180,cs),
(239,134,o),
(182,54,o),
(141,54,cs)
);
},
{
closed = 1;
nodes = (
(306,459,o),
(355,507,o),
(355,568,cs),
(355,628,o),
(306,678,o),
(245,678,cs),
(184,678,o),
(135,628,o),
(135,568,cs),
(135,507,o),
(184,459,o),
(245,459,cs)
);
},
{
closed = 1;
nodes = (
(209,499,o),
(180,529,o),
(180,568,cs),
(180,606,o),
(209,637,o),
(245,637,cs),
(281,637,o),
(309,606,o),
(309,568,cs),
(309,529,o),
(281,499,o),
(245,499,cs)
);
},
{
closed = 1;
nodes = (
(540,632,ls),
(567,658,o),
(502,717,o),
(476,678,cs),
(376,528,ls),
(358,500,o),
(384,481,o),
(405,501,cs)
);
}
);
width = 514;
},
{
layerId = "7904EAEE-2B64-409E-B923-0048172372BE";
shapes = (
{
closed = 1;
nodes = (
(131,-13,o),
(199,42,o),
(278,153,c),
(284,152,l),
(260,86,ls),
(251,63,o),
(248,42,o),
(248,23,cs),
(248,-1,o),
(256,-13,o),
(274,-13,cs),
(321,-13,o),
(385,35,o),
(414,80,cs),
(417,85,o),
(402,102,o),
(395,95,cs),
(361,60,o),
(337,44,o),
(327,44,cs),
(316,44,o),
(310,52,o),
(310,67,cs),
(310,77,o),
(312,89,o),
(315,101,cs),
(407,421,ls),
(411,435,o),
(365,435,o),
(361,421,cs),
(347,381,l),
(326,401,o),
(303,412,o),
(278,412,cs),
(147,412,o),
(20,196,o),
(20,65,cs),
(20,25,o),
(35,-13,o),
(74,-13,cs)
);
},
{
closed = 1;
nodes = (
(91,35,o),
(80,49,o),
(80,78,cs),
(80,178,o),
(166,383,o),
(266,383,cs),
(297,383,o),
(319,367,o),
(334,336,c),
(313,264,ls),
(304,235,o),
(292,207,o),
(273,180,cs),
(244,139,o),
(152,35,o),
(111,35,cs)
);
},
{
closed = 1;
nodes = (
(300,459,o),
(339,489,o),
(339,565,cs),
(339,608,o),
(296,639,o),
(244,639,cs),
(194,639,o),
(147,608,o),
(147,550,cs),
(147,501,o),
(182,459,o),
(244,459,cs)
);
},
{
closed = 1;
nodes = (
(219,490,o),
(194,509,o),
(194,550,cs),
(194,578,o),
(208,609,o),
(244,609,cs),
(270,609,o),
(293,591,o),
(293,550,cs),
(293,517,o),
(281,490,o),
(244,490,cs)
);
},
{
closed = 1;
nodes = (
(523,660,ls),
(537,676,o),
(501,706,o),
(486,686,cs),
(362,520,ls),
(346,499,o),
(368,481,o),
(387,503,cs)
);
}
);
width = 485;
},
{
layerId = "E06D8587-1A71-4EC2-BD94-397D882F5FC1";
shapes = (
{
closed = 1;
nodes = (
(110,-13,o),
(160,35,o),
(221,130,c),
(226,128,l),
(212,81,ls),
(207,63,o),
(203,44,o),
(203,27,cs),
(203,0,o),
(212,-13,o),
(230,-13,cs),
(262,-13,o),
(320,35,o),
(347,83,cs),
(351,90,o),
(332,106,o),
(326,98,cs),
(304,70,o),
(288,51,o),
(278,51,cs),
(271,51,o),
(267,57,o),
(267,67,cs),
(267,75,o),
(269,83,o),
(271,92,cs),
(347,420,ls),
(351,435,o),
(293,435,o),
(290,420,cs),
(281,389,l),
(267,404,o),
(251,412,o),
(233,412,cs),
(125,412,o),
(16,207,o),
(16,73,cs),
(16,28,o),
(34,-13,o),
(70,-13,cs)
);
},
{
closed = 1;
nodes = (
(93,40,o),
(86,59,o),
(86,95,cs),
(86,191,o),
(153,380,o),
(223,380,cs),
(244,380,o),
(259,367,o),
(269,342,c),
(251,267,ls),
(244,238,o),
(233,210,o),
(219,180,cs),
(198,136,o),
(140,40,o),
(107,40,cs)
);
},
{
closed = 1;
nodes = (
(231,459,o),
(274,499,o),
(274,566,cs),
(274,618,o),
(230,659,o),
(175,659,cs),
(122,659,o),
(75,618,o),
(75,559,cs),
(75,504,o),
(116,459,o),
(175,459,cs)
);
},
{
closed = 1;
nodes = (
(145,494,o),
(119,519,o),
(119,559,cs),
(119,591,o),
(140,623,o),
(175,623,cs),
(205,623,o),
(231,599,o),
(231,559,cs),
(231,523,o),
(210,494,o),
(175,494,cs)
);
},
{
closed = 1;
nodes = (
(433,650,ls),
(447,669,o),
(401,707,o),
(387,681,cs),
(298,523,ls),
(282,495,o),
(305,482,o),
(322,504,cs)
);
}
);
width = 407;
},
{
layerId = "8F7CDE40-C368-4484-AA71-76B7ABD5539F";
shapes = (
{
closed = 1;
nodes = (
(155,-13,o),
(234,41,o),
(323,150,c),
(328,148,l),
(308,87,ls),
(302,69,o),
(297,49,o),
(297,32,cs),
(297,7,o),
(308,-13,o),
(339,-13,cs),
(389,-13,o),
(460,35,o),
(489,72,cs),
(494,78,o),
(478,101,o),
(470,94,cs),
(429,60,o),
(397,46,o),
(381,46,cs),
(370,46,o),
(364,53,o),
(364,68,cs),
(364,78,o),
(367,91,o),
(372,106,cs),
(472,415,ls),
(479,434,o),
(420,434,o),
(416,418,cs),
(403,379,l),
(376,401,o),
(348,412,o),
(318,412,cs),
(163,412,o),
(20,202,o),
(20,71,cs),
(20,19,o),
(46,-13,o),
(88,-13,cs)
);
},
{
closed = 1;
nodes = (
(105,40,o),
(93,53,o),
(93,83,cs),
(93,184,o),
(188,380,o),
(305,380,cs),
(341,380,o),
(369,366,o),
(389,335,c),
(365,264,ls),
(355,234,o),
(341,206,o),
(319,180,cs),
(285,139,o),
(181,40,o),
(131,40,cs)
);
},
{
closed = 1;
nodes = (
(362,459,o),
(403,494,o),
(403,566,cs),
(403,613,o),
(358,649,o),
(304,649,cs),
(252,649,o),
(204,613,o),
(204,554,cs),
(204,503,o),
(242,459,o),
(304,459,cs)
);
},
{
closed = 1;
nodes = (
(277,492,o),
(251,514,o),
(251,554,cs),
(251,585,o),
(268,616,o),
(304,616,cs),
(333,616,o),
(357,595,o),
(357,554,cs),
(357,520,o),
(341,492,o),
(304,492,cs)
);
},
{
closed = 1;
nodes = (
(582,650,ls),
(600,670,o),
(556,703,o),
(540,682,cs),
(422,521,ls),
(403,496,o),
(429,481,o),
(451,506,cs)
);
}
);
width = 565;
},
{
layerId = "997BDFA1-EC67-4686-8CFE-E56BDBE179FE";
shapes = (
{
closed = 1;
nodes = (
(199,-21,o),
(312,71,o),
(444,259,c),
(453,257,l),
(415,143,ls),
(401,104,o),
(393,70,o),
(393,38,cs),
(393,-2,o),
(405,-21,o),
(442,-21,cs),
(509,-21,o),
(598,50,o),
(655,125,cs),
(665,138,o),
(642,164,o),
(630,153,cs),
(570,95,o),
(527,62,o),
(500,62,cs),
(484,62,o),
(476,72,o),
(476,94,cs),
(476,107,o),
(479,125,o),
(486,146,cs),
(645,686,ls),
(653,711,o),
(584,711,o),
(576,685,cs),
(555,620,l),
(517,659,o),
(476,676,o),
(438,676,cs),
(223,676,o),
(20,315,o),
(20,104,cs),
(20,40,o),
(42,-21,o),
(104,-21,cs)
);
},
{
closed = 1;
nodes = (
(128,55,o),
(110,77,o),
(110,122,cs),
(110,286,o),
(249,630,o),
(417,630,cs),
(470,630,o),
(508,603,o),
(534,547,c),
(499,430,ls),
(485,383,o),
(463,336,o),
(433,294,cs),
(382,223,o),
(228,55,o),
(162,55,cs)
);
},
{
closed = 1;
nodes = (
(466,728,o),
(508,763,o),
(508,835,cs),
(508,882,o),
(463,918,o),
(409,918,cs),
(357,918,o),
(309,882,o),
(309,823,cs),
(309,772,o),
(347,728,o),
(409,728,cs)
);
},
{
closed = 1;
nodes = (
(381,761,o),
(356,783,o),
(356,823,cs),
(356,854,o),
(373,885,o),
(409,885,cs),
(438,885,o),
(461,864,o),
(461,823,cs),
(461,789,o),
(446,761,o),
(409,761,cs)
);
},
{
closed = 1;
nodes = (
(709,915,ls),
(728,936,o),
(683,970,o),
(667,948,cs),
(549,786,ls),
(531,761,o),
(557,746,o),
(579,771,cs)
);
}
);
width = 695;
}
);
unicode = 507;
}
{
glyphname = zhook;
kernLeft = z;
layers = (
{
layerId = master01;
shapes = (
{
closed = 1;
nodes = (
(368,-149,o),
(379,-121,o),
(379,-93,cs),
(379,-6,o),
(272,68,o),
(126,69,c),
(428,399,ls),
(433,405,o),
(409,425,o),
(403,418,cs),
(383,396,ls),
(376,388,o),
(363,384,o),
(346,384,cs),
(332,384,o),
(310,388,o),
(280,397,cs),
(251,407,o),
(226,411,o),
(206,411,cs),
(165,411,o),
(133,398,o),
(107,372,cs),
(81,345,o),
(68,321,o),
(68,299,cs),
(68,273,o),
(81,260,o),
(106,260,cs),
(126,260,o),
(136,270,o),
(136,291,cs),
(136,300,o),
(133,309,o),
(127,317,cs),
(120,326,o),
(117,332,o),
(117,336,cs),
(117,354,o),
(132,364,o),
(161,364,cs),
(197,364,o),
(236,357,o),
(279,344,cs),
(292,340,o),
(299,336,o),
(299,331,cs),
(299,328,o),
(297,325,o),
(294,322,cs),
(19,15,ls),
(12,8,o),
(43,-22,o),
(51,-13,cs),
(79,18,o),
(102,32,o),
(122,32,cs),
(242,32,o),
(316,-28,o),
(316,-93,cs),
(316,-109,o),
(311,-125,o),
(301,-141,cs),
(293,-155,o),
(336,-188,o),
(344,-178,cs)
);
}
);
width = 392;
},
{
layerId = "2438E31C-45B5-47A7-9B3D-1A0FEFB47671";
shapes = (
{
closed = 1;
nodes = (
(382,-147,o),
(393,-118,o),
(393,-90,cs),
(393,-3,o),
(289,68,o),
(141,72,c),
(447,376,ls),
(455,384,o),
(419,430,o),
(406,417,cs),
(386,396,ls),
(379,388,o),
(368,384,o),
(351,384,cs),
(337,384,o),
(315,388,o),
(284,397,cs),
(253,407,o),
(229,411,o),
(212,411,cs),
(174,411,o),
(140,399,o),
(109,375,cs),
(78,350,o),
(63,322,o),
(63,289,cs),
(63,252,o),
(80,234,o),
(113,234,cs),
(144,234,o),
(160,249,o),
(160,277,cs),
(160,289,o),
(155,300,o),
(144,310,cs),
(134,321,o),
(128,327,o),
(128,332,cs),
(128,335,o),
(137,340,o),
(154,340,cs),
(193,340,o),
(228,338,o),
(258,324,cs),
(264,321,o),
(268,317,o),
(268,313,cs),
(268,310,o),
(266,306,o),
(262,302,cs),
(9,45,ls),
(-7,29,o),
(48,-28,o),
(60,-10,c),
(77,18,o),
(100,32,o),
(127,32,cs),
(231,32,o),
(307,-29,o),
(307,-91,cs),
(307,-103,o),
(305,-114,o),
(300,-126,cs),
(295,-137,o),
(350,-186,o),
(358,-177,cs)
);
}
);
width = 410;
},
{
layerId = "7904EAEE-2B64-409E-B923-0048172372BE";
shapes = (
{
closed = 1;
nodes = (
(367,-150,o),
(377,-122,o),
(377,-94,cs),
(377,-7,o),
(270,68,o),
(125,68,c),
(425,407,ls),
(430,412,o),
(410,424,o),
(406,418,cs),
(386,396,ls),
(378,388,o),
(366,384,o),
(348,384,cs),
(334,384,o),
(312,388,o),
(283,397,cs),
(254,407,o),
(229,411,o),
(208,411,cs),
(166,411,o),
(134,397,o),
(109,371,cs),
(85,344,o),
(73,320,o),
(73,302,cs),
(73,280,o),
(85,269,o),
(107,269,cs),
(124,269,o),
(132,277,o),
(132,296,cs),
(132,304,o),
(129,312,o),
(124,320,cs),
(119,327,o),
(117,333,o),
(117,337,cs),
(117,361,o),
(134,372,o),
(167,372,cs),
(202,372,o),
(242,363,o),
(289,351,cs),
(305,347,o),
(312,342,o),
(312,336,cs),
(312,334,o),
(311,332,o),
(308,329,cs),
(26,5,ls),
(22,1,o),
(46,-20,o),
(52,-14,cs),
(83,18,o),
(97,32,o),
(141,32,cs),
(235,32,o),
(323,-28,o),
(323,-94,cs),
(323,-111,o),
(317,-128,o),
(305,-146,cs),
(296,-162,o),
(334,-189,o),
(344,-178,cs)
);
}
);
width = 396;
},
{
guides = (
{
pos = (621,401);
showMeasurement = 1;
}
);
layerId = "E06D8587-1A71-4EC2-BD94-397D882F5FC1";
shapes = (
{
closed = 1;
nodes = (
(310,-149,o),
(319,-121,o),
(319,-93,cs),
(319,-5,o),
(231,68,o),
(110,69,c),
(361,394,ls),
(366,400,o),
(344,424,o),
(337,416,cs),
(320,396,ls),
(313,387,o),
(303,384,o),
(290,384,cs),
(278,384,o),
(260,388,o),
(236,397,cs),
(211,407,o),
(191,411,o),
(174,411,cs),
(140,411,o),
(113,398,o),
(91,372,cs),
(68,346,o),
(57,322,o),
(57,297,cs),
(57,269,o),
(69,254,o),
(92,254,cs),
(110,254,o),
(120,266,o),
(120,288,cs),
(120,298,o),
(117,307,o),
(111,315,cs),
(105,325,o),
(102,331,o),
(102,335,cs),
(102,351,o),
(113,359,o),
(134,359,cs),
(164,359,o),
(196,353,o),
(230,340,cs),
(239,336,o),
(243,332,o),
(243,327,cs),
(243,324,o),
(242,321,o),
(239,317,cs),
(12,18,ls),
(6,10,o),
(41,-21,o),
(49,-8,cs),
(65,18,o),
(84,32,o),
(101,32,cs),
(201,32,o),
(262,-28,o),
(262,-92,cs),
(262,-106,o),
(259,-122,o),
(252,-138,cs),
(245,-151,o),
(284,-188,o),
(291,-178,cs)
);
}
);
width = 339;
},
{
layerId = "8F7CDE40-C368-4484-AA71-76B7ABD5539F";
shapes = (
{
closed = 1;
nodes = (
(439,-152,o),
(452,-125,o),
(452,-97,cs),
(452,-8,o),
(321,68,o),
(150,68,c),
(491,404,ls),
(496,409,o),
(470,426,o),
(465,420,cs),
(443,396,ls),
(435,388,o),
(420,384,o),
(399,384,cs),
(382,384,o),
(356,389,o),
(321,398,cs),
(288,407,o),
(257,411,o),
(234,411,cs),
(187,411,o),
(148,398,o),
(119,371,cs),
(93,346,o),
(78,321,o),
(78,302,cs),
(78,278,o),
(93,265,o),
(121,265,cs),
(142,265,o),
(152,274,o),
(152,292,cs),
(152,302,o),
(149,311,o),
(141,319,cs),
(134,328,o),
(132,332,o),
(132,338,cs),
(132,359,o),
(149,369,o),
(186,369,cs),
(227,369,o),
(273,361,o),
(327,349,cs),
(343,345,o),
(352,340,o),
(352,334,cs),
(352,332,o),
(351,329,o),
(349,326,cs),
(36,13,ls),
(29,6,o),
(60,-21,o),
(65,-16,cs),
(101,17,o),
(130,32,o),
(153,32,cs),
(292,32,o),
(384,-29,o),
(384,-96,cs),
(384,-113,o),
(378,-129,o),
(367,-145,cs),
(356,-159,o),
(404,-189,o),
(415,-178,cs)
);
}
);
width = 467;
},
{
layerId = "997BDFA1-EC67-4686-8CFE-E56BDBE179FE";
shapes = (
{
closed = 1;
nodes = (
(343,-149,o),
(354,-121,o),
(354,-93,cs),
(354,-6,o),
(247,68,o),
(101,69,c),
(403,399,ls),
(409,405,o),
(385,425,o),
(378,418,cs),
(358,396,ls),
(351,388,o),
(339,384,o),
(322,384,cs),
(307,384,o),
(285,388,o),
(256,397,cs),
(226,407,o),
(202,411,o),
(182,411,cs),
(141,411,o),
(108,398,o),
(82,372,cs),
(56,345,o),
(43,321,o),
(43,299,cs),
(43,273,o),
(56,260,o),
(81,260,cs),
(101,260,o),
(111,270,o),
(111,291,cs),
(111,300,o),
(108,309,o),
(102,317,cs),
(96,326,o),
(93,332,o),
(93,336,cs),
(93,354,o),
(107,364,o),
(137,364,cs),
(172,364,o),
(211,357,o),
(254,344,cs),
(268,340,o),
(274,336,o),
(274,331,cs),
(274,328,o),
(272,325,o),
(269,322,cs),
(-6,15,ls),
(-12,8,o),
(18,-22,o),
(26,-13,cs),
(54,18,o),
(78,32,o),
(98,32,cs),
(217,32,o),
(291,-28,o),
(291,-93,cs),
(291,-109,o),
(287,-125,o),
(277,-141,cs),
(268,-155,o),
(311,-188,o),
(320,-178,cs)
);
}
);
width = 368;
}
);
metricLeft = z;
unicode = 549;
}
{
glyphname = dbdigraph;
layers = (
{
guides = (
{
pos = (1017,225);
}
);
layerId = master01;
shapes = (
{
closed = 1;
nodes = (
(169,-13,o),
(249,82,o),
(302,158,c),
(308,154,l),
(298,110,ls),
(294,93,o),
(292,78,o),
(292,65,cs),
(292,13,o),
(315,-13,o),
(363,-13,cs),
(527,-13,o),
(660,158,o),
(660,322,cs),
(660,385,o),
(633,416,o),
(579,416,cs),
(530,416,o),
(474,374,o),
(410,289,c),
(399,292,l),
(496,706,ls),
(497,711,o),
(497,715,o),
(497,719,cs),
(497,723,o),
(496,725,o),
(492,725,cs),
(489,725,o),
(483,724,o),
(475,721,cs),
(468,719,o),
(447,711,o),
(426,706,cs),
(409,702,o),
(392,698,o),
(378,698,cs),
(369,698,o),
(369,673,o),
(378,673,cs),
(404,673,o),
(416,660,o),
(416,634,cs),
(416,624,o),
(414,608,o),
(409,586,cs),
(362,386,l),
(346,406,o),
(325,416,o),
(299,416,cs),
(165,416,o),
(35,206,o),
(35,71,cs),
(35,29,o),
(54,-13,o),
(95,-13,cs)
);
},
{
closed = 1;
nodes = (
(117,40,o),
(107,56,o),
(107,88,cs),
(107,184,o),
(191,384,o),
(286,384,cs),
(315,384,o),
(336,368,o),
(351,336,c),
(329,244,l),
(293,178,o),
(189,40,o),
(136,40,cs)
);
},
{
closed = 1;
nodes = (
(372,22,o),
(355,41,o),
(355,80,cs),
(355,101,o),
(361,128,o),
(372,162,cs),
(391,224,o),
(482,368,o),
(549,368,cs),
(576,368,o),
(590,343,o),
(590,294,cs),
(590,195,o),
(503,22,o),
(404,22,cs)
);
}
);
width = 664;
},
{
layerId = "2438E31C-45B5-47A7-9B3D-1A0FEFB47671";
shapes = (
{
closed = 1;
nodes = (
(165,-13,o),
(232,51,o),
(280,108,c),
(287,104,l),
(287,100,ls),
(286,96,o),
(286,90,o),
(286,85,cs),
(286,20,o),
(316,-13,o),
(374,-13,cs),
(549,-13,o),
(689,130,o),
(689,297,cs),
(689,376,o),
(656,416,o),
(590,416,cs),
(546,416,o),
(496,382,o),
(442,315,c),
(433,319,l),
(526,702,ls),
(527,707,o),
(528,711,o),
(528,716,cs),
(528,721,o),
(524,725,o),
(516,725,cs),
(512,725,o),
(508,725,o),
(496,721,cs),
(485,717,o),
(460,710,o),
(440,707,cs),
(417,702,o),
(396,699,o),
(376,699,cs),
(367,699,o),
(367,664,o),
(376,664,cs),
(397,664,o),
(408,651,o),
(408,626,cs),
(408,617,o),
(406,606,o),
(401,587,cs),
(357,401,l),
(340,411,o),
(322,416,o),
(304,416,cs),
(168,416,o),
(26,217,o),
(26,84,cs),
(26,36,o),
(49,-13,o),
(104,-13,cs)
);
},
{
closed = 1;
nodes = (
(142,54,o),
(134,69,o),
(134,100,cs),
(134,194,o),
(211,376,o),
(295,376,cs),
(314,376,o),
(330,366,o),
(344,348,c),
(311,212,l),
(296,166,o),
(196,54,o),
(157,54,cs)
);
},
{
closed = 1;
nodes = (
(396,31,o),
(385,51,o),
(385,93,cs),
(385,108,o),
(390,134,o),
(400,169,cs),
(416,228,o),
(494,357,o),
(551,357,cs),
(572,357,o),
(582,338,o),
(582,302,cs),
(582,193,o),
(517,31,o),
(418,31,cs)
);
}
);
width = 693;
},
{
layerId = "7904EAEE-2B64-409E-B923-0048172372BE";
shapes = (
{
closed = 1;
nodes = (
(172,-13,o),
(250,83,o),
(309,165,c),
(315,161,l),
(302,104,ls),
(298,86,o),
(296,70,o),
(296,58,cs),
(296,10,o),
(317,-13,o),
(361,-13,cs),
(522,-13,o),
(652,167,o),
(652,330,cs),
(652,388,o),
(627,416,o),
(577,416,cs),
(527,416,o),
(469,371,o),
(401,280,c),
(390,283,l),
(488,708,ls),
(489,713,o),
(490,716,o),
(490,720,cs),
(490,723,o),
(488,725,o),
(486,725,cs),
(484,725,o),
(477,724,o),
(470,721,cs),
(465,719,o),
(445,712,o),
(424,706,cs),
(408,702,o),
(393,698,o),
(381,698,cs),
(372,698,o),
(372,676,o),
(381,676,cs),
(408,676,o),
(422,663,o),
(422,637,cs),
(422,626,o),
(419,608,o),
(414,585,cs),
(366,380,l),
(350,404,o),
(328,416,o),
(299,416,cs),
(166,416,o),
(40,202,o),
(40,66,cs),
(40,27,o),
(57,-13,o),
(94,-13,cs)
);
},
{
closed = 1;
nodes = (
(110,35,o),
(100,52,o),
(100,84,cs),
(100,181,o),
(186,386,o),
(285,386,cs),
(317,386,o),
(340,368,o),
(354,332,c),
(334,243,l),
(305,160,o),
(186,35,o),
(130,35,cs)
);
},
{
closed = 1;
nodes = (
(366,19,o),
(348,38,o),
(348,75,cs),
(348,99,o),
(353,126,o),
(364,160,cs),
(384,222,o),
(481,372,o),
(550,372,cs),
(580,372,o),
(595,345,o),
(595,292,cs),
(595,195,o),
(500,19,o),
(401,19,cs)
);
}
);
width = 657;
},
{
layerId = "E06D8587-1A71-4EC2-BD94-397D882F5FC1";
shapes = (
{
closed = 1;
nodes = (
(139,-13,o),
(200,74,o),
(240,143,c),
(246,138,l),
(242,116,ls),
(239,98,o),
(238,83,o),
(238,71,cs),
(238,15,o),
(259,-13,o),
(300,-13,cs),
(434,-13,o),
(543,149,o),
(543,314,cs),
(543,382,o),
(519,416,o),
(472,416,cs),
(435,416,o),
(392,376,o),
(343,297,c),
(336,300,l),
(412,705,ls),
(413,710,o),
(413,713,o),
(413,718,cs),
(413,722,o),
(411,725,o),
(407,725,cs),
(405,725,o),
(400,725,o),
(393,721,cs),
(385,718,o),
(368,711,o),
(351,706,cs),
(336,702,o),
(320,699,o),
(308,699,cs),
(299,699,o),
(299,673,o),
(308,673,cs),
(327,673,o),
(337,660,o),
(337,635,cs),
(337,625,o),
(335,610,o),
(331,589,cs),
(294,390,l),
(280,407,o),
(264,416,o),
(246,416,cs),
(138,416,o),
(30,208,o),
(30,75,cs),
(30,31,o),
(47,-13,o),
(84,-13,cs)
);
},
{
closed = 1;
nodes = (
(106,40,o),
(99,58,o),
(99,92,cs),
(99,188,o),
(164,384,o),
(237,384,cs),
(257,384,o),
(273,370,o),
(284,340,c),
(264,237,l),
(244,177,o),
(159,40,o),
(120,40,cs)
);
},
{
closed = 1;
nodes = (
(311,22,o),
(300,42,o),
(300,84,cs),
(300,104,o),
(304,130,o),
(312,166,cs),
(326,226,o),
(396,368,o),
(445,368,cs),
(465,368,o),
(475,344,o),
(475,296,cs),
(475,193,o),
(412,22,o),
(334,22,cs)
);
}
);
width = 548;
},
{
layerId = "8F7CDE40-C368-4484-AA71-76B7ABD5539F";
shapes = (
{
closed = 1;
nodes = (
(208,-13,o),
(305,90,o),
(366,173,c),
(376,167,l),
(361,104,ls),
(358,89,o),
(355,76,o),
(355,63,cs),
(355,12,o),
(382,-13,o),
(437,-13,cs),
(628,-13,o),
(776,160,o),
(776,321,cs),
(776,386,o),
(746,416,o),
(681,416,cs),
(623,416,o),
(555,373,o),
(477,281,c),
(463,284,l),
(565,708,ls),
(567,713,o),
(567,716,o),
(567,719,cs),
(567,723,o),
(566,725,o),
(562,725,cs),
(560,725,o),
(552,724,o),
(543,721,cs),
(537,719,o),
(506,710,o),
(488,706,cs),
(468,701,o),
(450,698,o),
(435,698,cs),
(426,698,o),
(427,673,o),
(436,673,cs),
(468,673,o),
(485,659,o),
(485,632,cs),
(485,623,o),
(482,604,o),
(476,583,cs),
(427,380,l),
(407,404,o),
(379,416,o),
(346,416,cs),
(190,416,o),
(46,209,o),
(46,73,cs),
(46,22,o),
(73,-13,o),
(115,-13,cs)
);
},
{
closed = 1;
nodes = (
(133,40,o),
(121,56,o),
(121,89,cs),
(121,188,o),
(215,384,o),
(331,384,cs),
(368,384,o),
(396,366,o),
(414,333,c),
(396,255,l),
(349,184,o),
(228,40,o),
(158,40,cs)
);
},
{
closed = 1;
nodes = (
(441,22,o),
(419,41,o),
(419,79,cs),
(419,101,o),
(425,128,o),
(436,159,cs),
(458,221,o),
(567,368,o),
(650,368,cs),
(686,368,o),
(705,339,o),
(705,287,cs),
(705,191,o),
(601,22,o),
(483,22,cs)
);
}
);
width = 783;
},
{
layerId = "997BDFA1-EC67-4686-8CFE-E56BDBE179FE";
shapes = (
{
closed = 1;
nodes = (
(145,-13,o),
(225,82,o),
(278,158,c),
(284,154,l),
(274,110,ls),
(270,93,o),
(268,78,o),
(268,65,cs),
(268,13,o),
(291,-13,o),
(339,-13,cs),
(503,-13,o),
(635,158,o),
(635,322,cs),
(635,385,o),
(609,416,o),
(554,416,cs),
(506,416,o),
(450,374,o),
(385,289,c),
(375,292,l),
(471,706,ls),
(473,711,o),
(473,715,o),
(473,719,cs),
(473,723,o),
(471,725,o),
(467,725,cs),
(465,725,o),
(459,724,o),
(451,721,cs),
(444,719,o),
(423,711,o),
(402,706,cs),
(384,702,o),
(368,698,o),
(354,698,cs),
(345,698,o),
(345,673,o),
(354,673,cs),
(380,673,o),
(392,660,o),
(392,634,cs),
(392,624,o),
(389,608,o),
(384,586,cs),
(338,386,l),
(321,406,o),
(300,416,o),
(275,416,cs),
(141,416,o),
(10,206,o),
(10,71,cs),
(10,29,o),
(29,-13,o),
(71,-13,cs)
);
},
{
closed = 1;
nodes = (
(92,40,o),
(83,56,o),
(83,88,cs),
(83,184,o),
(167,384,o),
(262,384,cs),
(291,384,o),
(312,368,o),
(326,336,c),
(305,244,l),
(269,178,o),
(165,40,o),
(112,40,cs)
);
},
{
closed = 1;
nodes = (
(347,22,o),
(331,41,o),
(331,80,cs),
(331,101,o),
(337,128,o),
(347,162,cs),
(366,224,o),
(458,368,o),
(525,368,cs),
(552,368,o),
(566,343,o),
(566,294,cs),
(566,195,o),
(479,22,o),
(380,22,cs)
);
}
);
width = 664;
}
);
metricLeft = d;
metricRight = b;
unicode = 568;
}
{
glyphname = Estroke;
kernRight = AE;
layers = (
{
anchors = (
{
name = bottom;
pos = (232,-90);
},
{
name = top;
pos = (476,736);
}
);
layerId = master01;
shapes = (
{
closed = 1;
nodes = (
(580,733,ls),
(586,746,o),
(546,761,o),
(541,751,cs),
(152,-81,ls),
(148,-90,o),
(186,-108,o),
(189,-100,cs)
);
},
{
closed = 1;
nodes = (
(54,-1,o),
(95,0,o),
(136,0,cs),
(262,0,o),
(387,-3,o),
(512,-3,cs),
(519,-3,o),
(523,1,o),
(526,9,cs),
(572,168,l),
(572,177,o),
(534,177,o),
(531,168,cs),
(502,77,o),
(454,36,o),
(371,34,cs),
(254,30,l),
(217,30,o),
(198,46,o),
(198,78,cs),
(198,93,o),
(203,116,o),
(211,146,cs),
(254,296,l),
(376,296,ls),
(412,296,o),
(422,286,o),
(414,257,cs),
(402,213,ls),
(399,203,o),
(432,203,o),
(435,213,c),
(443,248,o),
(453,283,o),
(462,318,cs),
(472,353,o),
(483,388,o),
(495,422,c),
(495,432,o),
(461,432,o),
(459,422,cs),
(445,369,ls),
(436,334,o),
(421,330,o),
(385,330,cs),
(264,330,l),
(348,621,ls),
(350,628,o),
(356,632,o),
(365,632,cs),
(394,632,o),
(444,631,o),
(514,627,cs),
(579,624,o),
(607,596,o),
(607,534,cs),
(607,521,o),
(604,508,o),
(602,496,cs),
(600,487,o),
(638,486,o),
(641,496,cs),
(684,647,ls),
(685,650,o),
(685,653,o),
(685,655,cs),
(685,662,o),
(675,666,o),
(655,666,cs),
(545,666,o),
(436,664,o),
(327,664,cs),
(285,664,o),
(242,664,o),
(200,666,c),
(191,666,o),
(182,628,o),
(190,628,cs),
(276,628,o),
(275,609,o),
(265,575,cs),
(126,91,ls),
(115,53,o),
(104,34,o),
(22,34,cs),
(13,34,o),
(3,-3,o),
(12,-3,c)
);
}
);
width = 610;
},
{
anchors = (
{
name = bottom;
pos = (254,-90);
},
{
name = top;
pos = (498,736);
}
);
layerId = "2438E31C-45B5-47A7-9B3D-1A0FEFB47671";
shapes = (
{
closed = 1;
nodes = (
(595,723,ls),
(603,740,o),
(550,758,o),
(543,743,cs),
(165,-78,ls),
(158,-93,o),
(207,-117,o),
(215,-99,cs)
);
},
{
closed = 1;
nodes = (
(47,-1,o),
(91,0,o),
(135,0,cs),
(260,0,o),
(384,-4,o),
(509,-4,cs),
(525,-4,o),
(535,0,o),
(537,10,cs),
(586,187,l),
(586,199,o),
(543,197,o),
(540,187,cs),
(505,89,o),
(465,46,o),
(409,44,cs),
(267,38,l),
(235,38,o),
(219,49,o),
(219,76,cs),
(219,87,o),
(221,98,o),
(224,109,cs),
(279,292,l),
(418,292,ls),
(447,292,o),
(457,285,o),
(449,258,cs),
(434,204,ls),
(431,195,o),
(472,194,o),
(475,204,c),
(485,244,o),
(495,283,o),
(506,319,cs),
(518,359,o),
(529,396,o),
(541,432,c),
(541,445,o),
(500,443,o),
(498,432,cs),
(479,367,ls),
(473,345,o),
(460,338,o),
(432,338,cs),
(292,338,l),
(373,604,ls),
(375,615,o),
(383,620,o),
(395,620,cs),
(436,620,o),
(483,620,o),
(531,616,cs),
(587,612,o),
(612,588,o),
(612,537,cs),
(612,523,o),
(610,509,o),
(607,496,cs),
(605,484,o),
(651,485,o),
(655,497,cs),
(696,637,ls),
(697,642,o),
(698,646,o),
(698,650,cs),
(698,661,o),
(687,666,o),
(666,666,cs),
(555,666,o),
(444,664,o),
(333,664,cs),
(286,664,o),
(238,664,o),
(191,666,c),
(182,666,o),
(171,620,o),
(180,620,cs),
(259,620,o),
(258,600,o),
(248,567,cs),
(110,106,ls),
(97,62,o),
(85,42,o),
(13,42,cs),
(4,42,o),
(-5,-4,o),
(3,-4,c)
);
}
);
width = 622;
},
{
anchors = (
{
name = bottom;
pos = (235,-90);
},
{
name = top;
pos = (478,736);
}
);
layerId = "7904EAEE-2B64-409E-B923-0048172372BE";
shapes = (
{
closed = 1;
nodes = (
(573,742,ls),
(579,753,o),
(550,761,o),
(546,753,cs),
(153,-82,ls),
(150,-89,o),
(177,-102,o),
(180,-95,cs)
);
},
{
closed = 1;
nodes = (
(57,-1,o),
(97,0,o),
(137,0,cs),
(260,0,o),
(383,-3,o),
(505,-3,cs),
(519,-3,o),
(522,1,o),
(524,9,cs),
(569,162,l),
(569,170,o),
(533,170,o),
(530,162,cs),
(500,72,o),
(450,33,o),
(360,30,cs),
(251,27,l),
(213,27,o),
(193,45,o),
(193,79,cs),
(193,95,o),
(199,122,o),
(209,159,cs),
(249,298,l),
(373,298,ls),
(412,298,o),
(422,286,o),
(414,257,cs),
(403,216,ls),
(400,206,o),
(430,206,o),
(433,216,c),
(441,250,o),
(450,283,o),
(460,318,cs),
(469,351,o),
(479,385,o),
(491,418,c),
(491,428,o),
(460,428,o),
(458,418,cs),
(445,370,ls),
(435,330,o),
(420,328,o),
(382,328,cs),
(258,328,l),
(343,626,ls),
(345,633,o),
(350,636,o),
(358,636,cs),
(383,636,o),
(434,635,o),
(510,631,cs),
(578,628,o),
(607,599,o),
(607,533,cs),
(607,521,o),
(604,508,o),
(602,496,cs),
(600,488,o),
(635,487,o),
(638,495,cs),
(682,650,ls),
(683,653,o),
(683,656,o),
(683,656,cs),
(683,663,o),
(673,666,o),
(653,666,cs),
(543,666,o),
(433,664,o),
(323,664,cs),
(284,664,o),
(244,664,o),
(205,666,c),
(196,666,o),
(187,631,o),
(196,631,cs),
(284,631,o),
(282,612,o),
(272,577,cs),
(133,86,ls),
(123,50,o),
(112,31,o),
(27,31,cs),
(18,31,o),
(8,-3,o),
(17,-3,c)
);
}
);
width = 608;
},
{
anchors = (
{
name = bottom;
pos = (189,-90);
},
{
name = top;
pos = (418,736);
}
);
layerId = "E06D8587-1A71-4EC2-BD94-397D882F5FC1";
shapes = (
{
closed = 1;
nodes = (
(500,741,ls),
(506,754,o),
(470,766,o),
(466,757,cs),
(106,-88,ls),
(102,-98,o),
(136,-114,o),
(140,-105,cs)
);
},
{
closed = 1;
nodes = (
(49,-1,o),
(86,0,o),
(122,0,cs),
(228,0,o),
(333,-3,o),
(439,-3,cs),
(447,-3,o),
(453,1,o),
(455,9,cs),
(495,173,l),
(495,183,o),
(461,183,o),
(458,173,cs),
(433,80,o),
(394,39,o),
(330,36,cs),
(224,32,l),
(194,32,o),
(179,47,o),
(179,78,cs),
(179,92,o),
(181,111,o),
(187,137,cs),
(227,295,l),
(328,295,ls),
(359,295,o),
(364,283,o),
(358,258,cs),
(347,211,ls),
(345,200,o),
(375,201,o),
(377,210,c),
(385,251,o),
(395,292,o),
(401,319,cs),
(408,347,o),
(419,390,o),
(430,424,c),
(430,436,o),
(399,435,o),
(397,425,cs),
(384,369,ls),
(377,337,o),
(365,332,o),
(336,332,cs),
(236,332,l),
(307,617,ls),
(309,625,o),
(314,629,o),
(323,629,cs),
(351,629,o),
(392,628,o),
(445,625,cs),
(498,621,o),
(521,594,o),
(521,535,cs),
(521,520,o),
(520,511,o),
(517,496,cs),
(515,486,o),
(550,486,o),
(553,496,cs),
(589,645,ls),
(590,648,o),
(590,651,o),
(590,654,cs),
(590,662,o),
(581,666,o),
(564,666,cs),
(470,666,o),
(376,664,o),
(282,664,cs),
(246,664,o),
(209,664,o),
(172,666,c),
(164,666,o),
(155,628,o),
(164,628,cs),
(234,628,o),
(234,609,o),
(226,575,cs),
(107,93,ls),
(98,53,o),
(86,34,o),
(21,34,cs),
(12,34,o),
(4,-3,o),
(13,-3,c)
);
}
);
width = 529;
},
{
anchors = (
{
name = bottom;
pos = (289,-90);
},
{
name = top;
pos = (518,736);
}
);
layerId = "8F7CDE40-C368-4484-AA71-76B7ABD5539F";
shapes = (
{
closed = 1;
nodes = (
(644,725,ls),
(650,738,o),
(606,756,o),
(601,745,cs),
(211,-73,ls),
(207,-83,o),
(249,-103,o),
(253,-95,cs)
);
},
{
closed = 1;
nodes = (
(68,-1,o),
(114,0,o),
(161,0,cs),
(306,0,o),
(450,-3,o),
(595,-3,cs),
(600,-3,o),
(605,1,o),
(607,9,cs),
(653,163,l),
(653,172,o),
(611,172,o),
(608,163,cs),
(580,74,o),
(523,34,o),
(421,31,cs),
(294,28,l),
(248,28,o),
(225,46,o),
(225,81,cs),
(225,97,o),
(231,123,o),
(240,156,cs),
(281,297,l),
(424,297,ls),
(464,297,o),
(481,288,o),
(471,257,cs),
(459,216,ls),
(456,206,o),
(491,205,o),
(495,215,c),
(502,241,o),
(509,267,o),
(523,317,cs),
(533,355,o),
(543,385,o),
(555,419,c),
(555,429,o),
(519,429,o),
(517,419,cs),
(503,370,ls),
(492,328,o),
(471,328,o),
(433,328,cs),
(291,328,l),
(377,625,ls),
(379,633,o),
(388,635,o),
(396,635,cs),
(421,635,o),
(488,633,o),
(570,630,cs),
(650,627,o),
(684,598,o),
(684,531,cs),
(684,518,o),
(681,505,o),
(679,496,cs),
(677,487,o),
(719,487,o),
(721,495,cs),
(766,649,ls),
(767,653,o),
(768,656,o),
(768,656,cs),
(767,663,o),
(755,666,o),
(732,666,cs),
(607,666,o),
(482,664,o),
(358,664,cs),
(311,664,o),
(262,664,o),
(215,666,c),
(206,666,o),
(196,628,o),
(205,628,cs),
(311,628,o),
(304,606,o),
(294,574,cs),
(151,89,ls),
(142,56,o),
(134,34,o),
(32,34,cs),
(23,34,o),
(13,-3,o),
(22,-3,c)
);
}
);
width = 694;
},
{
anchors = (
{
name = bottom;
pos = (208,-90);
},
{
name = top;
pos = (451,736);
}
);
layerId = "997BDFA1-EC67-4686-8CFE-E56BDBE179FE";
shapes = (
{
closed = 1;
nodes = (
(555,733,ls),
(561,746,o),
(521,761,o),
(517,751,cs),
(128,-81,ls),
(123,-90,o),
(161,-108,o),
(165,-100,cs)
);
},
{
closed = 1;
nodes = (
(29,-1,o),
(70,0,o),
(112,0,cs),
(237,0,o),
(362,-3,o),
(487,-3,cs),
(494,-3,o),
(499,1,o),
(501,9,cs),
(547,168,l),
(547,177,o),
(509,177,o),
(507,168,cs),
(478,77,o),
(429,37,o),
(346,34,cs),
(229,30,l),
(192,30,o),
(174,46,o),
(174,78,cs),
(174,93,o),
(178,116,o),
(187,146,cs),
(230,296,l),
(351,296,ls),
(387,296,o),
(397,286,o),
(389,257,cs),
(377,213,ls),
(374,203,o),
(407,203,o),
(410,213,c),
(419,248,o),
(428,283,o),
(438,318,cs),
(447,353,o),
(458,388,o),
(470,422,c),
(470,432,o),
(437,432,o),
(434,422,cs),
(420,369,ls),
(411,334,o),
(396,330,o),
(361,330,cs),
(239,330,l),
(323,621,ls),
(325,628,o),
(331,632,o),
(341,632,cs),
(370,632,o),
(420,631,o),
(489,627,cs),
(554,624,o),
(582,596,o),
(582,534,cs),
(582,521,o),
(580,508,o),
(577,496,cs),
(575,487,o),
(613,486,o),
(616,496,cs),
(659,647,ls),
(660,650,o),
(660,653,o),
(660,655,cs),
(660,662,o),
(650,666,o),
(630,666,cs),
(521,666,o),
(411,664,o),
(302,664,cs),
(260,664,o),
(217,664,o),
(175,666,c),
(167,666,o),
(157,628,o),
(166,628,cs),
(252,628,o),
(250,609,o),
(240,575,cs),
(101,91,ls),
(91,53,o),
(79,34,o),
(-3,34,cs),
(-12,34,o),
(-21,-3,o),
(-13,-3,c)
);
}
);
width = 610;
}
);
metricLeft = I;
metricRight = E;
unicode = 582;
}
{
glyphname = Gsmall;
layers = (
{
anchors = (
{
name = bottom;
pos = (223,0);
},
{
name = cedilla;
pos = (225,0);
},
{
name = top;
pos = (343,416);
}
);
layerId = master01;
shapes = (
{
closed = 1;
nodes = (
(234,-13,o),
(243,-13,o),
(265,-10,cs),
(286,-6,o),
(371,4,o),
(392,4,cs),
(396,4,o),
(399,8,o),
(399,16,cs),
(399,19,o),
(397,21,o),
(394,21,cs),
(388,21,o),
(387,25,o),
(390,36,cs),
(411,107,ls),
(418,133,o),
(427,137,o),
(460,137,cs),
(467,137,o),
(473,164,o),
(466,164,c),
(439,162,o),
(411,162,o),
(384,162,cs),
(356,162,o),
(329,162,o),
(301,164,c),
(295,164,o),
(288,137,o),
(294,137,cs),
(353,137,o),
(358,132,o),
(352,110,cs),
(337,56,ls),
(330,27,o),
(295,13,o),
(232,13,cs),
(159,13,o),
(116,68,o),
(116,145,cs),
(116,262,o),
(213,392,o),
(335,392,cs),
(394,392,o),
(443,374,o),
(443,317,cs),
(443,313,o),
(443,308,o),
(442,301,c),
(442,297,o),
(446,296,o),
(454,296,cs),
(461,296,o),
(467,297,o),
(468,300,cs),
(479,338,o),
(486,371,o),
(486,399,c),
(477,399,o),
(458,402,o),
(432,408,cs),
(403,414,o),
(372,416,o),
(343,416,cs),
(193,416,o),
(50,276,o),
(50,135,cs),
(50,44,o),
(122,-13,o),
(219,-13,cs)
);
}
);
width = 490;
},
{
anchors = (
{
name = bottom;
pos = (225,0);
},
{
name = cedilla;
pos = (199,0);
},
{
name = top;
pos = (332,416);
}
);
guides = (
{
pos = (794,195);
showMeasurement = 1;
}
);
layerId = "2438E31C-45B5-47A7-9B3D-1A0FEFB47671";
shapes = (
{
closed = 1;
nodes = (
(244,-13,o),
(258,-12,o),
(282,-9,cs),
(309,-5,o),
(358,3,o),
(404,3,cs),
(410,3,o),
(414,8,o),
(414,20,cs),
(414,22,o),
(413,25,o),
(409,25,cs),
(404,25,o),
(403,28,o),
(406,36,cs),
(429,109,ls),
(432,122,o),
(437,128,o),
(463,128,cs),
(469,128,o),
(474,165,o),
(468,165,c),
(439,163,o),
(411,163,o),
(382,163,cs),
(353,163,o),
(325,163,o),
(296,165,c),
(289,165,o),
(283,128,o),
(289,128,cs),
(331,128,o),
(337,126,o),
(333,113,cs),
(323,78,ls),
(311,39,o),
(279,20,o),
(226,20,cs),
(169,20,o),
(140,68,o),
(140,150,cs),
(140,255,o),
(238,385,o),
(343,385,cs),
(384,385,o),
(442,367,o),
(442,312,cs),
(442,307,o),
(442,302,o),
(441,294,c),
(441,289,o),
(448,286,o),
(460,286,cs),
(474,286,o),
(479,287,o),
(480,289,cs),
(491,316,o),
(497,354,o),
(497,400,c),
(474,400,o),
(448,404,o),
(418,409,cs),
(386,414,o),
(364,416,o),
(349,416,cs),
(189,416,o),
(38,281,o),
(38,133,cs),
(38,44,o),
(122,-13,o),
(226,-13,cs)
);
}
);
width = 492;
},
{
anchors = (
{
name = bottom;
pos = (208,0);
},
{
name = cedilla;
pos = (220,0);
},
{
name = top;
pos = (332,416);
}
);
guides = (
{
pos = (963,161);
showMeasurement = 1;
}
);
layerId = "7904EAEE-2B64-409E-B923-0048172372BE";
shapes = (
{
closed = 1;
nodes = (
(235,-13,o),
(250,-12,o),
(266,-10,cs),
(285,-7,o),
(373,4,o),
(389,4,cs),
(394,4,o),
(396,8,o),
(396,14,cs),
(396,17,o),
(394,19,o),
(391,19,cs),
(384,19,o),
(383,22,o),
(385,31,cs),
(407,106,ls),
(414,133,o),
(420,140,o),
(460,140,cs),
(467,140,o),
(474,164,o),
(468,164,c),
(440,162,o),
(414,162,o),
(386,162,cs),
(359,162,o),
(332,162,o),
(305,164,c),
(298,164,o),
(291,140,o),
(297,140,cs),
(356,140,o),
(368,134,o),
(360,106,cs),
(344,50,ls),
(336,23,o),
(301,10,o),
(236,10,cs),
(159,10,o),
(109,66,o),
(109,143,cs),
(109,264,o),
(206,394,o),
(334,394,cs),
(397,394,o),
(445,376,o),
(445,320,cs),
(445,315,o),
(445,309,o),
(444,303,c),
(444,300,o),
(447,298,o),
(454,298,cs),
(461,298,o),
(465,300,o),
(466,303,cs),
(477,344,o),
(484,376,o),
(484,398,c),
(479,398,o),
(464,401,o),
(436,407,cs),
(410,413,o),
(377,416,o),
(342,416,cs),
(197,416,o),
(56,274,o),
(56,136,cs),
(56,43,o),
(125,-13,o),
(218,-13,cs)
);
}
);
width = 490;
},
{
anchors = (
{
name = bottom;
pos = (186,0);
},
{
name = cedilla;
pos = (176,0);
},
{
name = top;
pos = (278,416);
}
);
layerId = "E06D8587-1A71-4EC2-BD94-397D882F5FC1";
shapes = (
{
closed = 1;
nodes = (
(194,-13,o),
(211,-12,o),
(222,-10,cs),
(254,-5,o),
(299,4,o),
(325,4,cs),
(329,4,o),
(332,8,o),
(332,17,cs),
(332,20,o),
(331,22,o),
(328,22,cs),
(324,22,o),
(324,26,o),
(325,33,cs),
(342,107,ls),
(346,127,o),
(351,134,o),
(376,134,cs),
(382,134,o),
(386,164,o),
(379,164,c),
(357,162,o),
(335,162,o),
(313,162,cs),
(291,162,o),
(269,162,o),
(247,164,c),
(241,164,o),
(235,134,o),
(241,134,cs),
(281,134,o),
(288,131,o),
(284,112,cs),
(273,63,ls),
(265,29,o),
(237,13,o),
(192,13,cs),
(138,13,o),
(110,68,o),
(110,146,cs),
(110,260,o),
(188,392,o),
(279,392,cs),
(319,392,o),
(362,373,o),
(362,317,cs),
(362,312,o),
(362,307,o),
(361,299,c),
(361,294,o),
(366,292,o),
(374,292,cs),
(383,292,o),
(386,293,o),
(387,297,cs),
(396,330,o),
(401,365,o),
(401,399,c),
(389,399,o),
(374,402,o),
(349,408,cs),
(324,414,o),
(303,416,o),
(285,416,cs),
(162,416,o),
(44,278,o),
(44,134,cs),
(44,44,o),
(107,-13,o),
(186,-13,cs)
);
}
);
width = 401;
},
{
anchors = (
{
name = bottom;
pos = (272,0);
},
{
name = cedilla;
pos = (286,0);
},
{
name = top;
pos = (404,416);
}
);
layerId = "8F7CDE40-C368-4484-AA71-76B7ABD5539F";
shapes = (
{
closed = 1;
nodes = (
(286,-13,o),
(288,-13,o),
(319,-9,cs),
(331,-8,o),
(456,4,o),
(469,4,cs),
(475,4,o),
(478,8,o),
(478,14,cs),
(478,18,o),
(476,19,o),
(471,19,cs),
(463,19,o),
(461,24,o),
(465,39,cs),
(487,106,ls),
(497,139,o),
(508,140,o),
(552,140,cs),
(558,140,o),
(566,164,o),
(559,164,c),
(526,162,o),
(493,162,o),
(460,162,cs),
(427,162,o),
(394,163,o),
(361,164,c),
(355,164,o),
(348,140,o),
(354,140,cs),
(437,140,o),
(434,130,o),
(428,107,cs),
(412,49,ls),
(405,25,o),
(364,13,o),
(284,13,cs),
(191,13,o),
(129,68,o),
(129,150,cs),
(129,268,o),
(238,392,o),
(389,392,cs),
(467,392,o),
(522,374,o),
(524,318,cs),
(525,310,o),
(524,306,o),
(524,303,c),
(524,300,o),
(527,299,o),
(535,299,cs),
(543,299,o),
(549,300,o),
(550,304,cs),
(562,347,o),
(569,378,o),
(568,399,c),
(562,399,o),
(539,403,o),
(512,408,cs),
(479,414,o),
(439,416,o),
(398,416,cs),
(224,416,o),
(63,279,o),
(63,142,cs),
(63,44,o),
(150,-13,o),
(263,-13,cs)
);
}
);
width = 576;
},
{
anchors = (
{
name = bottom;
pos = (198,0);
},
{
name = cedilla;
pos = (200,0);
},
{
name = top;
pos = (318,416);
}
);
layerId = "997BDFA1-EC67-4686-8CFE-E56BDBE179FE";
shapes = (
{
closed = 1;
nodes = (
(210,-13,o),
(218,-13,o),
(240,-10,cs),
(261,-6,o),
(347,4,o),
(367,4,cs),
(372,4,o),
(375,8,o),
(375,16,cs),
(375,19,o),
(373,21,o),
(369,21,cs),
(363,21,o),
(362,25,o),
(365,36,cs),
(386,107,ls),
(394,133,o),
(402,137,o),
(436,137,cs),
(442,137,o),
(448,164,o),
(442,164,c),
(414,162,o),
(386,162,o),
(359,162,cs),
(332,162,o),
(304,162,o),
(277,164,c),
(270,164,o),
(263,137,o),
(270,137,cs),
(328,137,o),
(333,132,o),
(327,110,cs),
(313,56,ls),
(305,27,o),
(270,13,o),
(208,13,cs),
(134,13,o),
(91,68,o),
(91,145,cs),
(91,262,o),
(188,392,o),
(310,392,cs),
(369,392,o),
(418,374,o),
(418,317,cs),
(418,313,o),
(418,308,o),
(417,301,c),
(417,297,o),
(422,296,o),
(429,296,cs),
(437,296,o),
(443,297,o),
(444,300,cs),
(455,338,o),
(461,371,o),
(461,399,c),
(452,399,o),
(433,402,o),
(407,408,cs),
(378,414,o),
(348,416,o),
(318,416,cs),
(169,416,o),
(26,276,o),
(26,135,cs),
(26,44,o),
(98,-13,o),
(194,-13,cs)
);
}
);
width = 465;
}
);
metricLeft = c;
unicode = 610;
}
{
glyphname = lbelt;
layers = (
{
layerId = master01;
shapes = (
{
closed = 1;
nodes = (
(126,-13,o),
(189,45,o),
(215,74,cs),
(219,79,o),
(204,100,o),
(196,93,cs),
(165,66,o),
(144,50,o),
(133,50,cs),
(125,50,o),
(121,56,o),
(121,69,cs),
(121,77,o),
(123,86,o),
(130,117,cs),
(164,264,l),
(236,270,o),
(271,288,o),
(298,308,cs),
(304,312,o),
(298,331,o),
(290,327,cs),
(255,311,o),
(227,299,o),
(171,295,c),
(265,706,ls),
(267,711,o),
(267,715,o),
(267,719,cs),
(267,723,o),
(265,725,o),
(261,725,cs),
(259,725,o),
(253,724,o),
(245,721,cs),
(238,719,o),
(216,711,o),
(196,706,cs),
(178,702,o),
(162,698,o),
(148,698,cs),
(139,698,o),
(139,673,o),
(148,673,cs),
(173,673,o),
(186,660,o),
(186,634,cs),
(186,625,o),
(184,612,o),
(180,594,cs),
(145,442,l),
(131,448,o),
(114,451,o),
(87,451,cs),
(-11,451,o),
(-53,406,o),
(-53,362,cs),
(-53,313,o),
(1,265,o),
(104,262,c),
(64,90,ls),
(56,54,o),
(54,42,o),
(54,28,cs),
(54,1,o),
(63,-13,o),
(83,-13,cs)
);
},
{
closed = 1;
nodes = (
(35,297,o),
(13,329,o),
(13,366,cs),
(13,398,o),
(30,422,o),
(72,422,cs),
(107,422,o),
(120,406,o),
(120,367,cs),
(120,348,o),
(117,324,o),
(111,294,c)
);
}
);
width = 256;
},
{
layerId = "2438E31C-45B5-47A7-9B3D-1A0FEFB47671";
shapes = (
{
closed = 1;
nodes = (
(131,-13,o),
(194,43,o),
(229,88,cs),
(234,95,o),
(208,120,o),
(202,111,cs),
(178,82,o),
(164,69,o),
(156,69,cs),
(147,69,o),
(145,74,o),
(145,83,cs),
(145,88,o),
(147,105,o),
(150,117,cs),
(179,236,l),
(236,246,o),
(277,265,o),
(310,289,cs),
(322,298,o),
(305,325,o),
(294,320,cs),
(256,299,o),
(225,290,o),
(190,284,c),
(289,702,ls),
(290,707,o),
(291,711,o),
(291,716,cs),
(291,721,o),
(287,725,o),
(279,725,cs),
(274,725,o),
(271,725,o),
(259,721,cs),
(248,717,o),
(223,710,o),
(203,707,cs),
(180,702,o),
(159,699,o),
(139,699,cs),
(128,699,o),
(127,664,o),
(139,664,cs),
(160,664,o),
(170,651,o),
(170,626,cs),
(170,617,o),
(168,606,o),
(164,587,cs),
(132,452,l),
(117,457,o),
(98,458,o),
(78,458,cs),
(-48,458,o),
(-99,396,o),
(-99,342,cs),
(-99,283,o),
(-37,235,o),
(81,231,c),
(52,110,ls),
(43,70,o),
(41,59,o),
(41,43,cs),
(41,11,o),
(57,-13,o),
(89,-13,cs)
);
},
{
closed = 1;
nodes = (
(21,284,o),
(-2,320,o),
(-2,355,cs),
(-2,384,o),
(12,419,o),
(53,419,cs),
(87,419,o),
(102,396,o),
(102,356,cs),
(102,335,o),
(99,310,o),
(92,280,c)
);
}
);
width = 255;
},
{
layerId = "7904EAEE-2B64-409E-B923-0048172372BE";
shapes = (
{
closed = 1;
nodes = (
(125,-13,o),
(188,45,o),
(210,70,cs),
(213,73,o),
(203,94,o),
(194,87,cs),
(160,61,o),
(137,43,o),
(125,43,cs),
(118,43,o),
(113,50,o),
(113,65,cs),
(113,73,o),
(114,80,o),
(123,117,cs),
(159,273,l),
(236,277,o),
(269,296,o),
(294,314,cs),
(298,317,o),
(296,333,o),
(289,330,cs),
(255,314,o),
(228,302,o),
(165,299,c),
(257,708,ls),
(259,713,o),
(259,716,o),
(259,720,cs),
(259,723,o),
(258,725,o),
(255,725,cs),
(253,725,o),
(248,725,o),
(240,721,cs),
(234,719,o),
(214,712,o),
(193,706,cs),
(178,702,o),
(163,698,o),
(151,698,cs),
(142,698,o),
(143,676,o),
(151,676,cs),
(178,676,o),
(191,663,o),
(191,637,cs),
(191,627,o),
(189,614,o),
(185,596,cs),
(149,438,l),
(136,445,o),
(120,449,o),
(90,449,cs),
(1,449,o),
(-37,409,o),
(-37,369,cs),
(-37,323,o),
(14,274,o),
(112,272,c),
(68,83,ls),
(61,48,o),
(58,36,o),
(58,23,cs),
(58,-2,o),
(64,-13,o),
(82,-13,cs)
);
},
{
closed = 1;
nodes = (
(40,301,o),
(18,332,o),
(18,369,cs),
(18,403,o),
(37,423,o),
(79,423,cs),
(114,423,o),
(126,410,o),
(126,370,cs),
(126,353,o),
(124,329,o),
(118,299,c)
);
}
);
width = 256;
},
{
guides = (
{
pos = (557,1070);
showMeasurement = 1;
}
);
layerId = "E06D8587-1A71-4EC2-BD94-397D882F5FC1";
shapes = (
{
closed = 1;
nodes = (
(140,-13,o),
(190,39,o),
(220,81,cs),
(224,85,o),
(206,104,o),
(200,98,cs),
(176,70,o),
(158,50,o),
(150,50,cs),
(144,50,o),
(141,56,o),
(141,66,cs),
(141,73,o),
(143,86,o),
(148,117,cs),
(175,257,l),
(233,264,o),
(263,282,o),
(290,306,cs),
(294,310,o),
(286,330,o),
(278,325,cs),
(250,309,o),
(224,296,o),
(182,292,c),
(261,705,ls),
(262,710,o),
(262,714,o),
(262,718,cs),
(262,723,o),
(260,725,o),
(256,725,cs),
(253,725,o),
(248,724,o),
(241,721,cs),
(230,717,o),
(213,710,o),
(198,706,cs),
(182,702,o),
(166,699,o),
(154,699,cs),
(146,699,o),
(146,673,o),
(154,673,cs),
(175,673,o),
(185,660,o),
(185,634,cs),
(185,625,o),
(184,612,o),
(180,592,cs),
(151,444,l),
(139,450,o),
(124,453,o),
(104,453,cs),
(14,453,o),
(-23,403,o),
(-23,357,cs),
(-23,305,o),
(25,257,o),
(115,254,c),
(85,95,ls),
(78,59,o),
(76,47,o),
(76,33,cs),
(76,3,o),
(86,-13,o),
(106,-13,cs)
);
},
{
closed = 1;
nodes = (
(60,293,o),
(41,327,o),
(41,363,cs),
(41,395,o),
(54,421,o),
(89,421,cs),
(118,421,o),
(129,404,o),
(129,363,cs),
(129,344,o),
(127,320,o),
(122,291,c)
);
}
);
width = 274;
},
{
layerId = "8F7CDE40-C368-4484-AA71-76B7ABD5539F";
shapes = (
{
closed = 1;
nodes = (
(125,-13,o),
(200,50,o),
(220,67,cs),
(225,71,o),
(213,97,o),
(202,89,cs),
(164,61,o),
(141,50,o),
(127,50,cs),
(118,50,o),
(112,59,o),
(112,74,cs),
(112,82,o),
(114,89,o),
(120,117,cs),
(155,271,l),
(243,275,o),
(282,294,o),
(311,312,cs),
(319,316,o),
(313,333,o),
(303,329,cs),
(263,312,o),
(232,301,o),
(162,298,c),
(258,707,ls),
(259,712,o),
(259,715,o),
(259,718,cs),
(259,723,o),
(258,725,o),
(254,725,cs),
(251,725,o),
(243,724,o),
(236,721,cs),
(229,719,o),
(202,711,o),
(182,706,cs),
(163,701,o),
(146,698,o),
(130,698,cs),
(120,698,o),
(121,673,o),
(131,673,cs),
(162,673,o),
(177,660,o),
(177,634,cs),
(177,622,o),
(175,611,o),
(172,596,cs),
(136,439,l),
(119,446,o),
(100,449,o),
(67,449,cs),
(-37,449,o),
(-83,410,o),
(-83,369,cs),
(-83,321,o),
(-20,272,o),
(96,270,c),
(54,84,ls),
(46,50,o),
(44,37,o),
(44,26,cs),
(44,-1,o),
(53,-13,o),
(74,-13,cs)
);
},
{
closed = 1;
nodes = (
(25,300,o),
(-15,323,o),
(-15,371,cs),
(-15,402,o),
(6,422,o),
(54,422,cs),
(96,422,o),
(111,407,o),
(111,365,cs),
(111,348,o),
(108,327,o),
(103,298,c)
);
}
);
width = 239;
},
{
layerId = "997BDFA1-EC67-4686-8CFE-E56BDBE179FE";
shapes = (
{
closed = 1;
nodes = (
(126,-13,o),
(189,45,o),
(215,74,cs),
(219,79,o),
(204,100,o),
(196,93,cs),
(165,66,o),
(144,50,o),
(133,50,cs),
(125,50,o),
(121,56,o),
(121,69,cs),
(121,77,o),
(123,86,o),
(130,117,cs),
(164,264,l),
(236,270,o),
(271,288,o),
(298,308,cs),
(304,312,o),
(298,331,o),
(290,327,cs),
(255,311,o),
(227,299,o),
(171,295,c),
(265,706,ls),
(267,711,o),
(267,715,o),
(267,719,cs),
(267,723,o),
(265,725,o),
(261,725,cs),
(259,725,o),
(253,724,o),
(245,721,cs),
(238,719,o),
(216,711,o),
(196,706,cs),
(178,702,o),
(162,698,o),
(148,698,cs),
(139,698,o),
(139,673,o),
(148,673,cs),
(173,673,o),
(186,660,o),
(186,634,cs),
(186,625,o),
(184,612,o),
(180,594,cs),
(145,442,l),
(131,448,o),
(114,451,o),
(87,451,cs),
(-11,451,o),
(-53,406,o),
(-53,362,cs),
(-53,313,o),
(1,265,o),
(104,262,c),
(64,90,ls),
(56,54,o),
(54,42,o),
(54,28,cs),
(54,1,o),
(63,-13,o),
(83,-13,cs)
);
},
{
closed = 1;
nodes = (
(35,297,o),
(13,329,o),
(13,366,cs),
(13,398,o),
(30,422,o),
(72,422,cs),
(107,422,o),
(120,406,o),
(120,367,cs),
(120,348,o),
(117,324,o),
(111,294,c)
);
}
);
width = 256;
}
);
unicode = 620;
}
{
glyphname = mturned;
layers = (
{
layerId = master01;
shapes = (
{
closed = 1;
nodes = (
(206,-11,o),
(280,66,o),
(360,220,c),
(365,218,l),
(336,114,ls),
(329,91,o),
(326,70,o),
(326,52,cs),
(326,10,o),
(344,-11,o),
(380,-11,cs),
(415,-11,o),
(453,11,o),
(495,56,cs),
(538,100,o),
(573,155,o),
(602,220,c),
(606,218,l),
(568,89,ls),
(559,59,o),
(556,43,o),
(556,29,cs),
(556,3,o),
(566,-11,o),
(584,-11,cs),
(622,-11,o),
(691,46,o),
(714,78,cs),
(717,82,o),
(718,83,o),
(718,84,cs),
(718,91,o),
(706,102,o),
(700,102,cs),
(699,102,o),
(698,102,o),
(695,98,cs),
(668,71,o),
(648,58,o),
(639,58,cs),
(631,58,o),
(627,65,o),
(627,75,cs),
(627,84,o),
(629,94,o),
(631,100,cs),
(717,400,ls),
(720,411,o),
(712,416,o),
(693,416,cs),
(674,416,o),
(662,411,o),
(658,402,cs),
(633,333,o),
(603,271,o),
(568,211,cs),
(524,135,o),
(447,28,o),
(405,28,cs),
(391,28,o),
(384,36,o),
(384,51,cs),
(384,67,o),
(391,98,o),
(405,145,cs),
(477,400,ls),
(480,411,o),
(472,416,o),
(453,416,cs),
(434,416,o),
(422,411,o),
(418,402,cs),
(380,312,o),
(343,240,o),
(306,183,cs),
(258,110,o),
(200,28,o),
(157,28,cs),
(147,28,o),
(142,35,o),
(142,49,cs),
(142,60,o),
(147,83,o),
(157,121,cs),
(212,313,ls),
(222,349,o),
(224,361,o),
(224,375,cs),
(224,402,o),
(215,416,o),
(194,416,cs),
(151,416,o),
(86,358,o),
(61,329,cs),
(57,325,o),
(57,324,o),
(57,323,cs),
(57,317,o),
(68,306,o),
(73,306,cs),
(75,306,o),
(76,307,o),
(79,310,cs),
(112,336,o),
(132,353,o),
(143,353,cs),
(150,353,o),
(155,347,o),
(155,333,cs),
(155,326,o),
(153,316,o),
(144,286,cs),
(99,128,ls),
(90,97,o),
(86,71,o),
(86,50,cs),
(86,9,o),
(103,-11,o),
(138,-11,cs)
);
}
);
width = 733;
},
{
layerId = "2438E31C-45B5-47A7-9B3D-1A0FEFB47671";
shapes = (
{
closed = 1;
nodes = (
(197,-11,o),
(262,46,o),
(328,161,c),
(333,159,l),
(329,145,ls),
(318,105,o),
(312,73,o),
(312,54,cs),
(312,10,o),
(333,-11,o),
(377,-11,cs),
(408,-11,o),
(441,6,o),
(475,40,cs),
(509,74,o),
(539,114,o),
(565,161,c),
(569,159,l),
(552,101,ls),
(543,68,o),
(540,49,o),
(540,34,cs),
(540,4,o),
(558,-11,o),
(584,-11,cs),
(632,-11,o),
(691,45,o),
(719,83,cs),
(723,87,o),
(723,88,o),
(723,90,cs),
(723,94,o),
(706,111,o),
(699,111,cs),
(698,111,o),
(696,110,o),
(693,106,cs),
(669,83,o),
(655,69,o),
(646,69,cs),
(641,69,o),
(638,72,o),
(638,76,cs),
(638,79,o),
(638,81,o),
(641,89,cs),
(738,402,ls),
(741,411,o),
(725,416,o),
(694,416,cs),
(663,416,o),
(645,412,o),
(642,405,cs),
(613,320,o),
(582,258,o),
(556,213,cs),
(526,162,o),
(454,42,o),
(409,42,cs),
(401,42,o),
(398,47,o),
(398,60,cs),
(398,70,o),
(404,98,o),
(419,144,cs),
(498,403,ls),
(501,412,o),
(487,416,o),
(455,416,cs),
(423,416,o),
(404,413,o),
(402,407,cs),
(359,299,o),
(323,227,o),
(299,186,cs),
(267,131,o),
(210,42,o),
(172,42,cs),
(163,42,o),
(158,49,o),
(158,62,cs),
(158,75,o),
(162,95,o),
(171,122,cs),
(223,292,ls),
(235,332,o),
(236,344,o),
(236,359,cs),
(236,392,o),
(221,416,o),
(188,416,cs),
(147,416,o),
(83,359,o),
(53,321,cs),
(49,316,o),
(49,315,o),
(49,314,cs),
(49,310,o),
(66,292,o),
(74,292,cs),
(76,292,o),
(77,293,o),
(81,298,cs),
(99,321,o),
(113,333,o),
(122,333,cs),
(130,333,o),
(132,329,o),
(132,320,cs),
(132,315,o),
(129,302,o),
(124,286,cs),
(79,138,ls),
(69,106,o),
(65,80,o),
(65,58,cs),
(65,12,o),
(88,-11,o),
(130,-11,cs)
);
}
);
width = 757;
},
{
layerId = "7904EAEE-2B64-409E-B923-0048172372BE";
shapes = (
{
closed = 1;
nodes = (
(210,-11,o),
(286,73,o),
(371,239,c),
(378,237,l),
(339,104,ls),
(334,86,o),
(332,69,o),
(332,51,cs),
(332,10,o),
(349,-11,o),
(382,-11,cs),
(418,-11,o),
(458,13,o),
(503,61,cs),
(549,109,o),
(586,168,o),
(616,239,c),
(619,237,l),
(575,85,ls),
(566,56,o),
(564,41,o),
(564,28,cs),
(564,2,o),
(570,-11,o),
(586,-11,cs),
(620,-11,o),
(693,46,o),
(715,77,cs),
(718,80,o),
(718,81,o),
(718,82,cs),
(718,90,o),
(708,99,o),
(703,99,cs),
(702,99,o),
(701,99,o),
(698,95,cs),
(670,67,o),
(648,54,o),
(639,54,cs),
(629,54,o),
(625,63,o),
(625,75,cs),
(625,85,o),
(628,98,o),
(630,103,cs),
(711,399,ls),
(714,411,o),
(708,416,o),
(693,416,cs),
(679,416,o),
(669,411,o),
(665,401,cs),
(641,337,o),
(611,275,o),
(574,210,cs),
(525,125,o),
(446,23,o),
(404,23,cs),
(389,23,o),
(381,32,o),
(381,48,cs),
(381,66,o),
(388,98,o),
(401,146,cs),
(472,399,ls),
(474,410,o),
(468,416,o),
(453,416,cs),
(439,416,o),
(429,411,o),
(425,400,cs),
(388,316,o),
(351,244,o),
(309,182,cs),
(256,103,o),
(199,23,o),
(154,23,cs),
(143,23,o),
(138,30,o),
(138,44,cs),
(138,54,o),
(143,80,o),
(154,120,cs),
(209,320,ls),
(219,354,o),
(221,367,o),
(221,379,cs),
(221,405,o),
(214,416,o),
(197,416,cs),
(154,416,o),
(88,357,o),
(65,332,cs),
(61,328,o),
(61,327,o),
(61,326,cs),
(61,320,o),
(70,311,o),
(75,311,cs),
(76,311,o),
(76,311,o),
(81,315,cs),
(115,344,o),
(139,359,o),
(151,359,cs),
(158,359,o),
(164,353,o),
(164,338,cs),
(164,330,o),
(162,321,o),
(152,286,cs),
(107,125,ls),
(98,94,o),
(94,68,o),
(94,47,cs),
(94,8,o),
(110,-11,o),
(142,-11,cs)
);
}
);
width = 759;
},
{
layerId = "E06D8587-1A71-4EC2-BD94-397D882F5FC1";
shapes = (
{
closed = 1;
nodes = (
(166,-11,o),
(223,59,o),
(282,200,c),
(286,198,l),
(271,124,ls),
(265,96,o),
(261,72,o),
(261,52,cs),
(261,10,o),
(277,-11,o),
(308,-11,cs),
(334,-11,o),
(363,9,o),
(394,49,cs),
(426,92,o),
(452,141,o),
(474,200,c),
(477,198,l),
(453,93,ls),
(446,61,o),
(444,44,o),
(444,31,cs),
(444,3,o),
(454,-11,o),
(472,-11,cs),
(505,-11,o),
(560,45,o),
(579,79,cs),
(581,83,o),
(582,84,o),
(582,86,cs),
(582,91,o),
(571,105,o),
(566,105,cs),
(565,105,o),
(564,104,o),
(561,100,cs),
(541,75,o),
(528,62,o),
(519,62,cs),
(514,62,o),
(511,67,o),
(511,75,cs),
(511,83,o),
(512,89,o),
(514,96,cs),
(586,400,ls),
(588,411,o),
(579,416,o),
(560,416,cs),
(536,416,o),
(528,410,o),
(526,402,cs),
(504,327,o),
(477,260,o),
(455,211,cs),
(425,144,o),
(364,28,o),
(330,28,cs),
(321,28,o),
(317,40,o),
(317,54,cs),
(317,68,o),
(322,97,o),
(333,145,cs),
(394,401,ls),
(396,411,o),
(387,416,o),
(368,416,cs),
(348,416,o),
(337,412,o),
(334,403,cs),
(302,308,o),
(277,242,o),
(247,184,cs),
(214,117,o),
(168,28,o),
(135,28,cs),
(128,28,o),
(124,36,o),
(124,49,cs),
(124,61,o),
(127,85,o),
(135,121,cs),
(178,306,ls),
(186,340,o),
(188,354,o),
(188,370,cs),
(188,398,o),
(179,416,o),
(158,416,cs),
(125,416,o),
(73,359,o),
(51,327,cs),
(49,322,o),
(48,321,o),
(48,320,cs),
(48,315,o),
(59,302,o),
(64,302,cs),
(66,302,o),
(66,302,o),
(70,307,cs),
(89,332,o),
(104,347,o),
(112,347,cs),
(118,347,o),
(121,341,o),
(121,329,cs),
(121,322,o),
(119,312,o),
(113,286,cs),
(77,131,ls),
(70,100,o),
(66,74,o),
(66,52,cs),
(66,10,o),
(82,-11,o),
(112,-11,cs)
);
}
);
width = 613;
},
{
layerId = "8F7CDE40-C368-4484-AA71-76B7ABD5539F";
shapes = (
{
closed = 1;
nodes = (
(257,-11,o),
(344,73,o),
(440,239,c),
(447,237,l),
(408,104,ls),
(402,88,o),
(399,72,o),
(399,57,cs),
(399,11,o),
(420,-11,o),
(462,-11,cs),
(506,-11,o),
(552,13,o),
(606,62,cs),
(657,109,o),
(699,168,o),
(732,239,c),
(736,237,l),
(690,85,ls),
(681,59,o),
(678,43,o),
(678,31,cs),
(678,3,o),
(688,-11,o),
(708,-11,cs),
(750,-11,o),
(831,47,o),
(857,78,cs),
(860,81,o),
(861,81,o),
(861,82,cs),
(861,90,o),
(848,99,o),
(842,99,cs),
(840,99,o),
(840,99,o),
(837,96,cs),
(803,67,o),
(777,54,o),
(767,54,cs),
(756,54,o),
(750,63,o),
(750,77,cs),
(750,85,o),
(752,97,o),
(754,103,cs),
(845,399,ls),
(848,411,o),
(841,416,o),
(822,416,cs),
(807,416,o),
(792,412,o),
(787,401,cs),
(761,339,o),
(728,279,o),
(684,210,cs),
(630,125,o),
(539,28,o),
(488,28,cs),
(468,28,o),
(461,34,o),
(461,50,cs),
(461,70,o),
(468,101,o),
(482,146,cs),
(558,399,ls),
(561,411,o),
(551,416,o),
(534,416,cs),
(516,416,o),
(504,411,o),
(499,400,cs),
(458,316,o),
(413,238,o),
(370,182,cs),
(306,100,o),
(242,28,o),
(189,28,cs),
(176,28,o),
(169,35,o),
(169,49,cs),
(169,58,o),
(174,79,o),
(186,120,cs),
(245,320,ls),
(255,354,o),
(257,367,o),
(257,376,cs),
(257,404,o),
(248,416,o),
(226,416,cs),
(173,416,o),
(98,357,o),
(69,331,cs),
(65,327,o),
(65,327,o),
(65,326,cs),
(65,320,o),
(77,311,o),
(83,311,cs),
(85,311,o),
(86,311,o),
(88,313,cs),
(137,343,o),
(157,359,o),
(172,359,cs),
(181,359,o),
(188,351,o),
(188,336,cs),
(188,330,o),
(186,319,o),
(176,286,cs),
(127,125,ls),
(118,98,o),
(114,73,o),
(114,53,cs),
(114,10,o),
(134,-11,o),
(174,-11,cs)
);
}
);
width = 902;
},
{
layerId = "997BDFA1-EC67-4686-8CFE-E56BDBE179FE";
shapes = (
{
closed = 1;
nodes = (
(181,-11,o),
(254,66,o),
(334,220,c),
(340,218,l),
(311,114,ls),
(304,91,o),
(301,70,o),
(301,52,cs),
(301,10,o),
(319,-11,o),
(354,-11,cs),
(390,-11,o),
(428,11,o),
(470,56,cs),
(513,100,o),
(548,155,o),
(577,220,c),
(581,218,l),
(542,89,ls),
(534,59,o),
(531,43,o),
(531,29,cs),
(531,3,o),
(541,-11,o),
(559,-11,cs),
(597,-11,o),
(666,46,o),
(689,78,cs),
(692,82,o),
(692,83,o),
(692,84,cs),
(692,91,o),
(681,102,o),
(675,102,cs),
(674,102,o),
(673,102,o),
(670,98,cs),
(643,71,o),
(623,58,o),
(614,58,cs),
(605,58,o),
(602,65,o),
(602,75,cs),
(602,84,o),
(604,94,o),
(605,100,cs),
(692,400,ls),
(695,411,o),
(687,416,o),
(667,416,cs),
(648,416,o),
(637,411,o),
(633,402,cs),
(608,333,o),
(578,271,o),
(543,211,cs),
(499,135,o),
(422,28,o),
(379,28,cs),
(366,28,o),
(359,36,o),
(359,51,cs),
(359,67,o),
(366,98,o),
(379,145,cs),
(452,400,ls),
(455,411,o),
(447,416,o),
(428,416,cs),
(409,416,o),
(397,411,o),
(393,402,cs),
(355,312,o),
(318,240,o),
(281,183,cs),
(233,110,o),
(175,28,o),
(132,28,cs),
(122,28,o),
(117,35,o),
(117,49,cs),
(117,60,o),
(122,83,o),
(132,121,cs),
(187,313,ls),
(197,349,o),
(199,361,o),
(199,375,cs),
(199,402,o),
(190,416,o),
(169,416,cs),
(126,416,o),
(61,358,o),
(36,329,cs),
(32,325,o),
(32,324,o),
(32,323,cs),
(32,317,o),
(43,306,o),
(48,306,cs),
(50,306,o),
(51,307,o),
(54,310,cs),
(86,336,o),
(106,353,o),
(118,353,cs),
(125,353,o),
(130,347,o),
(130,333,cs),
(130,326,o),
(128,316,o),
(119,286,cs),
(74,128,ls),
(65,97,o),
(61,71,o),
(61,50,cs),
(61,9,o),
(78,-11,o),
(113,-11,cs)
);
}
);
width = 752;
}
);
metricLeft = u;
metricRight = u;
unicode = 623;
}
{
glyphname = obarred;
kernLeft = c;
layers = (
{
layerId = master01;
shapes = (
{
closed = 1;
nodes = (
(295,-13,o),
(400,128,o),
(400,267,cs),
(400,356,o),
(360,416,o),
(282,416,cs),
(165,416,o),
(47,276,o),
(47,149,cs),
(47,52,o),
(85,-13,o),
(160,-13,cs)
);
},
{
closed = 1;
nodes = (
(125,33,o),
(104,60,o),
(104,113,cs),
(104,135,o),
(109,160,o),
(117,185,c),
(321,185,l),
(287,107,o),
(223,33,o),
(174,33,cs)
);
},
{
closed = 1;
nodes = (
(173,308,o),
(233,375,o),
(282,375,cs),
(324,375,o),
(345,346,o),
(345,282,cs),
(345,267,o),
(343,250,o),
(338,232,c),
(136,232,l)
);
}
);
width = 409;
},
{
layerId = "2438E31C-45B5-47A7-9B3D-1A0FEFB47671";
shapes = (
{
closed = 1;
nodes = (
(330,-13,o),
(444,126,o),
(444,263,cs),
(444,351,o),
(398,416,o),
(308,416,cs),
(183,416,o),
(55,277,o),
(55,154,cs),
(55,58,o),
(101,-13,o),
(186,-13,cs)
);
},
{
closed = 1;
nodes = (
(160,42,o),
(144,61,o),
(144,99,cs),
(144,123,o),
(150,150,o),
(161,180,c),
(322,180,l),
(288,108,o),
(234,42,o),
(196,42,cs)
);
},
{
closed = 1;
nodes = (
(222,306,o),
(273,365,o),
(313,365,cs),
(342,365,o),
(357,346,o),
(357,302,cs),
(357,283,o),
(353,261,o),
(346,238,c),
(187,238,l)
);
}
);
width = 462;
},
{
layerId = "7904EAEE-2B64-409E-B923-0048172372BE";
shapes = (
{
closed = 1;
nodes = (
(283,-13,o),
(385,129,o),
(385,269,cs),
(385,358,o),
(348,416,o),
(273,416,cs),
(159,416,o),
(44,275,o),
(44,147,cs),
(44,50,o),
(80,-13,o),
(151,-13,cs)
);
},
{
closed = 1;
nodes = (
(114,30,o),
(91,59,o),
(91,117,cs),
(91,139,o),
(95,163,o),
(103,187,c),
(321,187,l),
(288,107,o),
(220,30,o),
(167,30,cs)
);
},
{
closed = 1;
nodes = (
(156,308,o),
(219,378,o),
(272,378,cs),
(318,378,o),
(341,346,o),
(341,275,cs),
(341,261,o),
(339,246,o),
(335,230,c),
(120,230,l)
);
}
);
width = 392;
},
{
layerId = "E06D8587-1A71-4EC2-BD94-397D882F5FC1";
shapes = (
{
closed = 1;
nodes = (
(256,-13,o),
(344,128,o),
(344,266,cs),
(344,354,o),
(310,416,o),
(243,416,cs),
(146,416,o),
(49,276,o),
(49,151,cs),
(49,55,o),
(82,-13,o),
(145,-13,cs)
);
},
{
closed = 1;
nodes = (
(121,33,o),
(106,58,o),
(106,108,cs),
(106,130,o),
(110,156,o),
(117,183,c),
(267,183,l),
(240,106,o),
(192,33,o),
(156,33,cs)
);
},
{
closed = 1;
nodes = (
(163,309,o),
(209,375,o),
(245,375,cs),
(274,375,o),
(289,348,o),
(289,290,cs),
(289,273,o),
(286,254,o),
(282,234,c),
(134,234,l)
);
}
);
width = 355;
},
{
layerId = "8F7CDE40-C368-4484-AA71-76B7ABD5539F";
shapes = (
{
closed = 1;
nodes = (
(336,-13,o),
(452,124,o),
(452,260,cs),
(452,358,o),
(400,416,o),
(312,416,cs),
(177,416,o),
(45,280,o),
(45,153,cs),
(45,49,o),
(96,-13,o),
(182,-13,cs)
);
},
{
closed = 1;
nodes = (
(133,33,o),
(103,63,o),
(103,123,cs),
(103,143,o),
(107,164,o),
(115,185,c),
(375,185,l),
(336,107,o),
(258,33,o),
(195,33,cs)
);
},
{
closed = 1;
nodes = (
(177,308,o),
(249,375,o),
(312,375,cs),
(368,375,o),
(397,339,o),
(397,271,cs),
(397,258,o),
(396,246,o),
(392,232,c),
(136,232,l)
);
}
);
width = 459;
},
{
layerId = "997BDFA1-EC67-4686-8CFE-E56BDBE179FE";
shapes = (
{
closed = 1;
nodes = (
(295,-13,o),
(400,128,o),
(400,267,cs),
(400,356,o),
(360,416,o),
(282,416,cs),
(165,416,o),
(47,276,o),
(47,149,cs),
(47,52,o),
(85,-13,o),
(160,-13,cs)
);
},
{
closed = 1;
nodes = (
(125,33,o),
(104,60,o),
(104,113,cs),
(104,135,o),
(109,160,o),
(117,185,c),
(321,185,l),
(287,107,o),
(223,33,o),
(174,33,cs)
);
},
{
closed = 1;
nodes = (
(173,308,o),
(233,375,o),
(282,375,cs),
(324,375,o),
(345,346,o),
(345,282,cs),
(345,267,o),
(343,250,o),
(338,232,c),
(136,232,l)
);
}
);
width = 409;
}
);
unicode = 629;
}
{
glyphname = tturned;
layers = (
{
anchors = (
{
name = bottom;
pos = (69,-90);
},
{
name = top;
pos = (191,416);
}
);
layerId = master01;
shapes = (
{
closed = 1;
nodes = (
(77,-110,o),
(82,-108,o),
(84,-104,cs),
(134,-5,l),
(216,9,ls),
(223,11,o),
(226,17,o),
(226,29,cs),
(226,35,o),
(224,38,o),
(220,38,cs),
(144,38,l),
(229,331,ls),
(231,340,o),
(233,352,o),
(233,366,cs),
(233,390,o),
(219,416,o),
(191,416,cs),
(130,416,o),
(73,354,o),
(20,276,cs),
(19,274,o),
(19,273,o),
(19,271,cs),
(19,267,o),
(26,257,o),
(36,257,cs),
(37,257,o),
(38,257,o),
(40,260,cs),
(90,322,o),
(126,353,o),
(146,353,cs),
(157,353,o),
(163,345,o),
(163,328,cs),
(163,318,o),
(161,307,o),
(157,293,cs),
(84,38,l),
(-25,38,ls),
(-31,38,o),
(-39,21,o),
(-39,10,cs),
(-39,3,o),
(-38,0,o),
(-35,0,cs),
(74,0,l),
(50,-101,l),
(50,-107,o),
(56,-110,o),
(69,-110,cs)
);
}
);
width = 295;
},
{
anchors = (
{
name = bottom;
pos = (87,-90);
},
{
name = top;
pos = (222,416);
}
);
layerId = "2438E31C-45B5-47A7-9B3D-1A0FEFB47671";
shapes = (
{
closed = 1;
nodes = (
(105,-104,o),
(109,-103,o),
(111,-101,cs),
(179,-5,l),
(265,13,ls),
(273,15,o),
(280,21,o),
(280,34,cs),
(280,46,o),
(279,52,o),
(274,52,cs),
(196,52,l),
(278,315,ls),
(281,326,o),
(283,338,o),
(283,352,cs),
(283,385,o),
(260,416,o),
(222,416,cs),
(145,416,o),
(86,352,o),
(30,273,cs),
(29,272,o),
(29,271,o),
(29,269,cs),
(29,264,o),
(44,247,o),
(52,247,cs),
(54,247,o),
(55,249,o),
(58,251,cs),
(108,313,o),
(145,342,o),
(166,342,cs),
(174,342,o),
(179,336,o),
(179,324,cs),
(179,315,o),
(176,304,o),
(172,289,cs),
(99,52,l),
(-22,52,ls),
(-32,52,o),
(-37,16,o),
(-37,7,cs),
(-37,2,o),
(-36,0,o),
(-33,0,cs),
(84,0,l),
(57,-86,l),
(57,-98,o),
(71,-104,o),
(97,-104,cs)
);
}
);
width = 340;
},
{
anchors = (
{
name = bottom;
pos = (70,-90);
},
{
name = top;
pos = (187,416);
}
);
layerId = "7904EAEE-2B64-409E-B923-0048172372BE";
shapes = (
{
closed = 1;
nodes = (
(74,-112,o),
(80,-110,o),
(82,-105,cs),
(126,-5,l),
(206,8,ls),
(213,9,o),
(215,16,o),
(215,27,cs),
(215,31,o),
(213,33,o),
(210,33,cs),
(134,33,l),
(219,336,ls),
(222,345,o),
(223,356,o),
(223,370,cs),
(223,392,o),
(212,416,o),
(187,416,cs),
(131,416,o),
(76,355,o),
(24,277,cs),
(23,275,o),
(23,274,o),
(23,272,cs),
(23,268,o),
(27,260,o),
(37,260,cs),
(39,260,o),
(40,260,o),
(42,263,cs),
(91,326,o),
(126,357,o),
(147,357,cs),
(159,357,o),
(165,348,o),
(165,329,cs),
(165,319,o),
(164,308,o),
(160,294,cs),
(86,33,l),
(-19,33,ls),
(-24,33,o),
(-33,22,o),
(-33,10,cs),
(-33,3,o),
(-32,0,o),
(-29,0,cs),
(78,0,l),
(54,-105,l),
(54,-110,o),
(58,-112,o),
(67,-112,cs)
);
}
);
width = 287;
},
{
anchors = (
{
name = bottom;
pos = (61,-90);
},
{
name = top;
pos = (161,416);
}
);
layerId = "E06D8587-1A71-4EC2-BD94-397D882F5FC1";
shapes = (
{
closed = 1;
nodes = (
(68,-108,o),
(72,-106,o),
(73,-103,cs),
(119,-5,l),
(186,11,ls),
(192,12,o),
(196,19,o),
(196,31,cs),
(196,40,o),
(194,43,o),
(191,43,cs),
(130,43,l),
(197,326,ls),
(199,336,o),
(200,349,o),
(200,361,cs),
(200,388,o),
(187,416,o),
(161,416,cs),
(106,416,o),
(59,351,o),
(18,275,cs),
(17,274,o),
(16,272,o),
(16,271,cs),
(16,266,o),
(25,253,o),
(32,253,cs),
(33,253,o),
(34,254,o),
(36,257,cs),
(76,318,o),
(106,353,o),
(123,353,cs),
(130,353,o),
(135,345,o),
(135,330,cs),
(135,322,o),
(133,309,o),
(130,295,cs),
(69,43,l),
(-21,43,ls),
(-28,43,o),
(-33,19,o),
(-33,9,cs),
(-33,2,o),
(-32,0,o),
(-30,0,cs),
(60,0,l),
(39,-96,l),
(39,-104,o),
(48,-108,o),
(62,-108,cs)
);
}
);
width = 253;
},
{
anchors = (
{
name = bottom;
pos = (88,-90);
},
{
name = top;
pos = (215,416);
}
);
layerId = "8F7CDE40-C368-4484-AA71-76B7ABD5539F";
shapes = (
{
closed = 1;
nodes = (
(97,-112,o),
(103,-110,o),
(105,-105,cs),
(157,-5,l),
(253,8,ls),
(261,9,o),
(263,15,o),
(263,24,cs),
(263,31,o),
(261,33,o),
(256,33,cs),
(165,33,l),
(257,335,ls),
(259,343,o),
(260,351,o),
(260,364,cs),
(260,396,o),
(242,416,o),
(214,416,cs),
(146,416,o),
(82,357,o),
(21,276,cs),
(20,275,o),
(20,274,o),
(20,273,cs),
(20,268,o),
(26,260,o),
(38,260,cs),
(40,260,o),
(41,260,o),
(43,263,cs),
(101,326,o),
(142,353,o),
(166,353,cs),
(180,353,o),
(188,344,o),
(188,323,cs),
(188,313,o),
(187,304,o),
(183,291,cs),
(105,33,l),
(-22,33,ls),
(-27,33,o),
(-38,22,o),
(-38,11,cs),
(-38,5,o),
(-36,0,o),
(-33,0,cs),
(96,0,l),
(71,-105,l),
(72,-109,o),
(74,-112,o),
(88,-112,cs)
);
}
);
width = 340;
},
{
anchors = (
{
name = bottom;
pos = (42,-90);
},
{
name = top;
pos = (164,416);
}
);
layerId = "997BDFA1-EC67-4686-8CFE-E56BDBE179FE";
shapes = (
{
closed = 1;
nodes = (
(50,-110,o),
(54,-108,o),
(56,-104,cs),
(107,-5,l),
(188,9,ls),
(195,11,o),
(199,17,o),
(199,29,cs),
(199,35,o),
(197,38,o),
(193,38,cs),
(117,38,l),
(201,331,ls),
(204,340,o),
(205,352,o),
(205,366,cs),
(205,390,o),
(192,416,o),
(163,416,cs),
(102,416,o),
(46,354,o),
(-7,276,cs),
(-8,274,o),
(-9,273,o),
(-9,271,cs),
(-9,267,o),
(-1,257,o),
(8,257,cs),
(10,257,o),
(11,257,o),
(13,260,cs),
(63,322,o),
(98,353,o),
(119,353,cs),
(130,353,o),
(136,345,o),
(136,328,cs),
(136,318,o),
(134,307,o),
(130,293,cs),
(57,38,l),
(-53,38,ls),
(-58,38,o),
(-67,21,o),
(-67,10,cs),
(-67,3,o),
(-65,0,o),
(-63,0,cs),
(47,0,l),
(22,-101,l),
(22,-107,o),
(29,-110,o),
(42,-110,cs)
);
}
);
width = 293;
}
);
metricLeft = "=|t";
metricRight = "=|t";
unicode = 647;
}
{
export = 0;
glyphname = uni02C0;
layers = (
{
layerId = master01;
shapes = (
{
closed = 1;
nodes = (
(131,623,o),
(147,649,o),
(179,668,cs),
(201,681,o),
(226,688,o),
(254,688,cs),
(276,688,o),
(294,683,o),
(309,675,cs),
(323,667,o),
(334,655,o),
(340,640,cs),
(347,625,o),
(350,610,o),
(350,596,cs),
(350,559,o),
(337,526,o),
(312,497,cs),
(286,468,o),
(262,453,o),
(238,450,cs),
(234,450,o),
(231,448,o),
(230,443,cs),
(202,293,ls),
(201,292,o),
(201,291,o),
(201,289,cs),
(201,277,o),
(211,271,o),
(231,271,cs),
(234,271,o),
(235,269,o),
(235,265,cs),
(235,258,o),
(233,255,o),
(228,254,c),
(213,256,o),
(194,256,o),
(171,256,cs),
(147,256,o),
(129,256,o),
(114,254,cs),
(112,254,o),
(111,256,o),
(111,259,cs),
(111,265,o),
(113,269,o),
(117,271,c),
(141,271,o),
(154,278,o),
(157,293,cs),
(189,459,ls),
(190,465,o),
(194,468,o),
(201,469,cs),
(231,471,o),
(255,487,o),
(273,516,cs),
(292,544,o),
(301,573,o),
(301,602,cs),
(301,625,o),
(296,642,o),
(284,653,cs),
(273,665,o),
(259,670,o),
(241,670,cs),
(218,670,o),
(202,665,o),
(191,655,cs),
(181,644,o),
(176,635,o),
(176,627,cs),
(176,620,o),
(178,614,o),
(181,607,cs),
(185,601,o),
(187,593,o),
(187,584,cs),
(187,575,o),
(183,568,o),
(177,563,cs),
(171,557,o),
(164,554,o),
(155,554,cs),
(139,554,o),
(131,566,o),
(131,589,cs)
);
}
);
width = 252;
},
{
layerId = "2438E31C-45B5-47A7-9B3D-1A0FEFB47671";
shapes = (
{
closed = 1;
nodes = (
(69,552,o),
(60,563,o),
(60,586,cs),
(60,615,o),
(76,640,o),
(109,662,cs),
(134,678,o),
(164,686,o),
(197,686,cs),
(238,686,o),
(268,673,o),
(287,648,cs),
(299,633,o),
(304,617,o),
(304,601,cs),
(303,584,o),
(301,569,o),
(297,556,cs),
(285,515,o),
(265,485,o),
(239,464,cs),
(212,443,o),
(187,430,o),
(163,426,cs),
(159,425,o),
(156,423,o),
(154,419,cs),
(119,294,ls),
(118,292,o),
(118,290,o),
(118,289,cs),
(118,280,o),
(126,275,o),
(143,274,cs),
(146,274,o),
(146,270,o),
(144,263,cs),
(142,256,o),
(140,252,o),
(137,252,cs),
(121,253,o),
(100,254,o),
(74,254,cs),
(48,254,o),
(26,253,o),
(9,252,cs),
(7,252,o),
(7,253,o),
(6,255,cs),
(6,258,o),
(7,261,o),
(9,266,cs),
(10,271,o),
(13,274,o),
(15,274,cs),
(36,274,o),
(48,281,o),
(52,294,cs),
(92,436,ls),
(93,441,o),
(97,444,o),
(105,445,cs),
(136,450,o),
(161,463,o),
(181,483,cs),
(202,504,o),
(216,529,o),
(225,559,cs),
(230,576,o),
(232,590,o),
(232,603,cs),
(232,616,o),
(230,627,o),
(225,636,cs),
(216,655,o),
(201,664,o),
(181,663,cs),
(147,663,o),
(126,652,o),
(119,629,cs),
(117,619,o),
(117,611,o),
(122,602,cs),
(126,594,o),
(127,586,o),
(125,578,cs),
(123,570,o),
(118,564,o),
(110,559,cs),
(102,554,o),
(94,552,o),
(86,552,cs)
);
}
);
width = 302;
},
{
layerId = "7904EAEE-2B64-409E-B923-0048172372BE";
width = 337;
},
{
layerId = "E06D8587-1A71-4EC2-BD94-397D882F5FC1";
shapes = (
{
closed = 1;
nodes = (
(131,623,o),
(147,649,o),
(179,668,cs),
(201,681,o),
(226,688,o),
(254,688,cs),
(276,688,o),
(294,683,o),
(309,675,cs),
(323,667,o),
(334,655,o),
(340,640,cs),
(347,625,o),
(350,610,o),
(350,596,cs),
(350,559,o),
(337,526,o),
(312,497,cs),
(286,468,o),
(262,453,o),
(238,450,cs),
(234,450,o),
(231,448,o),
(230,443,cs),
(202,293,ls),
(201,292,o),
(201,291,o),
(201,289,cs),
(201,277,o),
(211,271,o),
(231,271,cs),
(234,271,o),
(235,269,o),
(235,265,cs),
(235,258,o),
(233,255,o),
(228,254,c),
(213,256,o),
(194,256,o),
(171,256,cs),
(147,256,o),
(129,256,o),
(114,254,cs),
(112,254,o),
(111,256,o),
(111,259,cs),
(111,265,o),
(113,269,o),
(117,271,c),
(141,271,o),
(154,278,o),
(157,293,cs),
(189,459,ls),
(190,465,o),
(194,468,o),
(201,469,cs),
(231,471,o),
(255,487,o),
(273,516,cs),
(292,544,o),
(301,573,o),
(301,602,cs),
(301,625,o),
(296,642,o),
(284,653,cs),
(273,665,o),
(259,670,o),
(241,670,cs),
(218,670,o),
(202,665,o),
(191,655,cs),
(181,644,o),
(176,635,o),
(176,627,cs),
(176,620,o),
(178,614,o),
(181,607,cs),
(185,601,o),
(187,593,o),
(187,584,cs),
(187,575,o),
(183,568,o),
(177,563,cs),
(171,557,o),
(164,554,o),
(155,554,cs),
(139,554,o),
(131,566,o),
(131,589,cs)
);
}
);
width = 252;
},
{
layerId = "8F7CDE40-C368-4484-AA71-76B7ABD5539F";
width = 293;
},
{
layerId = "997BDFA1-EC67-4686-8CFE-E56BDBE179FE";
shapes = (
{
closed = 1;
nodes = (
(131,623,o),
(147,649,o),
(179,668,cs),
(201,681,o),
(226,688,o),
(254,688,cs),
(276,688,o),
(294,683,o),
(309,675,cs),
(323,667,o),
(334,655,o),
(340,640,cs),
(347,625,o),
(350,610,o),
(350,596,cs),
(350,559,o),
(337,526,o),
(312,497,cs),
(286,468,o),
(262,453,o),
(238,450,cs),
(234,450,o),
(231,448,o),
(230,443,cs),
(202,293,ls),
(201,292,o),
(201,291,o),
(201,289,cs),
(201,277,o),
(211,271,o),
(231,271,cs),
(234,271,o),
(235,269,o),
(235,265,cs),
(235,258,o),
(233,255,o),
(228,254,c),
(213,256,o),
(194,256,o),
(171,256,cs),
(147,256,o),
(129,256,o),
(114,254,cs),
(112,254,o),
(111,256,o),
(111,259,cs),
(111,265,o),
(113,269,o),
(117,271,c),
(141,271,o),
(154,278,o),
(157,293,cs),
(189,459,ls),
(190,465,o),
(194,468,o),
(201,469,cs),
(231,471,o),
(255,487,o),
(273,516,cs),
(292,544,o),
(301,573,o),
(301,602,cs),
(301,625,o),
(296,642,o),
(284,653,cs),
(273,665,o),
(259,670,o),
(241,670,cs),
(218,670,o),
(202,665,o),
(191,655,cs),
(181,644,o),
(176,635,o),
(176,627,cs),
(176,620,o),
(178,614,o),
(181,607,cs),
(185,601,o),
(187,593,o),
(187,584,cs),
(187,575,o),
(183,568,o),
(177,563,cs),
(171,557,o),
(164,554,o),
(155,554,cs),
(139,554,o),
(131,566,o),
(131,589,cs)
);
}
);
width = 252;
}
);
unicode = 704;
}
{
export = 0;
glyphname = uni02D3;
layers = (
{
layerId = master01;
shapes = (
{
closed = 1;
nodes = (
(267,491,l),
(204,489,o),
(167,456,o),
(154,393,cs),
(152,383,o),
(151,374,o),
(151,365,cs),
(151,321,o),
(177,297,o),
(229,294,c),
(221,256,l),
(145,259,o),
(107,291,o),
(107,354,cs),
(107,367,o),
(109,380,o),
(111,393,cs),
(129,480,o),
(183,526,o),
(274,529,c)
);
}
);
width = 208;
},
{
layerId = "2438E31C-45B5-47A7-9B3D-1A0FEFB47671";
shapes = (
{
closed = 1;
nodes = (
(146,296,o),
(110,266,o),
(93,208,cs),
(90,195,o),
(88,184,o),
(87,175,cs),
(87,141,o),
(108,123,o),
(151,120,c),
(138,72,l),
(68,74,o),
(33,102,o),
(32,157,cs),
(32,173,o),
(35,189,o),
(41,208,cs),
(66,296,o),
(125,342,o),
(216,345,c),
(202,297,l)
);
}
);
width = 207;
},
{
layerId = "7904EAEE-2B64-409E-B923-0048172372BE";
width = 277;
},
{
layerId = "E06D8587-1A71-4EC2-BD94-397D882F5FC1";
shapes = (
{
closed = 1;
nodes = (
(267,491,l),
(204,489,o),
(167,456,o),
(154,393,cs),
(152,383,o),
(151,374,o),
(151,365,cs),
(151,321,o),
(177,297,o),
(229,294,c),
(221,256,l),
(145,259,o),
(107,291,o),
(107,354,cs),
(107,367,o),
(109,380,o),
(111,393,cs),
(129,480,o),
(183,526,o),
(274,529,c)
);
}
);
width = 208;
},
{
layerId = "8F7CDE40-C368-4484-AA71-76B7ABD5539F";
width = 293;
},
{
layerId = "997BDFA1-EC67-4686-8CFE-E56BDBE179FE";
shapes = (
{
closed = 1;
nodes = (
(267,491,l),
(204,489,o),
(167,456,o),
(154,393,cs),
(152,383,o),
(151,374,o),
(151,365,cs),
(151,321,o),
(177,297,o),
(229,294,c),
(221,256,l),
(145,259,o),
(107,291,o),
(107,354,cs),
(107,367,o),
(109,380,o),
(111,393,cs),
(129,480,o),
(183,526,o),
(274,529,c)
);
}
);
width = 208;
}
);
unicode = 723;
}
{
glyphname = crossaccentmod;
layers = (
{
layerId = master01;
shapes = (
{
closed = 1;
nodes = (
(262,546,l),
(318,477,l),
(346,501,l),
(291,570,l),
(373,639,l),
(354,664,l),
(271,594,l),
(216,664,l),
(187,639,l),
(242,570,l),
(160,501,l),
(180,477,l)
);
}
);
width = 304;
},
{
layerId = "2438E31C-45B5-47A7-9B3D-1A0FEFB47671";
shapes = (
{
closed = 1;
nodes = (
(148,535,l),
(192,472,l),
(237,507,l),
(192,569,l),
(273,633,l),
(247,670,l),
(166,606,l),
(122,670,l),
(76,634,l),
(121,572,l),
(38,508,l),
(65,470,l)
);
}
);
width = 304;
},
{
layerId = "7904EAEE-2B64-409E-B923-0048172372BE";
shapes = (
{
closed = 1;
nodes = (
(300,549,l),
(360,478,l),
(383,499,l),
(324,571,l),
(406,641,l),
(390,662,l),
(307,590,l),
(248,662,l),
(224,641,l),
(283,570,l),
(201,499,l),
(219,479,l)
);
}
);
width = 304;
},
{
layerId = "E06D8587-1A71-4EC2-BD94-397D882F5FC1";
shapes = (
{
closed = 1;
nodes = (
(212,542,l),
(253,475,l),
(281,503,l),
(241,570,l),
(306,637,l),
(288,666,l),
(223,598,l),
(182,666,l),
(153,637,l),
(194,571,l),
(128,503,l),
(146,475,l)
);
}
);
width = 250;
},
{
layerId = "8F7CDE40-C368-4484-AA71-76B7ABD5539F";
shapes = (
{
closed = 1;
nodes = (
(311,549,l),
(383,478,l),
(411,499,l),
(341,571,l),
(440,641,l),
(420,662,l),
(320,590,l),
(250,662,l),
(221,641,l),
(290,570,l),
(192,499,l),
(214,479,l)
);
}
);
width = 358;
},
{
layerId = "997BDFA1-EC67-4686-8CFE-E56BDBE179FE";
shapes = (
{
closed = 1;
nodes = (
(262,546,l),
(318,477,l),
(346,501,l),
(291,570,l),
(373,639,l),
(354,664,l),
(271,594,l),
(216,664,l),
(187,639,l),
(242,570,l),
(160,501,l),
(180,477,l)
);
}
);
width = 304;
}
);
unicode = 735;
}
{
glyphname = beginhightonemod;
layers = (
{
layerId = master01;
shapes = (
{
closed = 1;
nodes = (
(83,224,l),
(173,613,l),
(360,613,l),
(369,652,l),
(137,652,l),
(38,224,l)
);
}
);
width = 293;
},
{
layerId = "2438E31C-45B5-47A7-9B3D-1A0FEFB47671";
shapes = (
{
closed = 1;
nodes = (
(47,301,l),
(158,687,l),
(341,687,l),
(354,730,l),
(121,730,l),
(-2,301,l)
);
}
);
width = 349;
},
{
layerId = "7904EAEE-2B64-409E-B923-0048172372BE";
shapes = (
{
closed = 1;
nodes = (
(95,198,l),
(178,589,l),
(367,589,l),
(374,626,l),
(142,626,l),
(51,198,l)
);
}
);
width = 275;
},
{
layerId = "E06D8587-1A71-4EC2-BD94-397D882F5FC1";
shapes = (
{
closed = 1;
nodes = (
(68,250,l),
(146,638,l),
(295,638,l),
(304,678,l),
(118,678,l),
(30,250,l)
);
}
);
width = 243;
},
{
layerId = "8F7CDE40-C368-4484-AA71-76B7ABD5539F";
shapes = (
{
closed = 1;
nodes = (
(98,198,l),
(199,589,l),
(426,589,l),
(435,626,l),
(156,626,l),
(46,198,l)
);
}
);
width = 344;
},
{
layerId = "997BDFA1-EC67-4686-8CFE-E56BDBE179FE";
shapes = (
{
closed = 1;
nodes = (
(83,224,l),
(173,613,l),
(360,613,l),
(369,652,l),
(137,652,l),
(38,224,l)
);
}
);
width = 293;
}
);
unicode = 761;
}
{
glyphname = endlowtonemod;
layers = (
{
layerId = master01;
shapes = (
{
closed = 1;
nodes = (
(250,0,l),
(348,428,l),
(303,428,l),
(213,39,l),
(26,39,l),
(17,0,l)
);
}
);
width = 340;
},
{
layerId = "2438E31C-45B5-47A7-9B3D-1A0FEFB47671";
shapes = (
{
closed = 1;
nodes = (
(218,0,l),
(341,428,l),
(292,428,l),
(181,43,l),
(-2,43,l),
(-15,0,l)
);
}
);
width = 330;
},
{
layerId = "7904EAEE-2B64-409E-B923-0048172372BE";
shapes = (
{
closed = 1;
nodes = (
(260,0,l),
(351,428,l),
(307,428,l),
(224,38,l),
(35,38,l),
(28,0,l)
);
}
);
width = 344;
},
{
layerId = "E06D8587-1A71-4EC2-BD94-397D882F5FC1";
shapes = (
{
closed = 1;
nodes = (
(200,0,l),
(287,428,l),
(250,428,l),
(171,41,l),
(22,41,l),
(14,0,l)
);
}
);
width = 281;
},
{
layerId = "8F7CDE40-C368-4484-AA71-76B7ABD5539F";
shapes = (
{
closed = 1;
nodes = (
(299,0,l),
(410,428,l),
(357,428,l),
(256,38,l),
(30,38,l),
(21,0,l)
);
}
);
width = 400;
},
{
layerId = "997BDFA1-EC67-4686-8CFE-E56BDBE179FE";
shapes = (
{
closed = 1;
nodes = (
(250,0,l),
(348,428,l),
(303,428,l),
(213,39,l),
(26,39,l),
(17,0,l)
);
}
);
width = 340;
}
);
unicode = 764;
}
