Junicode-width.glyphspackage
{
glyphname = one;
layers = (
{
layerId = master01;
shapes = (
{
closed = 1;
nodes = (
(140,-1,o),
(193,0,o),
(241,0,cs),
(288,0,o),
(341,-1,o),
(389,-4,c),
(398,-4,o),
(398,24,o),
(389,24,cs),
(297,24,o),
(282,43,o),
(282,128,cs),
(282,580,ls),
(282,595,o),
(283,624,o),
(285,654,c),
(285,664,o),
(283,671,o),
(279,671,cs),
(275,671,o),
(273,670,o),
(271,668,cs),
(220,621,o),
(144,578,o),
(84,553,cs),
(76,549,o),
(87,526,o),
(94,530,cs),
(122,544,o),
(164,562,o),
(185,571,cs),
(201,577,o),
(207,576,o),
(207,552,cs),
(207,127,ls),
(207,43,o),
(194,24,o),
(92,24,cs),
(83,24,o),
(83,-4,o),
(92,-4,c)
);
}
);
width = 467;
},
{
layerId = "75918100-ED89-42A8-B0FE-888EB9C86810";
shapes = (
{
closed = 1;
nodes = (
(134,-1,o),
(189,0,o),
(241,0,cs),
(292,0,o),
(348,-1,o),
(398,-4,c),
(409,-4,o),
(408,33,o),
(398,33,cs),
(315,33,o),
(300,53,o),
(300,138,cs),
(300,567,ls),
(300,596,o),
(301,622,o),
(303,645,c),
(303,662,o),
(296,671,o),
(282,671,cs),
(275,671,o),
(268,668,o),
(259,661,cs),
(204,618,o),
(124,572,o),
(58,543,cs),
(46,538,o),
(57,508,o),
(69,514,cs),
(88,523,o),
(146,548,o),
(170,556,cs),
(182,561,o),
(189,556,o),
(189,531,cs),
(189,137,ls),
(189,53,o),
(173,33,o),
(83,33,cs),
(73,33,o),
(73,-4,o),
(83,-4,c)
);
}
);
width = 466;
},
{
layerId = "6ABD9449-5E80-4451-809E-12ADEB9E9AB4";
shapes = (
{
closed = 1;
nodes = (
(143,-1,o),
(194,0,o),
(241,0,cs),
(287,0,o),
(339,-1,o),
(385,-4,c),
(395,-4,o),
(395,21,o),
(385,21,cs),
(291,21,o),
(276,41,o),
(276,125,cs),
(276,584,ls),
(276,595,o),
(276,624,o),
(279,657,c),
(279,664,o),
(279,670,o),
(277,670,cs),
(275,670,o),
(274,668,o),
(271,666,cs),
(214,621,o),
(152,583,o),
(98,555,cs),
(90,551,o),
(102,532,o),
(106,535,cs),
(128,546,o),
(170,567,o),
(190,576,cs),
(207,583,o),
(213,583,o),
(213,559,cs),
(213,124,ls),
(213,41,o),
(201,21,o),
(96,21,cs),
(86,21,o),
(86,-4,o),
(96,-4,c)
);
}
);
width = 467;
},
{
layerId = "70B83247-6FA0-4662-9656-C86DD2A17D3B";
shapes = (
{
closed = 1;
nodes = (
(110,-1,o),
(155,0,o),
(195,0,cs),
(235,0,o),
(281,-1,o),
(321,-4,c),
(329,-4,o),
(328,27,o),
(321,27,cs),
(242,27,o),
(234,46,o),
(234,131,cs),
(234,576,ls),
(234,593,o),
(234,621,o),
(236,651,c),
(236,663,o),
(233,671,o),
(227,671,cs),
(224,671,o),
(220,669,o),
(216,666,cs),
(179,628,o),
(118,579,o),
(60,547,cs),
(52,543,o),
(63,521,o),
(72,525,cs),
(96,540,o),
(126,557,o),
(146,566,cs),
(160,573,o),
(163,568,o),
(163,545,cs),
(163,130,ls),
(163,46,o),
(156,27,o),
(70,27,cs),
(62,27,o),
(63,-4,o),
(70,-4,c)
);
}
);
width = 384;
},
{
layerId = "9E6FDE2E-55A6-44A9-9556-F1822294BF26";
shapes = (
{
closed = 1;
nodes = (
(170,-1,o),
(230,0,o),
(286,0,cs),
(341,0,o),
(401,-1,o),
(457,-4,c),
(467,-4,o),
(469,21,o),
(457,21,cs),
(353,21,o),
(331,41,o),
(331,125,cs),
(331,584,ls),
(331,598,o),
(331,626,o),
(334,657,c),
(334,664,o),
(333,671,o),
(331,671,cs),
(327,671,o),
(326,670,o),
(326,670,cs),
(261,613,o),
(170,578,o),
(109,558,cs),
(99,554,o),
(111,532,o),
(116,534,cs),
(148,548,o),
(202,567,o),
(224,575,cs),
(242,582,o),
(251,584,o),
(251,558,cs),
(251,124,ls),
(251,41,o),
(232,21,o),
(115,21,cs),
(103,21,o),
(104,-4,o),
(115,-4,c)
);
}
);
width = 549;
},
{
layerId = "00F4936D-6309-4DEC-83B3-42806ED1A477";
shapes = (
{
closed = 1;
nodes = (
(140,-1,o),
(193,0,o),
(241,0,cs),
(288,0,o),
(341,-1,o),
(389,-4,c),
(398,-4,o),
(398,24,o),
(389,24,cs),
(297,24,o),
(282,43,o),
(282,128,cs),
(282,580,ls),
(282,595,o),
(283,624,o),
(285,654,c),
(285,664,o),
(283,671,o),
(279,671,cs),
(275,671,o),
(273,670,o),
(271,668,cs),
(220,621,o),
(144,578,o),
(84,553,cs),
(76,549,o),
(87,526,o),
(94,530,cs),
(122,544,o),
(164,562,o),
(185,571,cs),
(201,577,o),
(207,576,o),
(207,552,cs),
(207,127,ls),
(207,43,o),
(194,24,o),
(92,24,cs),
(83,24,o),
(83,-4,o),
(92,-4,c)
);
}
);
width = 467;
}
);
metricWidth = zero;
unicode = 49;
}
{
glyphname = seven;
layers = (
{
layerId = master01;
shapes = (
{
closed = 1;
nodes = (
(170,-7,o),
(183,-4,o),
(185,0,cs),
(434,617,ls),
(437,624,o),
(438,628,o),
(438,632,cs),
(438,639,o),
(432,643,o),
(419,643,cs),
(86,643,ls),
(75,643,o),
(68,638,o),
(66,628,cs),
(41,507,ls),
(40,502,o),
(46,500,o),
(54,500,cs),
(63,500,o),
(68,502,o),
(70,507,cs),
(83,540,o),
(106,561,o),
(132,568,cs),
(157,576,o),
(191,577,o),
(244,577,cs),
(349,577,ls),
(360,577,o),
(365,575,o),
(365,571,cs),
(365,568,o),
(364,563,o),
(361,556,cs),
(112,0,l),
(112,-4,o),
(124,-7,o),
(147,-7,cs)
);
}
);
width = 467;
},
{
layerId = "75918100-ED89-42A8-B0FE-888EB9C86810";
shapes = (
{
closed = 1;
nodes = (
(181,-11,o),
(195,-7,o),
(198,0,cs),
(444,617,ls),
(445,621,o),
(446,625,o),
(446,627,cs),
(446,638,o),
(437,643,o),
(419,643,cs),
(86,643,ls),
(67,643,o),
(64,640,o),
(59,615,cs),
(34,497,ls),
(33,490,o),
(41,486,o),
(58,486,cs),
(69,486,o),
(76,489,o),
(78,494,cs),
(88,516,o),
(104,533,o),
(124,543,cs),
(143,552,o),
(170,557,o),
(208,557,cs),
(334,557,ls),
(341,557,o),
(348,556,o),
(348,552,cs),
(348,548,o),
(346,543,o),
(343,536,cs),
(85,10,l),
(85,-8,o),
(116,-11,o),
(153,-11,cs)
);
}
);
width = 466;
},
{
layerId = "6ABD9449-5E80-4451-809E-12ADEB9E9AB4";
shapes = (
{
closed = 1;
nodes = (
(167,-5,o),
(178,-3,o),
(181,0,cs),
(431,617,ls),
(434,625,o),
(436,630,o),
(436,633,cs),
(436,640,o),
(430,643,o),
(419,643,cs),
(86,643,ls),
(77,643,o),
(69,638,o),
(68,632,cs),
(43,510,ls),
(42,507,o),
(47,505,o),
(53,505,cs),
(60,505,o),
(65,507,o),
(67,511,cs),
(81,548,o),
(107,570,o),
(135,577,cs),
(162,583,o),
(198,584,o),
(256,584,cs),
(354,584,ls),
(366,584,o),
(371,581,o),
(371,577,cs),
(371,574,o),
(370,570,o),
(367,563,cs),
(121,-3,l),
(121,-3,o),
(126,-5,o),
(145,-5,cs)
);
}
);
width = 467;
},
{
layerId = "70B83247-6FA0-4662-9656-C86DD2A17D3B";
shapes = (
{
closed = 1;
nodes = (
(143,-8,o),
(152,-5,o),
(154,0,cs),
(352,617,ls),
(354,622,o),
(355,626,o),
(355,630,cs),
(355,639,o),
(349,643,o),
(337,643,cs),
(71,643,ls),
(60,643,o),
(55,639,o),
(53,624,cs),
(33,504,ls),
(32,499,o),
(37,496,o),
(47,496,cs),
(55,496,o),
(59,499,o),
(60,503,cs),
(70,532,o),
(86,552,o),
(105,561,cs),
(125,569,o),
(152,571,o),
(187,571,cs),
(277,571,ls),
(285,571,o),
(289,569,o),
(289,565,cs),
(289,562,o),
(288,557,o),
(285,550,cs),
(83,3,l),
(83,-5,o),
(99,-8,o),
(122,-8,cs)
);
}
);
width = 384;
},
{
layerId = "9E6FDE2E-55A6-44A9-9556-F1822294BF26";
shapes = (
{
closed = 1;
nodes = (
(197,-5,o),
(213,-4,o),
(216,0,cs),
(516,617,ls),
(520,625,o),
(521,630,o),
(521,633,cs),
(521,640,o),
(515,643,o),
(501,643,cs),
(101,643,ls),
(90,643,o),
(81,638,o),
(79,632,cs),
(49,510,ls),
(48,506,o),
(55,504,o),
(62,504,cs),
(70,504,o),
(77,506,o),
(80,511,cs),
(96,548,o),
(127,569,o),
(160,576,cs),
(188,582,o),
(230,583,o),
(302,583,cs),
(421,583,ls),
(435,583,o),
(441,581,o),
(441,577,cs),
(441,574,o),
(441,570,o),
(437,562,cs),
(140,-3,l),
(140,-3,o),
(148,-5,o),
(172,-5,cs)
);
}
);
width = 549;
},
{
layerId = "00F4936D-6309-4DEC-83B3-42806ED1A477";
shapes = (
{
closed = 1;
nodes = (
(170,-7,o),
(183,-4,o),
(185,0,cs),
(434,617,ls),
(437,624,o),
(438,628,o),
(438,632,cs),
(438,639,o),
(432,643,o),
(419,643,cs),
(86,643,ls),
(75,643,o),
(68,638,o),
(66,628,cs),
(41,507,ls),
(40,502,o),
(46,500,o),
(54,500,cs),
(63,500,o),
(68,502,o),
(70,507,cs),
(83,540,o),
(106,561,o),
(132,568,cs),
(157,576,o),
(191,577,o),
(244,577,cs),
(349,577,ls),
(360,577,o),
(365,575,o),
(365,571,cs),
(365,568,o),
(364,563,o),
(361,556,cs),
(112,0,l),
(112,-4,o),
(124,-7,o),
(147,-7,cs)
);
}
);
width = 467;
}
);
metricWidth = zero;
unicode = 55;
}
{
glyphname = B;
kernLeft = B;
kernRight = B;
layers = (
{
anchors = (
{
name = bottom;
pos = (304,0);
},
{
name = top;
pos = (269,663);
},
{
name = zzcurly;
pos = (246,655);
}
);
layerId = master01;
shapes = (
{
closed = 1;
nodes = (
(87,-1,o),
(129,0,o),
(171,0,cs),
(215,0,o),
(273,-3,o),
(307,-3,cs),
(459,-3,o),
(551,49,o),
(551,171,cs),
(551,268,o),
(484,335,o),
(398,356,c),
(398,359,l),
(469,392,o),
(506,439,o),
(506,508,cs),
(506,617,o),
(416,666,o),
(307,666,cs),
(273,666,o),
(215,663,o),
(171,663,cs),
(127,663,o),
(84,664,o),
(40,666,c),
(30,666,o),
(31,629,o),
(40,629,cs),
(102,629,o),
(132,611,o),
(132,575,cs),
(132,91,ls),
(132,53,o),
(103,34,o),
(44,34,cs),
(35,34,o),
(36,-3,o),
(44,-3,c)
);
},
{
closed = 1;
nodes = (
(240,28,o),
(210,64,o),
(210,137,cs),
(210,339,l),
(228,339,ls),
(345,339,o),
(463,313,o),
(463,183,cs),
(463,80,o),
(409,28,o),
(300,28,cs)
);
},
{
closed = 1;
nodes = (
(210,604,ls),
(210,625,o),
(219,636,o),
(236,636,cs),
(360,636,o),
(422,593,o),
(422,507,cs),
(422,415,o),
(364,369,o),
(249,369,cs),
(210,369,l)
);
}
);
width = 610;
},
{
anchors = (
{
name = bottom;
pos = (274,0);
},
{
name = top;
pos = (270,660);
},
{
name = zzcurly;
pos = (248,655);
}
);
layerId = "75918100-ED89-42A8-B0FE-888EB9C86810";
shapes = (
{
closed = 1;
nodes = (
(85,-1,o),
(131,0,o),
(177,0,cs),
(221,0,o),
(281,-3,o),
(315,-3,cs),
(479,-3,o),
(578,54,o),
(578,183,cs),
(578,270,o),
(503,341,o),
(422,358,c),
(422,361,l),
(483,379,o),
(530,435,o),
(530,500,cs),
(530,613,o),
(440,666,o),
(313,666,cs),
(281,666,o),
(221,663,o),
(177,663,cs),
(129,663,o),
(82,664,o),
(34,666,c),
(24,666,o),
(24,621,o),
(34,621,cs),
(90,621,o),
(118,603,o),
(118,567,cs),
(118,99,ls),
(118,65,o),
(85,42,o),
(39,42,cs),
(29,42,o),
(29,-3,o),
(39,-3,c)
);
},
{
closed = 1;
nodes = (
(261,37,o),
(236,65,o),
(236,122,cs),
(236,335,l),
(249,335,ls),
(370,335,o),
(445,291,o),
(445,183,cs),
(445,89,o),
(400,37,o),
(310,37,cs)
);
},
{
closed = 1;
nodes = (
(236,595,ls),
(236,617,o),
(245,628,o),
(262,628,cs),
(347,628,o),
(412,588,o),
(412,498,cs),
(412,416,o),
(359,372,o),
(271,372,cs),
(236,372,l)
);
}
);
width = 625;
},
{
anchors = (
{
name = bottom;
pos = (315,0);
},
{
name = top;
pos = (269,664);
},
{
name = zzcurly;
pos = (237,655);
}
);
layerId = "6ABD9449-5E80-4451-809E-12ADEB9E9AB4";
shapes = (
{
closed = 1;
nodes = (
(88,-1,o),
(129,0,o),
(170,0,cs),
(214,0,o),
(271,-3,o),
(305,-3,cs),
(454,-3,o),
(543,48,o),
(543,167,cs),
(543,267,o),
(477,326,o),
(393,356,c),
(393,360,l),
(463,397,o),
(499,440,o),
(499,511,cs),
(499,618,o),
(409,666,o),
(306,666,cs),
(271,666,o),
(214,663,o),
(170,663,cs),
(128,663,o),
(85,664,o),
(43,666,c),
(33,666,o),
(34,631,o),
(43,631,cs),
(106,631,o),
(138,614,o),
(138,578,cs),
(138,88,ls),
(138,49,o),
(110,31,o),
(47,31,cs),
(38,31,o),
(39,-3,o),
(47,-3,c)
);
},
{
closed = 1;
nodes = (
(234,25,o),
(203,63,o),
(203,140,cs),
(203,340,l),
(222,340,ls),
(337,340,o),
(470,319,o),
(470,183,cs),
(470,77,o),
(413,25,o),
(298,25,cs)
);
},
{
closed = 1;
nodes = (
(203,606,ls),
(203,628,o),
(211,639,o),
(228,639,cs),
(365,639,o),
(426,595,o),
(426,510,cs),
(426,416,o),
(367,369,o),
(243,369,cs),
(203,369,l)
);
}
);
width = 608;
},
{
anchors = (
{
name = bottom;
pos = (251,0);
},
{
name = top;
pos = (230,662);
},
{
name = zzcurly;
pos = (207,655);
}
);
layerId = "70B83247-6FA0-4662-9656-C86DD2A17D3B";
shapes = (
{
closed = 1;
nodes = (
(73,-1,o),
(108,0,o),
(144,0,cs),
(178,0,o),
(231,-3,o),
(265,-3,cs),
(397,-3,o),
(478,51,o),
(478,174,cs),
(478,268,o),
(420,334,o),
(348,357,c),
(348,360,l),
(405,387,o),
(438,438,o),
(438,506,cs),
(438,616,o),
(362,666,o),
(265,666,cs),
(231,666,o),
(178,663,o),
(144,663,cs),
(107,663,o),
(70,664,o),
(34,666,c),
(25,666,o),
(26,629,o),
(34,629,cs),
(84,629,o),
(109,611,o),
(109,575,cs),
(109,91,ls),
(109,54,o),
(83,34,o),
(37,34,cs),
(29,34,o),
(30,-3,o),
(37,-3,c)
);
},
{
closed = 1;
nodes = (
(211,28,o),
(188,62,o),
(188,128,cs),
(188,339,l),
(201,339,ls),
(301,339,o),
(390,307,o),
(390,183,cs),
(390,80,o),
(346,28,o),
(259,28,cs)
);
},
{
closed = 1;
nodes = (
(188,604,ls),
(188,625,o),
(195,636,o),
(209,636,cs),
(303,636,o),
(357,593,o),
(357,504,cs),
(357,415,o),
(309,369,o),
(220,369,cs),
(188,369,l)
);
}
);
width = 528;
},
{
anchors = (
{
name = bottom;
pos = (358,0);
},
{
name = top;
pos = (308,664);
},
{
name = zzcurly;
pos = (286,655);
}
);
layerId = "9E6FDE2E-55A6-44A9-9556-F1822294BF26";
shapes = (
{
closed = 1;
nodes = (
(102,-1,o),
(150,0,o),
(200,0,cs),
(253,0,o),
(316,-3,o),
(350,-3,cs),
(522,-3,o),
(625,48,o),
(625,167,cs),
(625,268,o),
(549,336,o),
(450,355,c),
(450,358,l),
(535,396,o),
(574,440,o),
(574,511,cs),
(574,618,o),
(471,666,o),
(351,666,cs),
(316,666,o),
(253,663,o),
(200,663,cs),
(148,663,o),
(99,664,o),
(47,666,c),
(36,666,o),
(37,629,o),
(47,629,cs),
(120,629,o),
(156,611,o),
(156,575,cs),
(156,91,ls),
(156,52,o),
(124,34,o),
(53,34,cs),
(42,34,o),
(42,-3,o),
(53,-3,c)
);
},
{
closed = 1;
nodes = (
(270,28,o),
(234,66,o),
(234,145,cs),
(234,339,l),
(255,339,ls),
(389,339,o),
(537,318,o),
(537,183,cs),
(537,79,o),
(473,28,o),
(342,28,cs)
);
},
{
closed = 1;
nodes = (
(234,604,ls),
(234,625,o),
(243,636,o),
(263,636,cs),
(418,636,o),
(488,593,o),
(488,509,cs),
(488,416,o),
(420,369,o),
(279,369,cs),
(234,369,l)
);
}
);
width = 696;
},
{
anchors = (
{
name = bottom;
pos = (304,0);
},
{
name = top;
pos = (269,663);
},
{
name = zzcurly;
pos = (246,655);
}
);
layerId = "00F4936D-6309-4DEC-83B3-42806ED1A477";
shapes = (
{
closed = 1;
nodes = (
(87,-1,o),
(129,0,o),
(171,0,cs),
(215,0,o),
(273,-3,o),
(307,-3,cs),
(459,-3,o),
(551,49,o),
(551,171,cs),
(551,268,o),
(484,335,o),
(398,356,c),
(398,359,l),
(469,392,o),
(506,439,o),
(506,508,cs),
(506,617,o),
(416,666,o),
(307,666,cs),
(273,666,o),
(215,663,o),
(171,663,cs),
(127,663,o),
(84,664,o),
(40,666,c),
(30,666,o),
(31,629,o),
(40,629,cs),
(102,629,o),
(132,611,o),
(132,575,cs),
(132,91,ls),
(132,53,o),
(103,34,o),
(44,34,cs),
(35,34,o),
(36,-3,o),
(44,-3,c)
);
},
{
closed = 1;
nodes = (
(240,28,o),
(210,64,o),
(210,137,cs),
(210,339,l),
(228,339,ls),
(345,339,o),
(463,313,o),
(463,183,cs),
(463,80,o),
(409,28,o),
(300,28,cs)
);
},
{
closed = 1;
nodes = (
(210,604,ls),
(210,625,o),
(219,636,o),
(236,636,cs),
(360,636,o),
(422,593,o),
(422,507,cs),
(422,415,o),
(364,369,o),
(249,369,cs),
(210,369,l)
);
}
);
width = 610;
}
);
unicode = 66;
}
{
glyphname = G;
kernLeft = C;
kernRight = G;
layers = (
{
anchors = (
{
name = bottom;
pos = (375,0);
},
{
name = cedilla;
pos = (371,0);
},
{
name = center;
pos = (552,148);
},
{
name = top;
pos = (381,663);
},
{
name = zzcurly;
pos = (319,655);
}
);
layerId = master01;
shapes = (
{
closed = 1;
nodes = (
(422,-13,o),
(441,-11,o),
(513,1,cs),
(551,8,o),
(604,15,o),
(619,15,cs),
(628,15,o),
(628,38,o),
(619,38,cs),
(606,38,o),
(601,48,o),
(601,70,cs),
(601,177,ls),
(601,215,o),
(624,233,o),
(669,233,cs),
(680,233,o),
(679,271,o),
(669,271,c),
(630,268,o),
(591,268,o),
(552,268,cs),
(505,268,o),
(458,268,o),
(411,271,c),
(401,271,o),
(402,233,o),
(411,233,cs),
(485,233,o),
(522,215,o),
(522,177,cs),
(522,84,ls),
(522,36,o),
(494,23,o),
(408,23,cs),
(241,23,o),
(138,166,o),
(138,354,cs),
(138,521,o),
(245,642,o),
(393,642,cs),
(502,642,o),
(582,580,o),
(582,495,c),
(583,486,o),
(616,485,o),
(616,498,cs),
(616,575,o),
(611,621,o),
(602,648,c),
(587,648,o),
(567,652,o),
(526,662,cs),
(486,670,o),
(449,676,o),
(408,676,cs),
(203,676,o),
(44,523,o),
(44,326,cs),
(44,132,o),
(186,-13,o),
(375,-13,cs)
);
}
);
width = 688;
},
{
anchors = (
{
name = bottom;
pos = (384,0);
},
{
name = cedilla;
pos = (379,0);
},
{
name = center;
pos = (566,148);
},
{
name = top;
pos = (390,663);
},
{
name = zzcurly;
pos = (323,655);
}
);
layerId = "75918100-ED89-42A8-B0FE-888EB9C86810";
shapes = (
{
closed = 1;
nodes = (
(430,-13,o),
(483,-8,o),
(541,2,cs),
(602,12,o),
(640,17,o),
(656,17,cs),
(666,17,o),
(665,56,o),
(656,56,cs),
(642,56,o),
(635,63,o),
(635,78,cs),
(635,196,ls),
(635,221,o),
(652,233,o),
(688,233,cs),
(697,233,o),
(697,278,o),
(688,278,c),
(647,275,o),
(606,275,o),
(565,275,cs),
(518,275,o),
(470,275,o),
(422,278,c),
(412,278,o),
(413,233,o),
(422,233,cs),
(500,233,o),
(516,227,o),
(516,196,cs),
(516,78,ls),
(516,47,o),
(479,33,o),
(412,33,cs),
(264,33,o),
(169,167,o),
(169,344,cs),
(169,517,o),
(267,633,o),
(412,633,cs),
(518,633,o),
(588,574,o),
(588,486,c),
(591,475,o),
(634,479,o),
(634,490,cs),
(634,564,o),
(628,612,o),
(614,649,c),
(595,650,o),
(575,654,o),
(537,661,cs),
(491,670,o),
(453,676,o),
(409,676,cs),
(185,676,o),
(36,532,o),
(36,316,cs),
(36,128,o),
(185,-13,o),
(385,-13,cs)
);
}
);
width = 704;
},
{
anchors = (
{
name = bottom;
pos = (374,0);
},
{
name = cedilla;
pos = (369,0);
},
{
name = center;
pos = (549,148);
},
{
name = top;
pos = (379,663);
},
{
name = zzcurly;
pos = (319,655);
}
);
layerId = "6ABD9449-5E80-4451-809E-12ADEB9E9AB4";
shapes = (
{
closed = 1;
nodes = (
(423,-13,o),
(438,-12,o),
(505,0,cs),
(536,6,o),
(593,15,o),
(608,15,cs),
(617,15,o),
(617,31,o),
(608,31,cs),
(596,31,o),
(591,43,o),
(591,68,cs),
(591,171,ls),
(591,213,o),
(615,233,o),
(665,233,cs),
(675,233,o),
(675,268,o),
(665,268,c),
(626,266,o),
(587,265,o),
(549,265,cs),
(502,265,o),
(456,266,o),
(409,268,c),
(399,268,o),
(400,233,o),
(409,233,cs),
(482,233,o),
(526,211,o),
(526,171,cs),
(526,86,ls),
(526,38,o),
(462,20,o),
(395,20,cs),
(200,20,o),
(129,189,o),
(129,348,cs),
(129,543,o),
(243,645,o),
(390,645,cs),
(499,645,o),
(581,582,o),
(582,498,c),
(581,490,o),
(611,487,o),
(611,500,cs),
(611,579,o),
(607,624,o),
(599,647,c),
(586,647,o),
(566,652,o),
(523,662,cs),
(480,672,o),
(445,676,o),
(407,676,cs),
(207,676,o),
(49,523,o),
(49,329,cs),
(49,133,o),
(188,-13,o),
(373,-13,cs)
);
}
);
width = 685;
},
{
anchors = (
{
name = bottom;
pos = (309,0);
},
{
name = cedilla;
pos = (304,0);
},
{
name = center;
pos = (449,148);
},
{
name = top;
pos = (312,663);
},
{
name = zzcurly;
pos = (263,655);
}
);
layerId = "70B83247-6FA0-4662-9656-C86DD2A17D3B";
shapes = (
{
closed = 1;
nodes = (
(346,-13,o),
(369,-10,o),
(424,1,cs),
(458,9,o),
(500,16,o),
(511,16,cs),
(518,16,o),
(518,43,o),
(511,43,cs),
(500,43,o),
(495,53,o),
(495,73,cs),
(495,183,ls),
(495,216,o),
(512,233,o),
(546,233,cs),
(554,233,o),
(553,271,o),
(546,271,c),
(513,268,o),
(481,268,o),
(448,268,cs),
(411,268,o),
(374,268,o),
(337,271,c),
(329,271,o),
(329,233,o),
(337,233,cs),
(402,233,o),
(420,215,o),
(420,183,cs),
(420,83,ls),
(420,40,o),
(396,23,o),
(329,23,cs),
(199,23,o),
(131,164,o),
(131,352,cs),
(131,516,o),
(216,642,o),
(329,642,cs),
(413,642,o),
(472,580,o),
(472,492,c),
(474,483,o),
(502,482,o),
(502,496,cs),
(502,580,o),
(498,625,o),
(490,648,c),
(481,649,o),
(463,653,o),
(431,661,cs),
(393,670,o),
(361,676,o),
(327,676,cs),
(162,676,o),
(38,525,o),
(38,323,cs),
(38,132,o),
(154,-13,o),
(307,-13,cs)
);
}
);
width = 562;
},
{
anchors = (
{
name = bottom;
pos = (444,0);
},
{
name = cedilla;
pos = (439,0);
},
{
name = center;
pos = (657,148);
},
{
name = top;
pos = (452,663);
},
{
name = zzcurly;
pos = (378,655);
}
);
layerId = "9E6FDE2E-55A6-44A9-9556-F1822294BF26";
shapes = (
{
closed = 1;
nodes = (
(499,-13,o),
(520,-11,o),
(604,0,cs),
(646,7,o),
(709,15,o),
(729,15,cs),
(740,15,o),
(740,32,o),
(729,32,cs),
(714,32,o),
(708,43,o),
(708,68,cs),
(708,172,ls),
(708,213,o),
(737,233,o),
(795,233,cs),
(808,233,o),
(807,271,o),
(795,271,c),
(750,268,o),
(703,268,o),
(657,268,cs),
(601,268,o),
(544,268,o),
(487,271,c),
(476,271,o),
(477,233,o),
(487,233,cs),
(570,233,o),
(626,215,o),
(626,172,cs),
(626,86,ls),
(626,36,o),
(591,23,o),
(474,23,cs),
(275,23,o),
(146,147,o),
(146,337,cs),
(146,521,o),
(263,642,o),
(459,642,cs),
(593,642,o),
(694,580,o),
(694,498,c),
(693,490,o),
(731,487,o),
(731,500,cs),
(731,570,o),
(727,616,o),
(715,647,c),
(696,647,o),
(673,651,o),
(623,662,cs),
(569,672,o),
(516,676,o),
(477,676,cs),
(207,676,o),
(53,532,o),
(53,324,cs),
(53,123,o),
(214,-13,o),
(442,-13,cs)
);
}
);
width = 818;
},
{
anchors = (
{
name = bottom;
pos = (375,0);
},
{
name = cedilla;
pos = (371,0);
},
{
name = center;
pos = (552,148);
},
{
name = top;
pos = (381,663);
},
{
name = zzcurly;
pos = (319,655);
}
);
layerId = "00F4936D-6309-4DEC-83B3-42806ED1A477";
shapes = (
{
closed = 1;
nodes = (
(422,-13,o),
(441,-11,o),
(513,1,cs),
(551,8,o),
(604,15,o),
(619,15,cs),
(628,15,o),
(628,38,o),
(619,38,cs),
(606,38,o),
(601,48,o),
(601,70,cs),
(601,177,ls),
(601,215,o),
(624,233,o),
(669,233,cs),
(680,233,o),
(679,271,o),
(669,271,c),
(630,268,o),
(591,268,o),
(552,268,cs),
(505,268,o),
(458,268,o),
(411,271,c),
(401,271,o),
(402,233,o),
(411,233,cs),
(485,233,o),
(522,215,o),
(522,177,cs),
(522,84,ls),
(522,36,o),
(494,23,o),
(408,23,cs),
(241,23,o),
(138,166,o),
(138,354,cs),
(138,521,o),
(245,642,o),
(393,642,cs),
(502,642,o),
(582,580,o),
(582,495,c),
(583,486,o),
(616,485,o),
(616,498,cs),
(616,575,o),
(611,621,o),
(602,648,c),
(587,648,o),
(567,652,o),
(526,662,cs),
(486,670,o),
(449,676,o),
(408,676,cs),
(203,676,o),
(44,523,o),
(44,326,cs),
(44,132,o),
(186,-13,o),
(375,-13,cs)
);
}
);
width = 688;
}
);
metricLeft = C;
unicode = 71;
}
{
glyphname = W;
kernLeft = V;
kernRight = V;
layers = (
{
anchors = (
{
name = bottom;
pos = (501,0);
},
{
name = top;
pos = (509,663);
},
{
name = zzcurly;
pos = (542,655);
}
);
layerId = master01;
shapes = (
{
closed = 1;
nodes = (
(359,-19,o),
(362,-12,o),
(369,3,cs),
(487,264,l),
(492,264,l),
(611,3,ls),
(618,-12,o),
(621,-19,o),
(624,-19,cs),
(627,-19,o),
(630,-12,o),
(637,3,cs),
(900,586,ls),
(913,614,o),
(940,628,o),
(982,628,cs),
(992,628,o),
(992,666,o),
(982,666,c),
(953,664,o),
(924,663,o),
(895,663,cs),
(866,663,o),
(836,664,o),
(807,666,c),
(798,666,o),
(798,628,o),
(807,628,cs),
(854,628,o),
(866,610,o),
(847,568,cs),
(646,128,l),
(643,128,l),
(532,375,l),
(626,586,ls),
(639,614,o),
(670,628,o),
(718,628,cs),
(727,628,o),
(728,666,o),
(718,666,c),
(688,664,o),
(657,663,o),
(626,663,cs),
(595,663,o),
(564,664,o),
(533,666,c),
(524,666,o),
(523,628,o),
(533,628,cs),
(580,628,o),
(593,610,o),
(574,568,cs),
(512,431,l),
(507,431,l),
(443,572,ls),
(426,612,o),
(439,628,o),
(491,628,cs),
(500,628,o),
(500,666,o),
(491,666,c),
(457,664,o),
(423,663,o),
(389,663,cs),
(354,663,o),
(321,664,o),
(287,666,c),
(278,666,o),
(277,628,o),
(287,628,cs),
(314,628,o),
(336,610,o),
(354,572,cs),
(468,317,l),
(381,128,l),
(377,128,l),
(177,572,ls),
(159,612,o),
(173,628,o),
(225,628,cs),
(234,628,o),
(234,666,o),
(225,666,c),
(190,664,o),
(155,663,o),
(121,663,cs),
(86,663,o),
(51,664,o),
(16,666,c),
(7,666,o),
(7,628,o),
(16,628,cs),
(47,628,o),
(71,610,o),
(88,572,cs),
(343,3,ls),
(350,-12,o),
(353,-19,o),
(356,-19,cs)
);
}
);
width = 971;
},
{
anchors = (
{
name = bottom;
pos = (508,0);
},
{
name = top;
pos = (531,663);
},
{
name = zzcurly;
pos = (568,655);
}
);
layerId = "75918100-ED89-42A8-B0FE-888EB9C86810";
shapes = (
{
closed = 1;
nodes = (
(371,-19,o),
(379,-12,o),
(386,3,cs),
(496,248,l),
(500,248,l),
(610,3,ls),
(617,-12,o),
(626,-19,o),
(635,-19,cs),
(644,-19,o),
(653,-12,o),
(660,3,cs),
(920,580,ls),
(933,607,o),
(962,621,o),
(1009,621,cs),
(1018,621,o),
(1019,667,o),
(1009,667,c),
(978,664,o),
(947,663,o),
(917,663,cs),
(886,663,o),
(855,664,o),
(825,667,c),
(815,667,o),
(815,621,o),
(825,621,cs),
(859,621,o),
(866,602,o),
(847,561,cs),
(667,166,l),
(662,166,l),
(561,391,l),
(646,580,ls),
(658,607,o),
(688,621,o),
(736,621,cs),
(746,621,o),
(745,667,o),
(736,667,c),
(707,664,o),
(677,663,o),
(648,663,cs),
(618,663,o),
(589,664,o),
(560,667,c),
(551,667,o),
(550,621,o),
(560,621,cs),
(589,621,o),
(593,602,o),
(574,561,cs),
(531,468,l),
(526,468,l),
(483,563,ls),
(464,604,o),
(472,621,o),
(507,621,cs),
(516,621,o),
(517,667,o),
(507,667,c),
(473,664,o),
(440,663,o),
(406,663,cs),
(373,663,o),
(339,664,o),
(306,667,c),
(296,667,o),
(296,621,o),
(306,621,cs),
(323,621,o),
(337,610,o),
(346,590,cs),
(466,324,l),
(394,166,l),
(389,166,l),
(210,563,ls),
(192,603,o),
(200,621,o),
(235,621,cs),
(244,621,o),
(245,667,o),
(235,667,c),
(198,664,o),
(162,663,o),
(125,663,cs),
(88,663,o),
(51,664,o),
(15,667,c),
(5,667,o),
(5,621,o),
(15,621,cs),
(45,621,o),
(68,602,o),
(85,563,cs),
(337,3,ls),
(344,-12,o),
(353,-19,o),
(362,-19,cs)
);
}
);
width = 1005;
},
{
anchors = (
{
name = bottom;
pos = (504,0);
},
{
name = top;
pos = (507,663);
},
{
name = zzcurly;
pos = (539,655);
}
);
layerId = "6ABD9449-5E80-4451-809E-12ADEB9E9AB4";
shapes = (
{
closed = 1;
nodes = (
(360,-19,o),
(363,-12,o),
(370,3,cs),
(490,270,l),
(494,270,l),
(614,3,ls),
(621,-12,o),
(624,-19,o),
(626,-19,cs),
(627,-19,o),
(630,-12,o),
(637,3,cs),
(903,589,ls),
(916,617,o),
(942,631,o),
(984,631,cs),
(993,631,o),
(994,666,o),
(984,666,c),
(955,664,o),
(926,663,o),
(898,663,cs),
(869,663,o),
(840,664,o),
(812,666,c),
(803,666,o),
(802,631,o),
(812,631,cs),
(861,631,o),
(876,612,o),
(857,570,cs),
(649,113,l),
(642,113,l),
(527,371,l),
(625,589,ls),
(638,617,o),
(669,631,o),
(718,631,cs),
(726,631,o),
(727,666,o),
(718,666,c),
(687,664,o),
(655,663,o),
(624,663,cs),
(592,663,o),
(561,664,o),
(530,666,c),
(520,666,o),
(520,631,o),
(530,631,cs),
(581,631,o),
(597,611,o),
(579,570,cs),
(511,418,l),
(506,418,l),
(436,575,ls),
(418,614,o),
(435,631,o),
(491,631,cs),
(499,631,o),
(500,666,o),
(491,666,c),
(456,664,o),
(422,663,o),
(388,663,cs),
(354,663,o),
(320,664,o),
(286,666,c),
(277,666,o),
(276,631,o),
(286,631,cs),
(317,631,o),
(342,610,o),
(361,566,cs),
(474,315,l),
(382,113,l),
(374,113,l),
(167,575,ls),
(149,614,o),
(166,631,o),
(222,631,cs),
(231,631,o),
(231,666,o),
(222,666,c),
(188,664,o),
(153,663,o),
(120,663,cs),
(85,663,o),
(51,664,o),
(17,666,c),
(8,666,o),
(8,631,o),
(17,631,cs),
(48,631,o),
(73,613,o),
(89,575,cs),
(346,3,ls),
(353,-12,o),
(356,-19,o),
(358,-19,cs)
);
}
);
width = 970;
},
{
anchors = (
{
name = bottom;
pos = (429,0);
},
{
name = top;
pos = (441,663);
},
{
name = zzcurly;
pos = (470,655);
}
);
layerId = "70B83247-6FA0-4662-9656-C86DD2A17D3B";
shapes = (
{
closed = 1;
nodes = (
(310,-19,o),
(314,-11,o),
(320,4,cs),
(417,259,l),
(421,259,l),
(517,4,ls),
(523,-11,o),
(528,-19,o),
(533,-19,cs),
(538,-19,o),
(542,-11,o),
(548,4,cs),
(773,587,ls),
(784,615,o),
(807,628,o),
(844,628,cs),
(852,628,o),
(853,666,o),
(844,666,c),
(820,664,o),
(796,663,o),
(769,663,cs),
(741,663,o),
(716,664,o),
(692,666,c),
(685,666,o),
(685,628,o),
(692,628,cs),
(726,628,o),
(737,607,o),
(722,568,cs),
(557,141,l),
(553,141,l),
(462,380,l),
(541,587,ls),
(551,615,o),
(576,628,o),
(617,628,cs),
(625,628,o),
(625,666,o),
(617,666,c),
(593,664,o),
(568,663,o),
(540,663,cs),
(511,663,o),
(487,664,o),
(462,666,c),
(455,666,o),
(454,628,o),
(462,628,cs),
(497,628,o),
(505,611,o),
(489,568,cs),
(442,443,l),
(438,443,l),
(390,572,ls),
(375,613,o),
(384,628,o),
(423,628,cs),
(431,628,o),
(431,666,o),
(423,666,c),
(396,664,o),
(369,663,o),
(337,663,cs),
(305,663,o),
(277,664,o),
(250,666,c),
(243,666,o),
(243,628,o),
(250,628,cs),
(269,628,o),
(285,614,o),
(297,581,cs),
(397,319,l),
(329,141,l),
(325,141,l),
(161,572,ls),
(146,612,o),
(157,628,o),
(195,628,cs),
(203,628,o),
(203,666,o),
(195,666,c),
(167,664,o),
(138,663,o),
(104,663,cs),
(71,663,o),
(42,664,o),
(14,666,c),
(6,666,o),
(6,628,o),
(14,628,cs),
(40,628,o),
(59,610,o),
(73,572,cs),
(290,4,ls),
(295,-11,o),
(300,-19,o),
(305,-19,cs)
);
}
);
width = 836;
},
{
anchors = (
{
name = bottom;
pos = (579,0);
},
{
name = top;
pos = (583,663);
},
{
name = zzcurly;
pos = (621,655);
}
);
layerId = "9E6FDE2E-55A6-44A9-9556-F1822294BF26";
shapes = (
{
closed = 1;
nodes = (
(413,-19,o),
(417,-12,o),
(424,3,cs),
(563,270,l),
(567,270,l),
(705,3,ls),
(713,-12,o),
(716,-19,o),
(719,-19,cs),
(721,-19,o),
(725,-12,o),
(732,3,cs),
(1036,586,ls),
(1051,614,o),
(1083,628,o),
(1131,628,cs),
(1142,628,o),
(1142,666,o),
(1131,666,c),
(1096,664,o),
(1062,663,o),
(1032,663,cs),
(1001,663,o),
(967,664,o),
(932,666,c),
(922,666,o),
(921,628,o),
(932,628,cs),
(989,628,o),
(1004,609,o),
(982,567,cs),
(746,114,l),
(738,114,l),
(606,371,l),
(717,586,ls),
(731,614,o),
(770,628,o),
(825,628,cs),
(835,628,o),
(835,666,o),
(825,666,c),
(788,664,o),
(751,663,o),
(717,663,cs),
(684,663,o),
(646,664,o),
(609,666,c),
(598,666,o),
(598,628,o),
(609,628,cs),
(667,628,o),
(684,608,o),
(663,567,cs),
(587,418,l),
(582,418,l),
(503,572,ls),
(483,612,o),
(499,628,o),
(564,628,cs),
(574,628,o),
(575,666,o),
(564,666,c),
(522,664,o),
(482,663,o),
(446,663,cs),
(410,663,o),
(370,664,o),
(328,666,c),
(318,666,o),
(317,628,o),
(328,628,cs),
(365,628,o),
(395,605,o),
(416,563,cs),
(543,315,l),
(438,114,l),
(430,114,l),
(194,572,ls),
(174,611,o),
(192,628,o),
(255,628,cs),
(266,628,o),
(267,666,o),
(255,666,c),
(214,664,o),
(173,663,o),
(137,663,cs),
(101,663,o),
(60,664,o),
(19,666,c),
(9,666,o),
(8,628,o),
(19,628,cs),
(56,628,o),
(84,610,o),
(104,572,cs),
(397,3,ls),
(405,-12,o),
(408,-19,o),
(411,-19,cs)
);
}
);
width = 1122;
},
{
anchors = (
{
name = bottom;
pos = (501,0);
},
{
name = top;
pos = (509,663);
},
{
name = zzcurly;
pos = (542,655);
}
);
layerId = "00F4936D-6309-4DEC-83B3-42806ED1A477";
shapes = (
{
closed = 1;
nodes = (
(359,-19,o),
(362,-12,o),
(369,3,cs),
(487,264,l),
(492,264,l),
(611,3,ls),
(618,-12,o),
(621,-19,o),
(624,-19,cs),
(627,-19,o),
(630,-12,o),
(637,3,cs),
(900,586,ls),
(913,614,o),
(940,628,o),
(982,628,cs),
(992,628,o),
(992,666,o),
(982,666,c),
(953,664,o),
(924,663,o),
(895,663,cs),
(866,663,o),
(836,664,o),
(807,666,c),
(798,666,o),
(798,628,o),
(807,628,cs),
(854,628,o),
(866,610,o),
(847,568,cs),
(646,128,l),
(643,128,l),
(532,375,l),
(626,586,ls),
(639,614,o),
(670,628,o),
(718,628,cs),
(727,628,o),
(728,666,o),
(718,666,c),
(688,664,o),
(657,663,o),
(626,663,cs),
(595,663,o),
(564,664,o),
(533,666,c),
(524,666,o),
(523,628,o),
(533,628,cs),
(580,628,o),
(593,610,o),
(574,568,cs),
(512,431,l),
(507,431,l),
(443,572,ls),
(426,612,o),
(439,628,o),
(491,628,cs),
(500,628,o),
(500,666,o),
(491,666,c),
(457,664,o),
(423,663,o),
(389,663,cs),
(354,663,o),
(321,664,o),
(287,666,c),
(278,666,o),
(277,628,o),
(287,628,cs),
(314,628,o),
(336,610,o),
(354,572,cs),
(468,317,l),
(381,128,l),
(377,128,l),
(177,572,ls),
(159,612,o),
(173,628,o),
(225,628,cs),
(234,628,o),
(234,666,o),
(225,666,c),
(190,664,o),
(155,663,o),
(121,663,cs),
(86,663,o),
(51,664,o),
(16,666,c),
(7,666,o),
(7,628,o),
(16,628,cs),
(47,628,o),
(71,610,o),
(88,572,cs),
(343,3,ls),
(350,-12,o),
(353,-19,o),
(356,-19,cs)
);
}
);
width = 971;
}
);
metricLeft = V;
metricRight = V;
unicode = 87;
}
{
glyphname = asciicircum;
layers = (
{
layerId = master01;
shapes = (
{
closed = 1;
nodes = (
(120,261,l),
(268,594,l),
(415,261,l),
(481,261,l),
(293,670,l),
(242,670,l),
(52,261,l)
);
}
);
width = 535;
},
{
layerId = "75918100-ED89-42A8-B0FE-888EB9C86810";
shapes = (
{
closed = 1;
nodes = (
(132,261,l),
(268,543,l),
(403,261,l),
(510,261,l),
(305,670,l),
(230,670,l),
(24,261,l)
);
}
);
width = 534;
},
{
layerId = "6ABD9449-5E80-4451-809E-12ADEB9E9AB4";
shapes = (
{
closed = 1;
nodes = (
(116,261,l),
(268,611,l),
(419,261,l),
(471,261,l),
(289,670,l),
(246,670,l),
(61,261,l)
);
}
);
width = 536;
},
{
layerId = "70B83247-6FA0-4662-9656-C86DD2A17D3B";
shapes = (
{
closed = 1;
nodes = (
(108,261,l),
(223,579,l),
(337,261,l),
(402,261,l),
(247,670,l),
(199,670,l),
(42,261,l)
);
}
);
width = 445;
},
{
layerId = "9E6FDE2E-55A6-44A9-9556-F1822294BF26";
shapes = (
{
closed = 1;
nodes = (
(132,261,l),
(313,609,l),
(493,261,l),
(560,261,l),
(339,670,l),
(286,670,l),
(62,261,l)
);
}
);
width = 625;
},
{
layerId = "00F4936D-6309-4DEC-83B3-42806ED1A477";
shapes = (
{
closed = 1;
nodes = (
(120,261,l),
(268,594,l),
(415,261,l),
(481,261,l),
(293,670,l),
(242,670,l),
(52,261,l)
);
}
);
width = 535;
}
);
unicode = 94;
}
{
color = 9;
glyphname = j;
kernLeft = j;
kernRight = j;
layers = (
{
anchors = (
{
name = bottom;
pos = (209,-53);
},
{
name = center;
pos = (140,223);
},
{
name = top;
pos = (122,617);
},
{
name = us;
pos = (248,415);
}
);
layerId = master01;
shapes = (
{
closed = 1;
nodes = (
(51,-271,o),
(91,-250,o),
(122,-207,cs),
(146,-173,o),
(162,-125,o),
(170,-63,cs),
(173,-36,o),
(175,-5,o),
(175,29,cs),
(175,342,ls),
(175,360,o),
(175,384,o),
(178,417,c),
(178,426,o),
(176,431,o),
(172,431,cs),
(168,431,o),
(162,427,o),
(151,419,cs),
(115,392,o),
(78,374,o),
(56,374,cs),
(47,374,o),
(47,346,o),
(56,346,cs),
(85,346,o),
(101,324,o),
(101,279,cs),
(101,-124,ls),
(101,-192,o),
(86,-228,o),
(56,-228,cs),
(43,-228,o),
(34,-222,o),
(21,-209,cs),
(8,-196,o),
(-6,-190,o),
(-22,-190,cs),
(-41,-190,o),
(-61,-203,o),
(-61,-224,cs),
(-61,-252,o),
(-30,-271,o),
(0,-271,cs)
);
},
{
closed = 1;
nodes = (
(155,512,o),
(178,536,o),
(178,565,cs),
(178,595,o),
(154,617,o),
(125,617,cs),
(95,617,o),
(73,594,o),
(73,565,cs),
(73,536,o),
(96,512,o),
(125,512,cs)
);
}
);
width = 253;
},
{
anchors = (
{
name = bottom;
pos = (225,-53);
},
{
name = center;
pos = (125,223);
},
{
name = top;
pos = (107,647);
},
{
name = us;
pos = (258,415);
}
);
layerId = "75918100-ED89-42A8-B0FE-888EB9C86810";
shapes = (
{
closed = 1;
nodes = (
(27,-271,o),
(84,-253,o),
(120,-205,cs),
(148,-167,o),
(166,-120,o),
(174,-62,cs),
(178,-36,o),
(179,7,o),
(179,68,cs),
(179,333,ls),
(179,360,o),
(179,388,o),
(183,418,c),
(183,427,o),
(178,431,o),
(171,431,cs),
(164,431,o),
(159,429,o),
(150,422,cs),
(110,390,o),
(60,369,o),
(22,369,cs),
(13,369,o),
(13,333,o),
(22,333,cs),
(52,333,o),
(67,313,o),
(67,272,cs),
(67,-112,ls),
(67,-185,o),
(58,-219,o),
(38,-219,cs),
(25,-219,o),
(12,-208,o),
(0,-188,cs),
(-12,-167,o),
(-26,-158,o),
(-41,-158,cs),
(-66,-158,o),
(-94,-175,o),
(-94,-208,cs),
(-94,-245,o),
(-53,-271,o),
(-16,-271,cs)
);
},
{
closed = 1;
nodes = (
(145,512,o),
(182,537,o),
(182,580,cs),
(182,614,o),
(154,647,o),
(111,647,cs),
(77,647,o),
(40,622,o),
(40,580,cs),
(40,545,o),
(67,512,o),
(111,512,cs)
);
}
);
width = 243;
},
{
anchors = (
{
name = bottom;
pos = (206,-53);
},
{
name = center;
pos = (145,223);
},
{
name = top;
pos = (127,606);
},
{
name = us;
pos = (248,415);
}
);
layerId = "6ABD9449-5E80-4451-809E-12ADEB9E9AB4";
shapes = (
{
closed = 1;
nodes = (
(59,-271,o),
(94,-248,o),
(123,-208,cs),
(146,-175,o),
(161,-127,o),
(169,-64,cs),
(172,-36,o),
(174,-9,o),
(174,16,cs),
(174,345,ls),
(174,360,o),
(174,383,o),
(177,417,c),
(177,426,o),
(176,431,o),
(172,431,cs),
(169,431,o),
(162,427,o),
(151,418,cs),
(121,392,o),
(88,375,o),
(67,375,cs),
(59,375,o),
(59,351,o),
(67,351,cs),
(97,351,o),
(112,328,o),
(112,281,cs),
(112,-128,ls),
(112,-199,o),
(97,-231,o),
(63,-231,cs),
(51,-231,o),
(41,-226,o),
(28,-216,cs),
(15,-206,o),
(0,-201,o),
(-16,-201,cs),
(-32,-201,o),
(-49,-212,o),
(-49,-229,cs),
(-49,-255,o),
(-22,-271,o),
(6,-271,cs)
);
},
{
closed = 1;
nodes = (
(158,512,o),
(177,535,o),
(177,560,cs),
(177,588,o),
(154,606,o),
(130,606,cs),
(101,606,o),
(84,585,o),
(84,560,cs),
(84,532,o),
(105,512,o),
(130,512,cs)
);
}
);
width = 259;
},
{
anchors = (
{
name = bottom;
pos = (181,-53);
},
{
name = center;
pos = (116,223);
},
{
name = top;
pos = (100,626);
},
{
name = us;
pos = (205,415);
}
);
guides = (
{
angle = -33.6134;
pos = (347,-569);
showMeasurement = 1;
},
{
pos = (-41,-389);
}
);
layerId = "70B83247-6FA0-4662-9656-C86DD2A17D3B";
shapes = (
{
closed = 1;
nodes = (
(43,-271,o),
(78,-250,o),
(104,-207,cs),
(126,-171,o),
(139,-124,o),
(146,-64,cs),
(150,-29,o),
(151,8,o),
(151,41,cs),
(151,339,ls),
(151,360,o),
(151,385,o),
(154,417,c),
(154,426,o),
(151,431,o),
(147,431,cs),
(144,431,o),
(137,428,o),
(128,420,cs),
(97,392,o),
(61,374,o),
(37,374,cs),
(28,374,o),
(28,346,o),
(37,346,cs),
(63,346,o),
(76,324,o),
(76,281,cs),
(76,-121,ls),
(76,-194,o),
(68,-228,o),
(52,-228,cs),
(45,-228,o),
(39,-225,o),
(27,-209,cs),
(18,-196,o),
(4,-190,o),
(-11,-190,cs),
(-27,-190,o),
(-47,-203,o),
(-47,-225,cs),
(-47,-252,o),
(-19,-271,o),
(8,-271,cs)
);
},
{
closed = 1;
nodes = (
(128,512,o),
(154,534,o),
(154,564,cs),
(154,593,o),
(133,617,o),
(103,617,cs),
(77,617,o),
(52,595,o),
(52,564,cs),
(52,537,o),
(73,512,o),
(103,512,cs)
);
}
);
width = 217;
},
{
anchors = (
{
name = bottom;
pos = (238,-53);
},
{
name = center;
pos = (164,223);
},
{
name = top;
pos = (144,607);
},
{
name = us;
pos = (292,415);
}
);
layerId = "9E6FDE2E-55A6-44A9-9556-F1822294BF26";
shapes = (
{
closed = 1;
nodes = (
(58,-271,o),
(105,-249,o),
(139,-208,cs),
(166,-175,o),
(185,-126,o),
(194,-63,cs),
(197,-42,o),
(200,-18,o),
(200,17,cs),
(200,345,ls),
(200,360,o),
(200,383,o),
(203,417,c),
(203,426,o),
(201,431,o),
(197,431,cs),
(193,431,o),
(186,427,o),
(173,418,cs),
(133,391,o),
(94,374,o),
(74,374,cs),
(65,374,o),
(65,346,o),
(74,346,cs),
(108,346,o),
(125,324,o),
(125,277,cs),
(125,-127,ls),
(125,-196,o),
(105,-228,o),
(60,-228,cs),
(43,-228,o),
(29,-219,o),
(15,-209,cs),
(-2,-197,o),
(-17,-190,o),
(-34,-190,cs),
(-55,-190,o),
(-74,-204,o),
(-74,-224,cs),
(-74,-253,o),
(-41,-271,o),
(-7,-271,cs)
);
},
{
closed = 1;
nodes = (
(181,512,o),
(203,537,o),
(203,565,cs),
(203,597,o),
(176,617,o),
(147,617,cs),
(113,617,o),
(94,594,o),
(94,565,cs),
(94,535,o),
(119,512,o),
(147,512,cs)
);
}
);
width = 292;
},
{
anchors = (
{
name = bottom;
pos = (248,0);
},
{
name = center;
pos = (167,373);
},
{
name = top;
pos = (157,871);
},
{
name = us;
pos = (316,640);
}
);
guides = (
{
angle = 90;
pos = (486,702);
},
{
pos = (250,-553);
}
);
layerId = "00F4936D-6309-4DEC-83B3-42806ED1A477";
shapes = (
{
closed = 1;
nodes = (
(47,-270,o),
(92,-239,o),
(133,-179,cs),
(164,-134,o),
(186,-64,o),
(196,24,cs),
(201,71,o),
(204,103,o),
(204,132,cs),
(204,555,ls),
(204,574,o),
(204,605,o),
(207,656,c),
(207,668,o),
(206,676,o),
(202,676,cs),
(198,676,o),
(187,668,o),
(172,656,cs),
(131,620,o),
(88,596,o),
(64,596,cs),
(47,596,o),
(47,563,o),
(64,563,cs),
(104,563,o),
(125,530,o),
(125,462,cs),
(125,-68,ls),
(125,-169,o),
(100,-215,o),
(46,-215,cs),
(36,-215,o),
(24,-209,o),
(7,-197,cs),
(-10,-185,o),
(-33,-177,o),
(-55,-177,cs),
(-76,-177,o),
(-97,-193,o),
(-97,-214,cs),
(-97,-248,o),
(-63,-270,o),
(-24,-270,cs)
);
},
{
closed = 1;
nodes = (
(188,766,o),
(211,790,o),
(211,819,cs),
(211,849,o),
(188,871,o),
(158,871,cs),
(128,871,o),
(106,848,o),
(106,819,cs),
(106,790,o),
(129,766,o),
(158,766,cs)
);
}
);
width = 286;
}
);
unicode = 106;
}
{
color = 9;
glyphname = p;
kernLeft = p;
kernRight = b;
layers = (
{
anchors = (
{
name = bottom;
pos = (284,0);
},
{
name = center;
pos = (138,-112);
},
{
name = top;
pos = (240,415);
},
{
name = us;
pos = (404,415);
},
{
name = zzcurly;
pos = (362,378);
}
);
layerId = master01;
shapes = (
{
closed = 1;
nodes = (
(66,-269,o),
(86,-269,o),
(125,-269,cs),
(164,-269,o),
(184,-269,o),
(227,-273,c),
(236,-273,o),
(236,-245,o),
(227,-245,cs),
(179,-245,o),
(155,-232,o),
(155,-207,cs),
(155,-12,ls),
(155,-1,o),
(159,4,o),
(165,4,c),
(184,-6,o),
(210,-11,o),
(243,-11,cs),
(313,-11,o),
(369,9,o),
(403,48,cs),
(437,86,o),
(457,146,o),
(457,211,cs),
(457,335,o),
(383,425,o),
(277,425,cs),
(237,425,o),
(193,412,o),
(162,372,c),
(155,375,l),
(155,392,o),
(155,408,o),
(157,425,cs),
(157,429,o),
(154,431,o),
(149,431,cs),
(144,431,o),
(138,428,o),
(131,421,cs),
(119,408,o),
(59,371,o),
(38,371,cs),
(29,371,o),
(29,344,o),
(38,344,cs),
(66,344,o),
(80,324,o),
(80,284,cs),
(80,-207,ls),
(80,-232,o),
(61,-245,o),
(23,-245,cs),
(14,-245,o),
(14,-273,o),
(23,-273,c)
);
},
{
closed = 1;
nodes = (
(188,20,o),
(155,48,o),
(155,100,cs),
(155,290,ls),
(155,312,o),
(158,328,o),
(165,336,cs),
(190,370,o),
(218,385,o),
(256,385,cs),
(332,385,o),
(372,323,o),
(372,208,cs),
(372,149,o),
(361,107,o),
(346,79,cs),
(325,39,o),
(293,20,o),
(248,20,cs)
);
}
);
width = 484;
},
{
anchors = (
{
name = bottom;
pos = (313,0);
},
{
name = center;
pos = (146,-112);
},
{
name = top;
pos = (250,415);
},
{
name = us;
pos = (418,415);
},
{
name = zzcurly;
pos = (380,378);
}
);
layerId = "75918100-ED89-42A8-B0FE-888EB9C86810";
shapes = (
{
closed = 1;
nodes = (
(76,-269,o),
(96,-269,o),
(135,-269,cs),
(174,-269,o),
(193,-269,o),
(250,-273,c),
(259,-273,o),
(259,-236,o),
(250,-236,cs),
(203,-236,o),
(183,-225,o),
(183,-203,cs),
(183,-8,ls),
(183,0,o),
(186,4,o),
(190,4,c),
(206,-6,o),
(233,-11,o),
(268,-11,cs),
(333,-11,o),
(386,9,o),
(418,45,cs),
(453,85,o),
(472,145,o),
(472,217,cs),
(472,346,o),
(407,425,o),
(300,425,cs),
(253,425,o),
(213,410,o),
(190,385,c),
(183,388,l),
(183,399,o),
(184,410,o),
(185,421,cs),
(185,428,o),
(179,431,o),
(172,431,cs),
(166,431,o),
(155,425,o),
(148,419,cs),
(130,406,o),
(57,369,o),
(26,369,cs),
(17,369,o),
(17,333,o),
(26,333,cs),
(56,333,o),
(71,312,o),
(71,268,cs),
(71,-203,ls),
(71,-225,o),
(53,-236,o),
(20,-236,cs),
(10,-236,o),
(10,-273,o),
(20,-273,c)
);
},
{
closed = 1;
nodes = (
(210,29,o),
(183,51,o),
(183,87,cs),
(183,301,ls),
(183,318,o),
(185,329,o),
(189,335,cs),
(208,362,o),
(231,376,o),
(260,376,cs),
(322,376,o),
(358,315,o),
(358,208,cs),
(358,157,o),
(348,112,o),
(329,74,cs),
(313,44,o),
(288,29,o),
(254,29,cs)
);
}
);
width = 494;
},
{
anchors = (
{
name = bottom;
pos = (274,0);
},
{
name = center;
pos = (135,-112);
},
{
name = top;
pos = (237,415);
},
{
name = us;
pos = (400,415);
},
{
name = zzcurly;
pos = (356,378);
}
);
layerId = "6ABD9449-5E80-4451-809E-12ADEB9E9AB4";
shapes = (
{
closed = 1;
nodes = (
(63,-269,o),
(83,-269,o),
(122,-269,cs),
(161,-269,o),
(181,-269,o),
(220,-273,c),
(229,-273,o),
(229,-248,o),
(220,-248,cs),
(172,-248,o),
(146,-235,o),
(146,-208,cs),
(146,-14,ls),
(146,-2,o),
(151,4,o),
(157,4,c),
(177,-6,o),
(204,-11,o),
(235,-11,cs),
(306,-11,o),
(364,9,o),
(399,49,cs),
(432,87,o),
(452,146,o),
(452,209,cs),
(452,331,o),
(379,425,o),
(274,425,cs),
(225,425,o),
(181,403,o),
(153,366,c),
(146,368,l),
(146,388,o),
(146,407,o),
(148,426,cs),
(148,430,o),
(146,431,o),
(143,431,cs),
(137,431,o),
(133,429,o),
(126,421,cs),
(115,409,o),
(57,372,o),
(42,372,cs),
(33,372,o),
(33,348,o),
(42,348,cs),
(70,348,o),
(84,329,o),
(84,289,cs),
(84,-208,ls),
(84,-235,o),
(64,-248,o),
(24,-248,cs),
(15,-248,o),
(15,-273,o),
(24,-273,c)
);
},
{
closed = 1;
nodes = (
(181,17,o),
(146,47,o),
(146,104,cs),
(146,287,ls),
(146,310,o),
(149,328,o),
(157,336,c),
(185,372,o),
(214,388,o),
(255,388,cs),
(335,388,o),
(376,326,o),
(376,208,cs),
(376,146,o),
(366,105,o),
(353,81,cs),
(330,38,o),
(296,17,o),
(246,17,cs)
);
}
);
width = 482;
},
{
anchors = (
{
name = bottom;
pos = (252,0);
},
{
name = center;
pos = (122,-112);
},
{
name = top;
pos = (209,415);
},
{
name = us;
pos = (350,415);
},
{
name = zzcurly;
pos = (317,378);
}
);
layerId = "70B83247-6FA0-4662-9656-C86DD2A17D3B";
shapes = (
{
closed = 1;
nodes = (
(62,-269,o),
(78,-269,o),
(111,-269,cs),
(144,-269,o),
(162,-269,o),
(202,-273,c),
(211,-273,o),
(211,-242,o),
(202,-242,cs),
(162,-242,o),
(143,-230,o),
(143,-206,cs),
(143,-11,ls),
(143,-1,o),
(146,4,o),
(150,4,c),
(162,-6,o),
(187,-11,o),
(219,-11,cs),
(278,-11,o),
(318,6,o),
(349,46,cs),
(379,85,o),
(395,144,o),
(395,213,cs),
(395,339,o),
(334,425,o),
(247,425,cs),
(208,425,o),
(173,408,o),
(150,375,c),
(143,377,l),
(143,393,o),
(143,408,o),
(144,424,cs),
(144,429,o),
(141,431,o),
(136,431,cs),
(131,431,o),
(125,427,o),
(119,420,cs),
(107,408,o),
(53,371,o),
(31,371,cs),
(22,371,o),
(22,341,o),
(31,341,cs),
(55,341,o),
(68,320,o),
(68,279,cs),
(68,-206,ls),
(68,-230,o),
(52,-242,o),
(21,-242,cs),
(11,-242,o),
(11,-273,o),
(21,-273,c)
);
},
{
closed = 1;
nodes = (
(169,22,o),
(143,49,o),
(143,96,cs),
(143,293,ls),
(143,310,o),
(144,327,o),
(150,336,cs),
(168,367,o),
(192,382,o),
(221,382,cs),
(282,382,o),
(314,321,o),
(314,206,cs),
(314,154,o),
(306,110,o),
(291,74,cs),
(276,40,o),
(250,22,o),
(214,22,cs)
);
}
);
width = 418;
},
{
anchors = (
{
name = bottom;
pos = (316,0);
},
{
name = center;
pos = (154,-112);
},
{
name = top;
pos = (271,415);
},
{
name = us;
pos = (459,415);
},
{
name = zzcurly;
pos = (408,378);
}
);
layerId = "9E6FDE2E-55A6-44A9-9556-F1822294BF26";
shapes = (
{
closed = 1;
nodes = (
(72,-269,o),
(95,-269,o),
(140,-269,cs),
(185,-269,o),
(207,-269,o),
(253,-273,c),
(262,-273,o),
(262,-248,o),
(253,-248,cs),
(198,-248,o),
(168,-235,o),
(168,-208,cs),
(168,-13,ls),
(168,-1,o),
(173,4,o),
(180,4,c),
(206,-7,o),
(234,-11,o),
(279,-11,cs),
(357,-11,o),
(414,7,o),
(455,47,cs),
(497,86,o),
(519,144,o),
(519,209,cs),
(519,334,o),
(437,425,o),
(313,425,cs),
(255,425,o),
(206,405,o),
(175,369,c),
(168,371,l),
(168,389,o),
(168,408,o),
(170,426,cs),
(170,430,o),
(169,431,o),
(164,431,cs),
(158,431,o),
(152,429,o),
(145,421,c),
(129,407,o),
(64,372,o),
(46,372,cs),
(37,372,o),
(37,348,o),
(46,348,cs),
(78,348,o),
(93,328,o),
(93,289,cs),
(93,-208,ls),
(93,-235,o),
(71,-248,o),
(26,-248,cs),
(17,-248,o),
(17,-273,o),
(26,-273,c)
);
},
{
closed = 1;
nodes = (
(208,18,o),
(168,48,o),
(168,104,cs),
(168,287,ls),
(168,314,o),
(173,329,o),
(180,336,cs),
(212,372,o),
(247,387,o),
(292,387,cs),
(384,387,o),
(430,326,o),
(430,204,cs),
(430,154,o),
(419,110,o),
(398,74,cs),
(376,37,o),
(337,18,o),
(283,18,cs)
);
}
);
width = 552;
},
{
anchors = (
{
name = bottom;
pos = (386,0);
},
{
name = center;
pos = (176,-76);
},
{
name = top;
pos = (338,663);
},
{
name = us;
pos = (567,663);
},
{
name = zzcurly;
pos = (505,611);
}
);
guides = (
{
pos = (250,-553);
}
);
layerId = "00F4936D-6309-4DEC-83B3-42806ED1A477";
shapes = (
{
closed = 1;
nodes = (
(54,-271,o),
(98,-270,o),
(148,-270,cs),
(205,-270,o),
(254,-271,o),
(292,-273,c),
(304,-273,o),
(304,-242,o),
(292,-242,cs),
(226,-242,o),
(188,-223,o),
(188,-183,cs),
(188,-25,ls),
(188,-2,o),
(196,9,o),
(205,9,c),
(246,-8,o),
(292,-13,o),
(340,-13,cs),
(458,-13,o),
(521,20,o),
(574,80,cs),
(629,144,o),
(657,221,o),
(657,315,cs),
(657,527,o),
(520,676,o),
(381,676,cs),
(315,676,o),
(245,645,o),
(198,578,c),
(188,582,l),
(188,614,o),
(188,647,o),
(190,680,cs),
(190,685,o),
(189,687,o),
(184,687,cs),
(177,687,o),
(172,684,o),
(163,672,cs),
(149,655,o),
(74,601,o),
(52,601,cs),
(41,601,o),
(41,569,o),
(52,569,cs),
(90,569,o),
(109,541,o),
(109,484,cs),
(109,-183,ls),
(109,-223,o),
(81,-242,o),
(25,-242,cs),
(14,-242,o),
(14,-273,o),
(25,-273,c)
);
},
{
closed = 1;
nodes = (
(239,28,o),
(188,77,o),
(188,174,cs),
(188,455,ls),
(188,495,o),
(194,522,o),
(205,537,cs),
(247,593,o),
(292,621,o),
(339,621,cs),
(483,621,o),
(555,530,o),
(555,333,cs),
(555,247,o),
(542,178,o),
(513,120,cs),
(482,60,o),
(427,28,o),
(343,28,cs)
);
}
);
width = 684;
}
);
unicode = 112;
}
{
color = 9;
glyphname = r;
kernLeft = i;
kernRight = r;
layers = (
{
anchors = (
{
name = bottom;
pos = (170,0);
},
{
name = cedilla;
pos = (136,0);
},
{
name = top;
pos = (170,415);
},
{
name = us;
pos = (351,415);
},
{
name = zzcurly;
pos = (283,378);
}
);
layerId = master01;
shapes = (
{
closed = 1;
nodes = (
(61,-1,o),
(94,0,o),
(127,0,cs),
(161,0,o),
(194,-1,o),
(228,-4,c),
(236,-4,o),
(236,24,o),
(228,24,cs),
(183,24,o),
(160,32,o),
(160,62,cs),
(160,241,ls),
(160,298,o),
(184,351,o),
(230,351,cs),
(238,351,o),
(249,348,o),
(264,339,cs),
(279,331,o),
(290,327,o),
(297,327,cs),
(319,327,o),
(337,351,o),
(337,376,cs),
(337,401,o),
(315,425,o),
(284,425,cs),
(243,425,o),
(208,405,o),
(180,365,cs),
(175,359,o),
(171,355,o),
(167,355,cs),
(162,355,o),
(160,362,o),
(160,375,cs),
(160,389,o),
(160,403,o),
(162,419,cs),
(162,427,o),
(159,431,o),
(153,431,cs),
(150,431,o),
(145,429,o),
(140,424,cs),
(127,411,o),
(69,370,o),
(44,370,cs),
(35,370,o),
(35,343,o),
(44,343,cs),
(71,343,o),
(85,324,o),
(85,288,cs),
(85,62,ls),
(85,32,o),
(66,24,o),
(28,24,cs),
(19,24,o),
(19,-4,o),
(28,-4,c)
);
}
);
width = 340;
},
{
anchors = (
{
name = bottom;
pos = (179,0);
},
{
name = cedilla;
pos = (146,0);
},
{
name = top;
pos = (179,415);
},
{
name = us;
pos = (375,415);
},
{
name = zzcurly;
pos = (297,378);
}
);
layerId = "75918100-ED89-42A8-B0FE-888EB9C86810";
shapes = (
{
closed = 1;
nodes = (
(61,-1,o),
(98,0,o),
(136,0,cs),
(173,0,o),
(211,-1,o),
(248,-4,c),
(257,-4,o),
(257,33,o),
(248,33,cs),
(206,33,o),
(187,41,o),
(187,66,cs),
(187,255,ls),
(187,294,o),
(209,345,o),
(240,345,cs),
(249,345,o),
(257,341,o),
(264,334,cs),
(281,317,o),
(297,309,o),
(314,309,cs),
(340,309,o),
(364,333,o),
(364,367,cs),
(364,401,o),
(331,425,o),
(293,425,cs),
(260,425,o),
(233,412,o),
(208,383,cs),
(204,378,o),
(198,374,o),
(194,374,cs),
(189,374,o),
(187,377,o),
(187,385,cs),
(187,397,o),
(188,409,o),
(190,421,c),
(189,428,o),
(185,431,o),
(176,431,cs),
(171,431,o),
(166,429,o),
(160,424,cs),
(142,410,o),
(59,369,o),
(30,369,cs),
(21,369,o),
(21,333,o),
(30,333,cs),
(60,333,o),
(75,312,o),
(75,268,cs),
(75,66,ls),
(75,41,o),
(57,33,o),
(23,33,cs),
(15,33,o),
(15,-4,o),
(23,-4,c)
);
}
);
width = 366;
},
{
anchors = (
{
name = bottom;
pos = (167,0);
},
{
name = cedilla;
pos = (133,0);
},
{
name = top;
pos = (167,415);
},
{
name = us;
pos = (348,415);
},
{
name = zzcurly;
pos = (280,378);
}
);
layerId = "6ABD9449-5E80-4451-809E-12ADEB9E9AB4";
shapes = (
{
closed = 1;
nodes = (
(62,-1,o),
(94,0,o),
(125,0,cs),
(158,0,o),
(189,-1,o),
(221,-4,c),
(230,-4,o),
(230,21,o),
(221,21,cs),
(181,21,o),
(151,29,o),
(151,61,cs),
(151,237,ls),
(151,300,o),
(175,353,o),
(228,353,cs),
(234,353,o),
(247,350,o),
(265,341,cs),
(278,335,o),
(287,333,o),
(292,333,cs),
(313,333,o),
(329,353,o),
(329,380,cs),
(329,406,o),
(311,425,o),
(281,425,cs),
(238,425,o),
(201,402,o),
(171,359,cs),
(166,353,o),
(162,349,o),
(158,349,cs),
(153,349,o),
(151,357,o),
(151,373,cs),
(151,386,o),
(152,400,o),
(153,417,cs),
(153,426,o),
(152,431,o),
(149,431,cs),
(146,431,o),
(139,427,o),
(131,421,cs),
(111,403,o),
(63,375,o),
(44,375,cs),
(35,375,o),
(35,351,o),
(44,351,cs),
(74,351,o),
(89,328,o),
(89,281,cs),
(89,61,ls),
(89,29,o),
(69,21,o),
(30,21,cs),
(21,21,o),
(21,-4,o),
(30,-4,c)
);
}
);
width = 332;
},
{
anchors = (
{
name = bottom;
pos = (145,0);
},
{
name = cedilla;
pos = (118,0);
},
{
name = top;
pos = (145,415);
},
{
name = us;
pos = (291,415);
},
{
name = zzcurly;
pos = (236,378);
}
);
layerId = "70B83247-6FA0-4662-9656-C86DD2A17D3B";
shapes = (
{
closed = 1;
nodes = (
(54,-1,o),
(83,0,o),
(112,0,cs),
(142,0,o),
(170,-1,o),
(200,-4,c),
(208,-4,o),
(208,24,o),
(200,24,cs),
(162,24,o),
(144,32,o),
(144,62,cs),
(144,245,ls),
(144,296,o),
(158,351,o),
(190,351,cs),
(197,351,o),
(203,349,o),
(214,340,cs),
(227,330,o),
(239,327,o),
(247,327,cs),
(265,327,o),
(282,352,o),
(282,377,cs),
(282,403,o),
(263,425,o),
(236,425,cs),
(204,425,o),
(180,405,o),
(158,368,cs),
(155,362,o),
(151,360,o),
(148,360,cs),
(146,360,o),
(144,366,o),
(144,378,cs),
(144,391,o),
(144,405,o),
(145,420,cs),
(145,428,o),
(141,431,o),
(136,431,cs),
(133,431,o),
(129,429,o),
(125,425,c),
(116,412,o),
(61,369,o),
(36,369,cs),
(27,369,o),
(27,339,o),
(36,339,cs),
(58,339,o),
(69,321,o),
(69,285,cs),
(69,62,ls),
(69,32,o),
(54,24,o),
(24,24,cs),
(16,24,o),
(16,-4,o),
(24,-4,c)
);
}
);
width = 284;
},
{
anchors = (
{
name = bottom;
pos = (196,0);
},
{
name = cedilla;
pos = (155,0);
},
{
name = top;
pos = (196,415);
},
{
name = us;
pos = (412,415);
},
{
name = zzcurly;
pos = (330,378);
}
);
layerId = "9E6FDE2E-55A6-44A9-9556-F1822294BF26";
shapes = (
{
closed = 1;
nodes = (
(69,-1,o),
(107,0,o),
(144,0,cs),
(182,0,o),
(218,-1,o),
(256,-4,c),
(265,-4,o),
(265,24,o),
(256,24,cs),
(204,24,o),
(177,32,o),
(177,62,cs),
(177,238,ls),
(177,300,o),
(210,351,o),
(271,351,cs),
(280,351,o),
(296,346,o),
(311,338,cs),
(324,332,o),
(336,327,o),
(348,327,cs),
(375,327,o),
(394,347,o),
(394,376,cs),
(394,405,o),
(369,425,o),
(332,425,cs),
(284,425,o),
(238,404,o),
(202,362,cs),
(196,355,o),
(191,351,o),
(186,351,cs),
(180,351,o),
(177,359,o),
(177,373,cs),
(177,386,o),
(178,401,o),
(179,418,cs),
(179,427,o),
(178,431,o),
(172,431,cs),
(167,431,o),
(162,429,o),
(156,424,cs),
(139,410,o),
(78,371,o),
(53,371,cs),
(43,371,o),
(43,346,o),
(53,346,cs),
(86,346,o),
(102,327,o),
(102,291,cs),
(102,62,ls),
(102,32,o),
(79,24,o),
(32,24,cs),
(23,24,o),
(23,-4,o),
(32,-4,c)
);
}
);
width = 396;
},
{
anchors = (
{
name = bottom;
pos = (293,4);
},
{
name = cedilla;
pos = (221,4);
},
{
name = top;
pos = (219,673);
},
{
name = us;
pos = (494,667);
},
{
name = zzcurly;
pos = (405,612);
}
);
layerId = "00F4936D-6309-4DEC-83B3-42806ED1A477";
shapes = (
{
closed = 1;
nodes = (
(65,-1,o),
(109,0,o),
(165,0,cs),
(223,0,o),
(267,-1,o),
(298,-3,c),
(310,-3,o),
(311,30,o),
(298,30,cs),
(239,30,o),
(202,51,o),
(202,96,cs),
(202,385,ls),
(202,483,o),
(246,579,o),
(327,579,cs),
(338,579,o),
(357,574,o),
(389,564,cs),
(410,557,o),
(418,557,o),
(421,557,cs),
(453,557,o),
(474,579,o),
(474,612,cs),
(474,652,o),
(451,676,o),
(409,676,cs),
(342,676,o),
(281,639,o),
(232,563,cs),
(224,550,o),
(219,546,o),
(213,546,cs),
(206,546,o),
(202,562,o),
(202,588,cs),
(202,607,o),
(204,636,o),
(206,664,cs),
(206,678,o),
(205,687,o),
(201,687,cs),
(196,687,o),
(187,680,o),
(174,667,cs),
(148,641,o),
(94,597,o),
(59,597,cs),
(46,597,o),
(46,563,o),
(59,563,cs),
(102,563,o),
(124,528,o),
(124,459,cs),
(124,96,ls),
(124,51,o),
(94,30,o),
(31,30,cs),
(19,30,o),
(19,-3,o),
(31,-3,c)
);
}
);
width = 477;
}
);
unicode = 114;
}
{
color = 9;
glyphname = z;
kernLeft = z;
kernRight = z;
layers = (
{
anchors = (
{
name = bottom;
pos = (180,0);
},
{
name = center;
pos = (180,208);
},
{
name = top;
pos = (190,415);
},
{
name = us;
pos = (309,415);
},
{
name = zzcurly;
pos = (274,378);
}
);
guides = (
{
pos = (371,793);
},
{
angle = 180;
pos = (333,60);
}
);
layerId = master01;
shapes = (
{
closed = 1;
nodes = (
(333,-13,o),
(337,-7,o),
(337,5,cs),
(337,17,o),
(337,54,o),
(352,134,cs),
(353,141,o),
(335,146,o),
(333,139,cs),
(298,56,o),
(274,29,o),
(199,29,cs),
(126,29,l),
(123,36,l),
(325,404,ls),
(327,407,o),
(327,409,o),
(327,412,cs),
(327,414,o),
(325,415,o),
(320,415,cs),
(147,415,ls),
(123,415,o),
(91,418,o),
(59,425,c),
(51,425,o),
(49,418,o),
(48,408,cs),
(30,278,ls),
(29,273,o),
(46,271,o),
(47,275,cs),
(66,319,o),
(82,349,o),
(93,364,cs),
(105,380,o),
(119,387,o),
(136,387,cs),
(226,387,l),
(229,381,l),
(30,16,ls),
(27,10,o),
(27,9,o),
(27,7,cs),
(27,2,o),
(30,0,o),
(35,0,cs),
(244,0,ls),
(256,0,o),
(271,-2,o),
(291,-7,cs),
(310,-11,o),
(320,-13,o),
(324,-13,cs)
);
}
);
width = 363;
},
{
anchors = (
{
name = bottom;
pos = (197,0);
},
{
name = center;
pos = (197,208);
},
{
name = top;
pos = (197,415);
},
{
name = us;
pos = (329,415);
},
{
name = zzcurly;
pos = (284,378);
}
);
layerId = "75918100-ED89-42A8-B0FE-888EB9C86810";
shapes = (
{
closed = 1;
nodes = (
(364,-12,o),
(371,-5,o),
(371,8,cs),
(371,37,o),
(375,72,o),
(384,129,cs),
(386,142,o),
(348,152,o),
(344,142,cs),
(313,72,o),
(275,39,o),
(233,39,cs),
(165,39,l),
(161,45,l),
(343,383,ls),
(345,388,o),
(347,393,o),
(347,399,cs),
(347,410,o),
(339,415,o),
(325,415,cs),
(155,415,ls),
(138,415,o),
(103,418,o),
(52,425,c),
(43,424,o),
(38,417,o),
(37,403,cs),
(21,274,ls),
(21,264,o),
(50,255,o),
(55,265,cs),
(76,315,o),
(86,336,o),
(102,356,cs),
(113,371,o),
(125,378,o),
(138,378,cs),
(207,378,l),
(210,372,l),
(28,33,ls),
(25,27,o),
(24,22,o),
(24,18,cs),
(24,6,o),
(31,0,o),
(44,0,cs),
(260,0,ls),
(272,0,o),
(288,-1,o),
(305,-5,cs),
(333,-10,o),
(348,-12,o),
(352,-12,cs)
);
}
);
width = 393;
},
{
anchors = (
{
name = bottom;
pos = (176,0);
},
{
name = center;
pos = (176,208);
},
{
name = top;
pos = (186,415);
},
{
name = us;
pos = (303,415);
},
{
name = zzcurly;
pos = (263,378);
}
);
layerId = "6ABD9449-5E80-4451-809E-12ADEB9E9AB4";
shapes = (
{
closed = 1;
nodes = (
(318,-14,o),
(322,-8,o),
(322,4,cs),
(322,10,o),
(324,47,o),
(338,137,cs),
(339,143,o),
(326,145,o),
(324,139,cs),
(288,51,o),
(270,26,o),
(186,26,cs),
(111,26,l),
(107,33,l),
(314,408,ls),
(315,411,o),
(316,412,o),
(316,413,cs),
(316,415,o),
(315,415,o),
(312,415,cs),
(146,415,ls),
(119,415,o),
(89,418,o),
(63,425,c),
(56,425,o),
(55,419,o),
(53,410,cs),
(34,279,ls),
(34,275,o),
(48,273,o),
(49,277,cs),
(68,319,o),
(82,353,o),
(92,367,cs),
(104,382,o),
(118,390,o),
(136,390,cs),
(234,390,l),
(237,383,l),
(33,10,ls),
(30,6,o),
(30,4,o),
(30,3,cs),
(30,1,o),
(31,0,o),
(34,0,cs),
(235,0,ls),
(247,0,o),
(262,-2,o),
(282,-7,cs),
(298,-11,o),
(308,-14,o),
(311,-14,cs)
);
}
);
width = 350;
},
{
anchors = (
{
name = bottom;
pos = (153,0);
},
{
name = center;
pos = (153,208);
},
{
name = top;
pos = (158,415);
},
{
name = us;
pos = (258,415);
},
{
name = zzcurly;
pos = (212,378);
}
);
layerId = "70B83247-6FA0-4662-9656-C86DD2A17D3B";
shapes = (
{
closed = 1;
nodes = (
(282,-13,o),
(287,-7,o),
(287,6,cs),
(287,25,o),
(287,56,o),
(298,131,cs),
(299,141,o),
(275,147,o),
(272,139,cs),
(244,47,o),
(215,29,o),
(176,29,cs),
(120,29,l),
(116,37,l),
(271,396,ls),
(272,399,o),
(273,403,o),
(273,406,cs),
(273,412,o),
(269,415,o),
(261,415,cs),
(124,415,ls),
(107,415,o),
(81,418,o),
(47,425,c),
(41,425,o),
(37,417,o),
(36,406,cs),
(23,276,ls),
(22,269,o),
(39,264,o),
(42,271,cs),
(58,319,o),
(71,350,o),
(80,363,cs),
(90,380,o),
(101,387,o),
(112,387,cs),
(175,387,l),
(180,380,l),
(26,23,ls),
(24,19,o),
(23,14,o),
(23,11,cs),
(23,4,o),
(27,0,o),
(34,0,cs),
(205,0,ls),
(214,0,o),
(222,-1,o),
(242,-6,cs),
(255,-10,o),
(271,-13,o),
(273,-13,cs)
);
}
);
width = 308;
},
{
anchors = (
{
name = bottom;
pos = (206,0);
},
{
name = center;
pos = (206,208);
},
{
name = top;
pos = (221,415);
},
{
name = us;
pos = (360,415);
},
{
name = zzcurly;
pos = (335,378);
}
);
layerId = "9E6FDE2E-55A6-44A9-9556-F1822294BF26";
shapes = (
{
closed = 1;
nodes = (
(383,-14,o),
(387,-8,o),
(387,3,cs),
(387,9,o),
(387,52,o),
(405,137,cs),
(406,141,o),
(391,145,o),
(388,140,cs),
(350,63,o),
(331,29,o),
(222,29,cs),
(133,29,l),
(130,36,l),
(375,407,ls),
(377,410,o),
(378,412,o),
(378,414,cs),
(378,415,o),
(376,415,o),
(373,415,cs),
(170,415,ls),
(137,415,o),
(102,418,o),
(71,425,c),
(62,425,o),
(61,419,o),
(59,410,cs),
(36,280,ls),
(36,278,o),
(42,277,o),
(43,279,cs),
(65,319,o),
(85,349,o),
(103,366,cs),
(116,379,o),
(135,387,o),
(160,387,cs),
(274,387,l),
(278,381,l),
(38,13,ls),
(34,7,o),
(32,4,o),
(32,2,cs),
(32,1,o),
(33,0,o),
(40,0,cs),
(283,0,ls),
(297,0,o),
(320,-3,o),
(338,-7,cs),
(356,-12,o),
(369,-14,o),
(374,-14,cs)
);
}
);
width = 418;
},
{
anchors = (
{
name = bottom;
pos = (242,0);
},
{
name = center;
pos = (242,331);
},
{
name = top;
pos = (263,662);
},
{
name = us;
pos = (447,662);
},
{
name = zzcurly;
pos = (395,603);
}
);
layerId = "00F4936D-6309-4DEC-83B3-42806ED1A477";
shapes = (
{
closed = 1;
nodes = (
(459,-22,o),
(465,-13,o),
(465,5,cs),
(465,8,o),
(465,69,o),
(490,214,cs),
(491,223,o),
(478,226,o),
(474,216,cs),
(412,54,o),
(382,34,o),
(255,34,cs),
(134,34,l),
(129,41,l),
(448,643,ls),
(452,650,o),
(453,654,o),
(453,657,cs),
(453,662,o),
(449,663,o),
(437,663,cs),
(199,663,ls),
(155,663,o),
(110,669,o),
(76,679,c),
(69,679,o),
(64,672,o),
(62,658,cs),
(39,494,ls),
(37,484,o),
(48,483,o),
(52,491,cs),
(72,534,o),
(94,573,o),
(110,593,cs),
(131,620,o),
(155,631,o),
(186,631,cs),
(349,631,l),
(353,626,l),
(30,15,ls),
(27,9,o),
(27,6,o),
(27,3,cs),
(27,1,o),
(30,0,o),
(36,0,cs),
(337,0,ls),
(359,0,o),
(378,-4,o),
(409,-12,cs),
(436,-20,o),
(445,-22,o),
(450,-22,cs)
);
}
);
width = 501;
}
);
unicode = 122;
}
{
glyphname = section;
layers = (
{
layerId = master01;
shapes = (
{
closed = 1;
nodes = (
(324,-197,o),
(404,-123,o),
(404,-30,cs),
(404,143,o),
(105,158,o),
(105,300,cs),
(105,338,o),
(128,370,o),
(172,394,c),
(146,410,l),
(86,390,o),
(46,336,o),
(46,270,cs),
(46,94,o),
(330,77,o),
(330,-65,cs),
(330,-118,o),
(290,-159,o),
(230,-159,cs),
(197,-159,o),
(171,-146,o),
(146,-117,cs),
(122,-89,o),
(107,-75,o),
(101,-75,cs),
(94,-75,o),
(85,-80,o),
(75,-89,cs),
(64,-98,o),
(58,-105,o),
(58,-113,cs),
(58,-138,o),
(78,-158,o),
(117,-173,cs),
(155,-189,o),
(192,-197,o),
(223,-197,cs)
);
},
{
closed = 1;
nodes = (
(398,121,o),
(429,175,o),
(429,232,cs),
(429,405,o),
(149,429,o),
(149,552,cs),
(149,597,o),
(185,636,o),
(237,636,cs),
(263,636,o),
(289,624,o),
(310,603,cs),
(332,580,o),
(344,569,o),
(347,569,cs),
(354,569,o),
(362,573,o),
(371,581,cs),
(380,589,o),
(385,598,o),
(385,607,cs),
(385,642,o),
(321,674,o),
(249,674,cs),
(157,674,o),
(83,606,o),
(83,521,cs),
(83,350,o),
(368,342,o),
(368,204,cs),
(368,166,o),
(346,129,o),
(305,104,c),
(331,84,l)
);
}
);
width = 467;
},
{
layerId = "75918100-ED89-42A8-B0FE-888EB9C86810";
shapes = (
{
closed = 1;
nodes = (
(326,-197,o),
(422,-118,o),
(422,-24,cs),
(422,148,o),
(118,170,o),
(118,293,cs),
(118,328,o),
(141,357,o),
(190,378,c),
(141,406,l),
(73,384,o),
(28,323,o),
(28,258,cs),
(28,85,o),
(322,74,o),
(322,-64,cs),
(322,-115,o),
(284,-156,o),
(230,-156,cs),
(199,-156,o),
(183,-145,o),
(149,-95,cs),
(123,-56,o),
(114,-45,o),
(101,-45,cs),
(91,-45,o),
(80,-50,o),
(67,-59,cs),
(49,-72,o),
(40,-85,o),
(40,-99,cs),
(40,-128,o),
(71,-156,o),
(126,-176,cs),
(161,-189,o),
(191,-197,o),
(223,-197,cs)
);
},
{
closed = 1;
nodes = (
(413,128,o),
(447,173,o),
(447,235,cs),
(447,420,o),
(157,427,o),
(157,556,cs),
(157,596,o),
(184,633,o),
(234,633,cs),
(261,633,o),
(283,622,o),
(308,581,cs),
(330,545,o),
(335,538,o),
(347,538,cs),
(358,538,o),
(369,542,o),
(380,551,cs),
(395,563,o),
(403,577,o),
(403,592,cs),
(403,633,o),
(326,674,o),
(249,674,cs),
(146,674,o),
(65,600,o),
(65,514,cs),
(65,353,o),
(361,331,o),
(361,211,cs),
(361,177,o),
(338,142,o),
(296,120,c),
(345,95,l)
);
}
);
width = 466;
},
{
layerId = "6ABD9449-5E80-4451-809E-12ADEB9E9AB4";
shapes = (
{
closed = 1;
nodes = (
(332,-197,o),
(398,-136,o),
(398,-47,cs),
(398,140,o),
(101,144,o),
(101,294,cs),
(101,333,o),
(122,373,o),
(174,400,c),
(151,418,l),
(88,398,o),
(52,338,o),
(52,271,cs),
(52,87,o),
(333,91,o),
(333,-70,cs),
(333,-123,o),
(301,-170,o),
(239,-170,cs),
(196,-170,o),
(172,-158,o),
(145,-125,cs),
(126,-102,o),
(109,-85,o),
(100,-85,cs),
(95,-85,o),
(87,-90,o),
(77,-99,cs),
(68,-106,o),
(64,-112,o),
(64,-117,cs),
(64,-138,o),
(84,-160,o),
(114,-172,cs),
(154,-188,o),
(191,-197,o),
(221,-197,cs)
);
},
{
closed = 1;
nodes = (
(392,116,o),
(423,160,o),
(423,220,cs),
(423,397,o),
(146,411,o),
(146,553,cs),
(146,603,o),
(182,637,o),
(237,637,cs),
(266,637,o),
(293,627,o),
(310,610,cs),
(329,592,o),
(343,579,o),
(347,579,cs),
(352,579,o),
(359,583,o),
(368,591,cs),
(375,597,o),
(379,605,o),
(379,615,cs),
(379,654,o),
(343,674,o),
(273,674,cs),
(163,674,o),
(89,615,o),
(89,527,cs),
(89,355,o),
(373,350,o),
(373,206,cs),
(373,169,o),
(355,130,o),
(300,98,c),
(325,79,l)
);
}
);
width = 467;
},
{
layerId = "70B83247-6FA0-4662-9656-C86DD2A17D3B";
shapes = (
{
closed = 1;
nodes = (
(268,-197,o),
(335,-122,o),
(335,-27,cs),
(335,145,o),
(96,167,o),
(96,299,cs),
(96,335,o),
(111,366,o),
(141,389,c),
(115,407,l),
(69,385,o),
(37,322,o),
(37,254,cs),
(37,111,o),
(267,57,o),
(267,-56,cs),
(267,-115,o),
(236,-156,o),
(191,-156,cs),
(166,-156,o),
(142,-140,o),
(125,-111,cs),
(108,-82,o),
(93,-66,o),
(87,-66,cs),
(81,-66,o),
(73,-71,o),
(63,-80,cs),
(53,-90,o),
(46,-100,o),
(46,-109,cs),
(46,-136,o),
(69,-157,o),
(95,-171,cs),
(127,-188,o),
(156,-197,o),
(183,-197,cs)
);
},
{
closed = 1;
nodes = (
(330,121,o),
(355,173,o),
(355,237,cs),
(355,399,o),
(129,434,o),
(129,547,cs),
(129,598,o),
(158,635,o),
(194,635,cs),
(216,635,o),
(237,621,o),
(252,596,cs),
(267,570,o),
(278,560,o),
(283,560,cs),
(290,560,o),
(297,562,o),
(306,572,cs),
(314,581,o),
(320,589,o),
(320,603,cs),
(320,641,o),
(267,674,o),
(207,674,cs),
(128,674,o),
(66,605,o),
(66,519,cs),
(66,342,o),
(294,336,o),
(294,202,cs),
(294,165,o),
(281,134,o),
(254,109,c),
(278,88,l)
);
}
);
width = 385;
},
{
layerId = "9E6FDE2E-55A6-44A9-9556-F1822294BF26";
shapes = (
{
closed = 1;
nodes = (
(373,-197,o),
(472,-124,o),
(472,-32,cs),
(472,135,o),
(114,160,o),
(114,300,cs),
(114,343,o),
(144,374,o),
(203,399,c),
(178,414,l),
(94,391,o),
(55,323,o),
(55,263,cs),
(55,118,o),
(394,54,o),
(394,-47,cs),
(394,-100,o),
(349,-162,o),
(269,-162,cs),
(231,-162,o),
(197,-149,o),
(167,-124,cs),
(137,-99,o),
(119,-84,o),
(114,-84,cs),
(107,-84,o),
(98,-88,o),
(86,-98,cs),
(75,-106,o),
(70,-111,o),
(70,-117,cs),
(70,-139,o),
(86,-160,o),
(139,-176,cs),
(185,-190,o),
(228,-197,o),
(264,-197,cs)
);
},
{
closed = 1;
nodes = (
(464,115,o),
(503,164,o),
(503,232,cs),
(503,380,o),
(169,438,o),
(169,534,cs),
(169,597,o),
(220,637,o),
(279,637,cs),
(309,637,o),
(339,630,o),
(367,609,cs),
(395,588,o),
(410,578,o),
(411,578,cs),
(417,578,o),
(427,583,o),
(437,590,cs),
(446,597,o),
(450,606,o),
(450,611,cs),
(450,656,o),
(337,674,o),
(291,674,cs),
(193,674,o),
(100,610,o),
(100,523,cs),
(100,356,o),
(442,339,o),
(442,206,cs),
(442,165,o),
(413,127,o),
(357,98,c),
(385,79,l)
);
}
);
width = 548;
},
{
layerId = "00F4936D-6309-4DEC-83B3-42806ED1A477";
shapes = (
{
closed = 1;
nodes = (
(324,-197,o),
(404,-123,o),
(404,-30,cs),
(404,143,o),
(105,158,o),
(105,300,cs),
(105,338,o),
(128,370,o),
(172,394,c),
(146,410,l),
(86,390,o),
(46,336,o),
(46,270,cs),
(46,94,o),
(330,77,o),
(330,-65,cs),
(330,-118,o),
(290,-159,o),
(230,-159,cs),
(197,-159,o),
(171,-146,o),
(146,-117,cs),
(122,-89,o),
(107,-75,o),
(101,-75,cs),
(94,-75,o),
(85,-80,o),
(75,-89,cs),
(64,-98,o),
(58,-105,o),
(58,-113,cs),
(58,-138,o),
(79,-157,o),
(117,-173,cs),
(155,-189,o),
(192,-197,o),
(223,-197,cs)
);
},
{
closed = 1;
nodes = (
(398,121,o),
(429,175,o),
(429,232,cs),
(429,405,o),
(149,429,o),
(149,552,cs),
(149,597,o),
(185,636,o),
(237,636,cs),
(263,636,o),
(289,624,o),
(310,603,cs),
(332,580,o),
(344,569,o),
(347,569,cs),
(354,569,o),
(362,573,o),
(371,581,cs),
(380,589,o),
(385,598,o),
(385,607,cs),
(385,642,o),
(321,674,o),
(249,674,cs),
(157,674,o),
(83,606,o),
(83,521,cs),
(83,350,o),
(368,342,o),
(368,204,cs),
(368,166,o),
(346,129,o),
(305,104,c),
(331,84,l)
);
}
);
width = 467;
}
);
unicode = 167;
}
{
glyphname = copyright;
layers = (
{
layerId = master01;
shapes = (
{
closed = 1;
nodes = (
(597,13,o),
(753,169,o),
(753,365,cs),
(753,562,o),
(597,717,o),
(401,717,cs),
(205,717,o),
(49,562,o),
(49,365,cs),
(49,169,o),
(205,13,o),
(401,13,cs)
);
},
{
closed = 1;
nodes = (
(217,47,o),
(83,195,o),
(83,369,cs),
(83,542,o),
(225,683,o),
(401,683,cs),
(579,683,o),
(719,542,o),
(719,366,cs),
(719,188,o),
(578,47,o),
(397,47,cs)
);
},
{
closed = 1;
nodes = (
(440,158,o),
(477,163,o),
(506,171,c),
(515,174,o),
(522,176,o),
(528,177,c),
(539,192,o),
(547,218,o),
(555,256,c),
(555,258,o),
(554,259,o),
(553,261,cs),
(551,264,o),
(537,263,o),
(535,259,cs),
(513,208,o),
(472,180,o),
(403,180,cs),
(313,180,o),
(257,273,o),
(257,373,cs),
(257,463,o),
(320,551,o),
(404,551,cs),
(478,551,o),
(518,521,o),
(523,463,cs),
(523,458,o),
(542,457,o),
(543,464,c),
(543,498,o),
(540,529,o),
(535,555,c),
(504,561,o),
(481,564,o),
(464,567,cs),
(447,570,o),
(430,572,o),
(412,572,cs),
(275,572,o),
(201,470,o),
(201,355,cs),
(201,234,o),
(296,158,o),
(396,158,cs)
);
}
);
width = 802;
},
{
layerId = "75918100-ED89-42A8-B0FE-888EB9C86810";
shapes = (
{
closed = 1;
nodes = (
(560,13,o),
(733,156,o),
(733,365,cs),
(733,534,o),
(604,717,o),
(381,717,cs),
(184,717,o),
(29,556,o),
(29,365,cs),
(29,199,o),
(160,13,o),
(381,13,cs)
);
},
{
closed = 1;
nodes = (
(208,58,o),
(80,199,o),
(80,365,cs),
(80,526,o),
(205,672,o),
(381,672,cs),
(553,672,o),
(684,531,o),
(684,365,cs),
(684,194,o),
(542,58,o),
(381,58,cs)
);
},
{
closed = 1;
nodes = (
(428,158,o),
(462,162,o),
(493,171,cs),
(501,173,o),
(510,176,o),
(519,177,c),
(529,192,o),
(545,239,o),
(549,260,c),
(549,262,o),
(548,264,o),
(545,266,cs),
(537,270,o),
(523,272,o),
(521,267,cs),
(503,212,o),
(458,186,o),
(392,186,cs),
(310,186,o),
(258,274,o),
(258,373,cs),
(258,467,o),
(307,546,o),
(393,546,cs),
(451,546,o),
(504,526,o),
(510,458,cs),
(510,451,o),
(537,453,o),
(537,460,cs),
(537,506,o),
(532,538,o),
(525,555,c),
(515,556,o),
(505,557,o),
(494,559,cs),
(453,568,o),
(420,571,o),
(395,571,cs),
(267,571,o),
(178,480,o),
(178,355,cs),
(178,239,o),
(273,158,o),
(388,158,cs)
);
}
);
width = 763;
},
{
layerId = "6ABD9449-5E80-4451-809E-12ADEB9E9AB4";
shapes = (
{
closed = 1;
nodes = (
(608,13,o),
(759,173,o),
(759,365,cs),
(759,571,o),
(594,717,o),
(407,717,cs),
(212,717,o),
(55,564,o),
(55,365,cs),
(55,160,o),
(219,13,o),
(407,13,cs)
);
},
{
closed = 1;
nodes = (
(220,43,o),
(84,194,o),
(84,370,cs),
(84,546,o),
(231,687,o),
(407,687,cs),
(587,687,o),
(730,546,o),
(730,366,cs),
(730,187,o),
(589,43,o),
(402,43,cs)
);
},
{
closed = 1;
nodes = (
(444,158,o),
(481,163,o),
(510,171,cs),
(519,175,o),
(526,176,o),
(531,177,c),
(542,192,o),
(548,211,o),
(556,254,c),
(556,256,o),
(556,258,o),
(556,259,cs),
(556,262,o),
(542,260,o),
(540,256,cs),
(516,207,o),
(477,178,o),
(406,178,cs),
(314,178,o),
(256,272,o),
(256,373,cs),
(256,461,o),
(324,552,o),
(407,552,cs),
(487,552,o),
(521,520,o),
(527,465,cs),
(527,459,o),
(542,458,o),
(544,465,cs),
(544,495,o),
(542,526,o),
(538,555,c),
(500,562,o),
(473,567,o),
(454,570,cs),
(445,571,o),
(433,572,o),
(417,572,cs),
(278,572,o),
(208,467,o),
(208,355,cs),
(208,232,o),
(304,158,o),
(398,158,cs)
);
}
);
width = 815;
},
{
layerId = "70B83247-6FA0-4662-9656-C86DD2A17D3B";
shapes = (
{
closed = 1;
nodes = (
(580,13,o),
(743,165,o),
(743,365,cs),
(743,554,o),
(596,717,o),
(391,717,cs),
(194,717,o),
(39,560,o),
(39,365,cs),
(39,178,o),
(185,13,o),
(391,13,cs)
);
},
{
closed = 1;
nodes = (
(209,50,o),
(76,197,o),
(76,368,cs),
(76,537,o),
(212,680,o),
(391,680,cs),
(567,680,o),
(706,539,o),
(706,366,cs),
(706,190,o),
(563,50,o),
(388,50,cs)
);
},
{
closed = 1;
nodes = (
(425,158,o),
(453,163,o),
(477,171,c),
(485,175,o),
(491,176,o),
(496,177,c),
(503,192,o),
(513,224,o),
(518,257,c),
(518,259,o),
(517,261,o),
(516,262,cs),
(512,266,o),
(501,266,o),
(500,261,cs),
(483,209,o),
(450,182,o),
(395,182,cs),
(325,182,o),
(282,273,o),
(282,373,cs),
(282,464,o),
(328,549,o),
(396,549,cs),
(451,549,o),
(486,521,o),
(490,461,cs),
(491,456,o),
(508,456,o),
(508,463,c),
(508,500,o),
(505,531,o),
(500,555,c),
(482,559,o),
(471,562,o),
(456,565,cs),
(436,570,o),
(416,572,o),
(400,572,cs),
(293,572,o),
(230,473,o),
(230,355,cs),
(230,235,o),
(306,158,o),
(390,158,cs)
);
}
);
width = 782;
},
{
layerId = "9E6FDE2E-55A6-44A9-9556-F1822294BF26";
shapes = (
{
closed = 1;
nodes = (
(614,13,o),
(763,173,o),
(763,365,cs),
(763,570,o),
(597,717,o),
(411,717,cs),
(216,717,o),
(59,564,o),
(59,365,cs),
(59,161,o),
(224,13,o),
(411,13,cs)
);
},
{
closed = 1;
nodes = (
(226,43,o),
(90,194,o),
(90,370,cs),
(90,546,o),
(237,687,o),
(411,687,cs),
(590,687,o),
(732,546,o),
(732,366,cs),
(732,187,o),
(593,43,o),
(407,43,cs)
);
},
{
closed = 1;
nodes = (
(456,158,o),
(501,163,o),
(535,171,c),
(544,174,o),
(554,176,o),
(561,177,c),
(574,192,o),
(582,213,o),
(591,254,c),
(591,256,o),
(591,258,o),
(591,259,cs),
(590,262,o),
(573,260,o),
(571,257,cs),
(542,207,o),
(495,178,o),
(411,178,cs),
(301,178,o),
(232,272,o),
(232,373,cs),
(232,462,o),
(312,552,o),
(412,552,cs),
(505,552,o),
(549,521,o),
(556,464,cs),
(556,459,o),
(575,458,o),
(578,465,c),
(578,496,o),
(575,526,o),
(569,555,c),
(526,562,o),
(491,567,o),
(472,570,cs),
(459,571,o),
(444,572,o),
(424,572,cs),
(257,572,o),
(172,467,o),
(172,355,cs),
(172,232,o),
(287,158,o),
(402,158,cs)
);
}
);
width = 822;
},
{
layerId = "00F4936D-6309-4DEC-83B3-42806ED1A477";
shapes = (
{
closed = 1;
nodes = (
(597,13,o),
(753,169,o),
(753,365,cs),
(753,562,o),
(597,717,o),
(401,717,cs),
(205,717,o),
(49,562,o),
(49,365,cs),
(49,169,o),
(205,13,o),
(401,13,cs)
);
},
{
closed = 1;
nodes = (
(217,47,o),
(83,195,o),
(83,369,cs),
(83,542,o),
(225,683,o),
(401,683,cs),
(579,683,o),
(719,542,o),
(719,366,cs),
(719,188,o),
(578,47,o),
(397,47,cs)
);
},
{
closed = 1;
nodes = (
(440,158,o),
(477,163,o),
(506,171,c),
(515,174,o),
(522,176,o),
(528,177,c),
(539,192,o),
(547,218,o),
(555,256,c),
(555,258,o),
(554,259,o),
(553,261,cs),
(551,264,o),
(537,263,o),
(535,259,cs),
(513,208,o),
(472,180,o),
(403,180,cs),
(313,180,o),
(257,273,o),
(257,373,cs),
(257,463,o),
(320,551,o),
(404,551,cs),
(478,551,o),
(518,521,o),
(523,463,cs),
(523,458,o),
(542,457,o),
(543,464,c),
(543,498,o),
(540,529,o),
(535,555,c),
(504,561,o),
(481,564,o),
(464,567,cs),
(447,570,o),
(430,572,o),
(412,572,cs),
(275,572,o),
(201,470,o),
(201,355,cs),
(201,234,o),
(296,158,o),
(396,158,cs)
);
}
);
width = 802;
}
);
unicode = 169;
}
{
color = 9;
glyphname = dotlessi;
kernLeft = i;
kernRight = i;
layers = (
{
anchors = (
{
name = bottom;
pos = (128,0);
},
{
name = ogonek;
pos = (201,5);
},
{
name = ogonek_above;
pos = (152,405);
},
{
name = top;
pos = (128,415);
},
{
name = us;
pos = (248,415);
},
{
name = zzcurly;
pos = (132,378);
}
);
layerId = master01;
shapes = (
{
closed = 1;
nodes = (
(73,-1,o),
(104,0,o),
(136,0,cs),
(167,0,o),
(199,-1,o),
(231,-3,c),
(240,-3,o),
(240,24,o),
(231,24,cs),
(188,24,o),
(173,34,o),
(173,62,cs),
(173,342,ls),
(173,367,o),
(173,393,o),
(176,417,c),
(176,426,o),
(174,431,o),
(170,431,cs),
(166,431,o),
(159,427,o),
(148,419,cs),
(113,392,o),
(75,374,o),
(53,374,cs),
(44,374,o),
(44,346,o),
(53,346,cs),
(86,346,o),
(98,329,o),
(98,279,cs),
(98,62,ls),
(98,34,o),
(83,24,o),
(41,24,cs),
(32,24,o),
(32,-3,o),
(41,-3,c)
);
}
);
width = 256;
},
{
anchors = (
{
name = bottom;
pos = (133,0);
},
{
name = ogonek;
pos = (216,5);
},
{
name = ogonek_above;
pos = (178,405);
},
{
name = top;
pos = (133,415);
},
{
name = us;
pos = (293,415);
},
{
name = zzcurly;
pos = (128,378);
}
);
layerId = "75918100-ED89-42A8-B0FE-888EB9C86810";
shapes = (
{
closed = 1;
nodes = (
(70,-1,o),
(105,0,o),
(141,0,cs),
(177,0,o),
(212,-1,o),
(248,-4,c),
(257,-4,o),
(257,33,o),
(248,33,cs),
(211,33,o),
(198,41,o),
(198,66,cs),
(198,333,ls),
(198,361,o),
(198,390,o),
(202,418,c),
(202,427,o),
(197,431,o),
(189,431,cs),
(183,431,o),
(178,429,o),
(169,422,cs),
(128,390,o),
(78,369,o),
(41,369,cs),
(32,369,o),
(32,333,o),
(41,333,cs),
(74,333,o),
(85,317,o),
(85,272,cs),
(85,66,ls),
(85,41,o),
(72,33,o),
(34,33,cs),
(25,33,o),
(25,-4,o),
(34,-4,c)
);
}
);
width = 269;
},
{
anchors = (
{
name = bottom;
pos = (127,0);
},
{
name = ogonek;
pos = (191,5);
},
{
name = ogonek_above;
pos = (151,405);
},
{
name = top;
pos = (127,415);
},
{
name = us;
pos = (257,415);
},
{
name = zzcurly;
pos = (122,378);
}
);
layerId = "6ABD9449-5E80-4451-809E-12ADEB9E9AB4";
shapes = (
{
closed = 1;
nodes = (
(75,-1,o),
(105,0,o),
(135,0,cs),
(166,0,o),
(196,-1,o),
(226,-4,c),
(235,-4,o),
(235,21,o),
(226,21,cs),
(181,21,o),
(166,31,o),
(166,61,cs),
(166,345,ls),
(166,369,o),
(166,394,o),
(168,417,c),
(168,426,o),
(167,431,o),
(164,431,cs),
(160,431,o),
(153,427,o),
(143,418,cs),
(112,392,o),
(79,375,o),
(59,375,cs),
(50,375,o),
(50,351,o),
(59,351,cs),
(92,351,o),
(104,333,o),
(104,281,cs),
(104,61,ls),
(104,31,o),
(89,21,o),
(44,21,cs),
(36,21,o),
(36,-4,o),
(44,-4,c)
);
}
);
width = 253;
},
{
anchors = (
{
name = bottom;
pos = (103,0);
},
{
name = ogonek;
pos = (165,5);
},
{
name = ogonek_above;
pos = (135,405);
},
{
name = top;
pos = (103,415);
},
{
name = us;
pos = (208,415);
},
{
name = zzcurly;
pos = (104,378);
}
);
layerId = "70B83247-6FA0-4662-9656-C86DD2A17D3B";
shapes = (
{
closed = 1;
nodes = (
(63,-1,o),
(91,0,o),
(119,0,cs),
(146,0,o),
(173,-1,o),
(201,-4,c),
(209,-4,o),
(209,24,o),
(201,24,cs),
(167,24,o),
(155,34,o),
(155,62,cs),
(155,342,ls),
(155,367,o),
(155,393,o),
(158,417,c),
(158,426,o),
(156,431,o),
(152,431,cs),
(148,431,o),
(142,427,o),
(131,419,cs),
(95,392,o),
(58,374,o),
(36,374,cs),
(27,374,o),
(27,346,o),
(36,346,cs),
(69,346,o),
(81,329,o),
(81,279,cs),
(81,62,ls),
(81,34,o),
(69,24,o),
(36,24,cs),
(27,24,o),
(27,-4,o),
(36,-4,c)
);
}
);
width = 223;
},
{
anchors = (
{
name = bottom;
pos = (155,0);
},
{
name = ogonek;
pos = (239,5);
},
{
name = ogonek_above;
pos = (172,405);
},
{
name = top;
pos = (155,415);
},
{
name = us;
pos = (290,415);
},
{
name = zzcurly;
pos = (163,378);
}
);
layerId = "9E6FDE2E-55A6-44A9-9556-F1822294BF26";
shapes = (
{
closed = 1;
nodes = (
(84,-1,o),
(120,0,o),
(156,0,cs),
(191,0,o),
(227,-1,o),
(263,-4,c),
(272,-4,o),
(272,24,o),
(263,24,cs),
(210,24,o),
(192,34,o),
(192,62,cs),
(192,342,ls),
(192,367,o),
(192,393,o),
(195,417,c),
(195,426,o),
(193,431,o),
(189,431,cs),
(186,431,o),
(179,427,o),
(168,419,cs),
(132,392,o),
(95,374,o),
(73,374,cs),
(64,374,o),
(64,346,o),
(73,346,cs),
(106,346,o),
(118,329,o),
(118,279,cs),
(118,62,ls),
(118,34,o),
(100,24,o),
(48,24,cs),
(39,24,o),
(39,-4,o),
(48,-4,c)
);
}
);
width = 292;
},
{
anchors = (
{
name = bottom;
pos = (120,0);
},
{
name = ogonek;
pos = (201,6);
},
{
name = ogonek_above;
pos = (169,629);
},
{
name = top;
pos = (144,641);
},
{
name = us;
pos = (315,641);
},
{
name = zzcurly;
pos = (156,597);
}
);
guides = (
{
pos = (316,1385);
}
);
layerId = "00F4936D-6309-4DEC-83B3-42806ED1A477";
shapes = (
{
closed = 1;
nodes = (
(87,-1,o),
(128,0,o),
(169,0,cs),
(211,0,o),
(255,-1,o),
(298,-3,c),
(310,-3,o),
(310,31,o),
(298,31,cs),
(232,31,o),
(209,47,o),
(209,93,cs),
(209,544,ls),
(209,578,o),
(209,614,o),
(213,654,c),
(213,667,o),
(213,676,o),
(209,676,cs),
(205,676,o),
(191,667,o),
(176,654,cs),
(131,615,o),
(87,589,o),
(64,589,cs),
(52,589,o),
(52,554,o),
(64,554,cs),
(114,554,o),
(131,525,o),
(131,443,cs),
(131,93,ls),
(131,47,o),
(109,31,o),
(44,31,cs),
(32,31,o),
(32,-3,o),
(44,-3,c)
);
}
);
width = 325;
}
);
unicode = 305;
}
{
color = 9;
glyphname = lslash;
layers = (
{
anchors = (
{
name = bottom;
pos = (119,0);
},
{
name = cedilla;
pos = (115,0);
},
{
name = top;
pos = (119,702);
},
{
name = topright;
pos = (237,702);
}
);
layerId = master01;
shapes = (
{
closed = 1;
nodes = (
(64,-1,o),
(95,0,o),
(127,0,cs),
(158,0,o),
(190,-1,o),
(222,-4,c),
(231,-4,o),
(231,24,o),
(222,24,cs),
(183,24,o),
(164,37,o),
(164,62,cs),
(164,637,ls),
(164,655,o),
(164,679,o),
(167,712,c),
(167,721,o),
(165,726,o),
(161,726,cs),
(157,726,o),
(150,722,o),
(139,714,cs),
(104,687,o),
(66,668,o),
(44,668,cs),
(35,668,o),
(35,641,o),
(44,641,cs),
(77,641,o),
(89,624,o),
(89,574,cs),
(89,62,ls),
(89,37,o),
(70,24,o),
(32,24,cs),
(23,24,o),
(23,-4,o),
(32,-4,c)
);
},
{
closed = 1;
nodes = (
(247,410,ls),
(255,415,o),
(239,447,o),
(228,441,cs),
(9,316,ls),
(-3,309,o),
(17,277,o),
(27,283,cs)
);
}
);
width = 254;
},
{
anchors = (
{
name = bottom;
pos = (130,0);
},
{
name = cedilla;
pos = (137,0);
},
{
name = top;
pos = (130,702);
},
{
name = topright;
pos = (248,702);
}
);
layerId = "75918100-ED89-42A8-B0FE-888EB9C86810";
shapes = (
{
closed = 1;
nodes = (
(67,-1,o),
(103,0,o),
(138,0,cs),
(174,0,o),
(210,-1,o),
(245,-4,c),
(254,-4,o),
(254,33,o),
(245,33,cs),
(211,33,o),
(195,44,o),
(195,66,cs),
(195,628,ls),
(195,655,o),
(195,683,o),
(199,713,c),
(199,722,o),
(194,726,o),
(187,726,cs),
(180,726,o),
(175,724,o),
(166,717,cs),
(126,685,o),
(75,664,o),
(38,664,cs),
(28,664,o),
(28,628,o),
(38,628,cs),
(67,628,o),
(83,607,o),
(83,567,cs),
(83,66,ls),
(83,44,o),
(65,33,o),
(31,33,cs),
(22,33,o),
(22,-4,o),
(31,-4,c)
);
},
{
closed = 1;
nodes = (
(268,410,ls),
(281,418,o),
(258,460,o),
(243,451,cs),
(7,314,ls),
(-5,307,o),
(17,265,o),
(31,273,cs)
);
}
);
width = 276;
},
{
anchors = (
{
name = bottom;
pos = (116,0);
},
{
name = cedilla;
pos = (109,0);
},
{
name = top;
pos = (116,702);
},
{
name = topright;
pos = (235,702);
}
);
layerId = "6ABD9449-5E80-4451-809E-12ADEB9E9AB4";
shapes = (
{
closed = 1;
nodes = (
(64,-1,o),
(94,0,o),
(124,0,cs),
(155,0,o),
(185,-1,o),
(215,-4,c),
(224,-4,o),
(224,21,o),
(215,21,cs),
(175,21,o),
(155,34,o),
(155,61,cs),
(155,640,ls),
(155,655,o),
(155,678,o),
(157,712,c),
(157,721,o),
(156,726,o),
(153,726,cs),
(149,726,o),
(142,722,o),
(132,713,cs),
(101,687,o),
(68,670,o),
(48,670,cs),
(38,670,o),
(38,646,o),
(48,646,cs),
(77,646,o),
(92,623,o),
(92,576,cs),
(92,61,ls),
(92,34,o),
(73,21,o),
(33,21,cs),
(24,21,o),
(24,-4,o),
(33,-4,c)
);
},
{
closed = 1;
nodes = (
(240,411,ls),
(246,415,o),
(233,446,o),
(223,440,cs),
(9,317,ls),
(0,312,o),
(16,282,o),
(25,287,cs)
);
}
);
width = 248;
},
{
anchors = (
{
name = bottom;
pos = (121,0);
},
{
name = cedilla;
pos = (121,0);
},
{
name = top;
pos = (121,702);
},
{
name = topright;
pos = (215,702);
}
);
layerId = "70B83247-6FA0-4662-9656-C86DD2A17D3B";
shapes = (
{
closed = 1;
nodes = (
(59,-1,o),
(86,0,o),
(114,0,cs),
(141,0,o),
(168,-1,o),
(196,-4,c),
(205,-4,o),
(205,24,o),
(196,24,cs),
(166,24,o),
(150,37,o),
(150,62,cs),
(150,633,ls),
(150,655,o),
(150,681,o),
(153,712,c),
(153,721,o),
(150,726,o),
(146,726,cs),
(142,726,o),
(135,722,o),
(129,716,cs),
(98,687,o),
(63,668,o),
(40,668,cs),
(31,668,o),
(31,641,o),
(40,641,cs),
(63,641,o),
(76,619,o),
(76,571,cs),
(76,62,ls),
(76,37,o),
(61,24,o),
(31,24,cs),
(22,24,o),
(22,-4,o),
(31,-4,c)
);
},
{
closed = 1;
nodes = (
(221,402,ls),
(229,407,o),
(214,445,o),
(201,437,cs),
(7,325,ls),
(-3,319,o),
(17,284,o),
(26,289,cs)
);
}
);
width = 227;
},
{
anchors = (
{
name = bottom;
pos = (117,0);
},
{
name = cedilla;
pos = (109,0);
},
{
name = top;
pos = (117,702);
},
{
name = topright;
pos = (259,702);
}
);
layerId = "9E6FDE2E-55A6-44A9-9556-F1822294BF26";
shapes = (
{
closed = 1;
nodes = (
(76,-1,o),
(119,0,o),
(141,0,cs),
(162,0,o),
(205,-1,o),
(248,-4,c),
(257,-4,o),
(257,24,o),
(248,24,cs),
(201,24,o),
(177,37,o),
(177,62,cs),
(177,641,ls),
(177,655,o),
(177,678,o),
(181,712,c),
(181,722,o),
(179,726,o),
(176,726,cs),
(172,726,o),
(166,723,o),
(150,712,cs),
(110,686,o),
(71,668,o),
(49,668,cs),
(39,668,o),
(39,641,o),
(49,641,cs),
(89,641,o),
(103,624,o),
(103,576,cs),
(103,62,ls),
(103,37,o),
(79,24,o),
(33,24,cs),
(24,24,o),
(24,-4,o),
(33,-4,c)
);
},
{
closed = 1;
nodes = (
(273,420,ls),
(281,425,o),
(266,455,o),
(256,449,cs),
(10,307,ls),
(-2,300,o),
(15,272,o),
(26,278,cs)
);
}
);
width = 281;
},
{
anchors = (
{
name = bottom;
pos = (119,0);
},
{
name = cedilla;
pos = (115,0);
},
{
name = top;
pos = (119,702);
},
{
name = topright;
pos = (237,702);
}
);
layerId = "00F4936D-6309-4DEC-83B3-42806ED1A477";
shapes = (
{
closed = 1;
nodes = (
(64,-1,o),
(95,0,o),
(127,0,cs),
(158,0,o),
(190,-1,o),
(222,-4,c),
(231,-4,o),
(231,24,o),
(222,24,cs),
(183,24,o),
(164,37,o),
(164,62,cs),
(164,637,ls),
(164,655,o),
(164,679,o),
(167,712,c),
(167,721,o),
(165,726,o),
(161,726,cs),
(157,726,o),
(150,722,o),
(139,714,cs),
(104,687,o),
(66,668,o),
(44,668,cs),
(35,668,o),
(35,641,o),
(44,641,cs),
(77,641,o),
(89,624,o),
(89,574,cs),
(89,62,ls),
(89,37,o),
(70,24,o),
(32,24,cs),
(23,24,o),
(23,-4,o),
(32,-4,c)
);
},
{
closed = 1;
nodes = (
(247,410,ls),
(255,415,o),
(239,447,o),
(228,441,cs),
(9,316,ls),
(-3,309,o),
(17,277,o),
(27,283,cs)
);
}
);
width = 254;
}
);
unicode = 322;
}
{
glyphname = Eng;
kernLeft = B;
kernRight = N;
layers = (
{
anchors = (
{
name = bottom;
pos = (394,-253);
},
{
name = top;
pos = (371,663);
}
);
layerId = master01;
shapes = (
{
closed = 1;
nodes = (
(517,-253,o),
(552,-232,o),
(581,-196,cs),
(612,-158,o),
(633,-108,o),
(633,-16,cs),
(633,572,ls),
(633,614,o),
(649,628,o),
(699,628,cs),
(708,628,o),
(708,666,o),
(699,666,c),
(669,664,o),
(638,663,o),
(608,663,cs),
(577,663,o),
(547,664,o),
(516,666,c),
(507,666,o),
(506,628,o),
(516,628,cs),
(580,628,o),
(600,614,o),
(600,572,cs),
(600,143,l),
(592,143,l),
(207,639,ls),
(198,650,o),
(188,657,o),
(178,660,cs),
(167,662,o),
(146,663,o),
(112,663,cs),
(88,663,o),
(64,664,o),
(40,666,c),
(31,666,o),
(30,628,o),
(40,628,cs),
(109,628,o),
(131,607,o),
(131,542,cs),
(131,91,ls),
(131,48,o),
(111,34,o),
(50,34,cs),
(41,34,o),
(40,-3,o),
(50,-3,c),
(82,-1,o),
(114,0,o),
(146,0,cs),
(178,0,o),
(210,-1,o),
(242,-3,c),
(251,-3,o),
(251,34,o),
(242,34,cs),
(184,34,o),
(165,48,o),
(165,91,cs),
(165,550,l),
(172,550,l),
(600,10,l),
(600,-39,ls),
(600,-145,o),
(558,-213,o),
(518,-213,cs),
(511,-213,o),
(501,-207,o),
(489,-195,cs),
(476,-183,o),
(462,-177,o),
(448,-177,cs),
(425,-177,o),
(413,-188,o),
(413,-209,cs),
(413,-235,o),
(434,-253,o),
(464,-253,cs)
);
}
);
width = 728;
},
{
anchors = (
{
name = bottom;
pos = (394,-253);
},
{
name = top;
pos = (376,663);
}
);
layerId = "75918100-ED89-42A8-B0FE-888EB9C86810";
shapes = (
{
closed = 1;
nodes = (
(522,-253,o),
(547,-235,o),
(578,-200,cs),
(612,-161,o),
(638,-108,o),
(638,-16,cs),
(638,562,ls),
(638,606,o),
(654,620,o),
(704,620,cs),
(713,620,o),
(713,666,o),
(704,666,c),
(672,664,o),
(640,663,o),
(608,663,cs),
(576,663,o),
(544,664,o),
(513,666,c),
(503,666,o),
(503,620,o),
(513,620,cs),
(570,620,o),
(588,606,o),
(588,562,cs),
(588,192,l),
(580,192,l),
(217,634,ls),
(204,650,o),
(187,655,o),
(176,659,cs),
(165,663,o),
(130,663,o),
(106,663,cs),
(82,663,o),
(58,664,o),
(34,666,c),
(25,666,o),
(25,620,o),
(34,620,cs),
(98,620,o),
(118,606,o),
(118,564,cs),
(118,94,ls),
(118,55,o),
(99,42,o),
(41,42,cs),
(31,42,o),
(32,-3,o),
(41,-3,c),
(75,-1,o),
(108,0,o),
(142,0,cs),
(175,0,o),
(209,-1,o),
(243,-3,c),
(253,-3,o),
(252,42,o),
(243,42,cs),
(187,42,o),
(169,55,o),
(169,94,cs),
(169,504,l),
(178,504,l),
(584,21,l),
(584,-37,ls),
(584,-130,o),
(547,-188,o),
(514,-188,cs),
(509,-188,o),
(501,-182,o),
(489,-170,cs),
(477,-159,o),
(462,-153,o),
(445,-153,cs),
(412,-153,o),
(397,-172,o),
(397,-197,cs),
(397,-230,o),
(424,-253,o),
(461,-253,cs)
);
}
);
width = 729;
},
{
anchors = (
{
name = bottom;
pos = (397,-253);
},
{
name = top;
pos = (373,663);
}
);
layerId = "6ABD9449-5E80-4451-809E-12ADEB9E9AB4";
shapes = (
{
closed = 1;
nodes = (
(518,-253,o),
(557,-231,o),
(585,-194,cs),
(615,-157,o),
(635,-108,o),
(635,-16,cs),
(635,575,ls),
(635,617,o),
(651,631,o),
(701,631,cs),
(709,631,o),
(710,666,o),
(701,666,c),
(671,664,o),
(641,663,o),
(611,663,cs),
(581,663,o),
(551,664,o),
(521,666,c),
(511,666,o),
(511,631,o),
(521,631,cs),
(586,631,o),
(607,617,o),
(607,575,cs),
(607,126,l),
(599,126,l),
(207,641,ls),
(199,650,o),
(192,656,o),
(183,659,cs),
(172,662,o),
(136,663,o),
(111,663,cs),
(88,663,o),
(66,664,o),
(43,666,c),
(34,666,o),
(33,631,o),
(43,631,cs),
(114,631,o),
(137,608,o),
(137,535,cs),
(137,88,ls),
(137,45,o),
(117,31,o),
(54,31,cs),
(45,31,o),
(44,-3,o),
(54,-3,c),
(86,-1,o),
(118,0,o),
(150,0,cs),
(182,0,o),
(214,-1,o),
(246,-3,c),
(254,-3,o),
(255,31,o),
(246,31,cs),
(186,31,o),
(167,45,o),
(167,88,cs),
(167,564,l),
(174,564,l),
(608,6,l),
(608,-40,ls),
(608,-149,o),
(565,-221,o),
(523,-221,cs),
(515,-221,o),
(505,-215,o),
(492,-204,cs),
(479,-191,o),
(466,-186,o),
(453,-186,cs),
(433,-186,o),
(422,-193,o),
(422,-213,cs),
(422,-236,o),
(440,-253,o),
(469,-253,cs)
);
}
);
width = 732;
},
{
anchors = (
{
name = bottom;
pos = (395,-253);
},
{
name = top;
pos = (308,663);
}
);
layerId = "70B83247-6FA0-4662-9656-C86DD2A17D3B";
shapes = (
{
closed = 1;
nodes = (
(395,-253,o),
(430,-232,o),
(459,-196,cs),
(490,-158,o),
(511,-108,o),
(511,-16,cs),
(511,571,ls),
(511,614,o),
(524,628,o),
(563,628,cs),
(571,628,o),
(571,666,o),
(563,666,c),
(539,664,o),
(514,663,o),
(489,663,cs),
(464,663,o),
(439,664,o),
(415,666,c),
(407,666,o),
(407,629,o),
(415,629,cs),
(463,629,o),
(479,615,o),
(479,572,cs),
(479,157,l),
(473,157,l),
(171,638,ls),
(163,650,o),
(153,657,o),
(145,660,cs),
(135,663,o),
(125,663,o),
(95,663,cs),
(75,663,o),
(54,664,o),
(33,666,c),
(26,666,o),
(26,628,o),
(33,628,cs),
(87,628,o),
(104,609,o),
(104,551,cs),
(104,91,ls),
(104,48,o),
(88,34,o),
(40,34,cs),
(33,34,o),
(33,-3,o),
(40,-3,c),
(66,-1,o),
(92,0,o),
(119,0,cs),
(145,0,o),
(171,-1,o),
(197,-3,c),
(204,-3,o),
(204,34,o),
(197,34,cs),
(151,34,o),
(136,48,o),
(136,91,cs),
(136,536,l),
(143,536,l),
(478,15,l),
(478,-39,ls),
(478,-145,o),
(436,-213,o),
(396,-213,cs),
(389,-213,o),
(379,-207,o),
(367,-195,cs),
(354,-183,o),
(340,-177,o),
(326,-177,cs),
(303,-177,o),
(291,-188,o),
(291,-209,cs),
(291,-235,o),
(312,-253,o),
(342,-253,cs)
);
}
);
width = 588;
},
{
anchors = (
{
name = bottom;
pos = (395,-253);
},
{
name = top;
pos = (436,663);
}
);
layerId = "9E6FDE2E-55A6-44A9-9556-F1822294BF26";
shapes = (
{
closed = 1;
nodes = (
(640,-253,o),
(676,-232,o),
(705,-196,cs),
(735,-158,o),
(756,-108,o),
(756,-16,cs),
(756,572,ls),
(756,614,o),
(775,628,o),
(836,628,cs),
(847,628,o),
(847,666,o),
(836,666,c),
(801,664,o),
(764,663,o),
(728,663,cs),
(691,663,o),
(656,664,o),
(619,666,c),
(608,666,o),
(607,628,o),
(619,628,cs),
(697,628,o),
(722,614,o),
(722,572,cs),
(722,128,l),
(713,128,l),
(244,641,ls),
(234,650,o),
(224,658,o),
(212,660,cs),
(201,662,o),
(170,663,o),
(131,663,cs),
(103,663,o),
(76,663,o),
(47,666,c),
(37,666,o),
(36,628,o),
(47,628,cs),
(133,628,o),
(160,605,o),
(160,533,cs),
(160,91,ls),
(160,48,o),
(136,34,o),
(61,34,cs),
(50,34,o),
(49,-3,o),
(61,-3,c),
(99,-1,o),
(137,0,o),
(175,0,cs),
(213,0,o),
(250,-1,o),
(289,-3,c),
(299,-3,o),
(300,34,o),
(289,34,cs),
(218,34,o),
(195,48,o),
(195,91,cs),
(195,564,l),
(204,564,l),
(723,6,l),
(723,-39,ls),
(723,-145,o),
(682,-213,o),
(642,-213,cs),
(635,-213,o),
(625,-207,o),
(612,-195,cs),
(599,-183,o),
(586,-177,o),
(572,-177,cs),
(548,-177,o),
(537,-188,o),
(537,-209,cs),
(537,-235,o),
(557,-253,o),
(588,-253,cs)
);
}
);
width = 871;
},
{
anchors = (
{
name = bottom;
pos = (394,-253);
},
{
name = top;
pos = (371,663);
}
);
layerId = "00F4936D-6309-4DEC-83B3-42806ED1A477";
shapes = (
{
closed = 1;
nodes = (
(517,-253,o),
(552,-232,o),
(581,-196,cs),
(612,-158,o),
(633,-108,o),
(633,-16,cs),
(633,572,ls),
(633,614,o),
(649,628,o),
(699,628,cs),
(708,628,o),
(708,666,o),
(699,666,c),
(669,664,o),
(638,663,o),
(608,663,cs),
(577,663,o),
(547,664,o),
(516,666,c),
(507,666,o),
(506,628,o),
(516,628,cs),
(580,628,o),
(600,614,o),
(600,572,cs),
(600,143,l),
(592,143,l),
(207,639,ls),
(198,650,o),
(188,657,o),
(178,660,cs),
(167,662,o),
(146,663,o),
(112,663,cs),
(88,663,o),
(64,664,o),
(40,666,c),
(31,666,o),
(30,628,o),
(40,628,cs),
(109,628,o),
(131,607,o),
(131,542,cs),
(131,91,ls),
(131,48,o),
(111,34,o),
(50,34,cs),
(41,34,o),
(40,-3,o),
(50,-3,c),
(82,-1,o),
(114,0,o),
(146,0,cs),
(178,0,o),
(210,-1,o),
(242,-3,c),
(251,-3,o),
(251,34,o),
(242,34,cs),
(184,34,o),
(165,48,o),
(165,91,cs),
(165,550,l),
(172,550,l),
(600,10,l),
(600,-39,ls),
(600,-145,o),
(558,-213,o),
(518,-213,cs),
(511,-213,o),
(501,-207,o),
(489,-195,cs),
(476,-183,o),
(462,-177,o),
(448,-177,cs),
(425,-177,o),
(413,-188,o),
(413,-209,cs),
(413,-235,o),
(434,-253,o),
(464,-253,cs)
);
}
);
width = 728;
}
);
metricLeft = B;
metricWidth = N;
unicode = 330;
}
{
glyphname = hv;
kernLeft = h;
layers = (
{
layerId = master01;
shapes = (
{
closed = 1;
nodes = (
(672,-11,o),
(742,98,o),
(742,208,cs),
(742,297,o),
(704,425,o),
(622,425,cs),
(595,425,o),
(563,393,o),
(563,369,c),
(629,346,o),
(662,291,o),
(662,205,cs),
(662,110,o),
(612,21,o),
(537,21,cs),
(483,21,o),
(448,57,o),
(448,151,cs),
(448,224,ls),
(448,304,o),
(436,339,o),
(416,367,cs),
(388,408,o),
(350,425,o),
(300,425,cs),
(253,425,o),
(218,409,o),
(187,378,cs),
(185,375,o),
(182,374,o),
(179,374,cs),
(173,374,o),
(171,378,o),
(171,386,cs),
(171,632,l),
(96,573,l),
(96,67,l),
(171,67,l),
(171,307,ls),
(171,345,o),
(210,381,o),
(264,381,cs),
(302,381,o),
(333,363,o),
(352,336,cs),
(365,317,o),
(373,293,o),
(373,228,cs),
(373,151,ls),
(373,29,o),
(442,-11,o),
(538,-11,cs)
);
},
{
closed = 1;
nodes = (
(171,555,l),
(171,638,ls),
(171,656,o),
(171,680,o),
(174,713,c),
(174,722,o),
(172,727,o),
(168,727,cs),
(164,727,o),
(157,723,o),
(146,714,cs),
(129,701,o),
(81,669,o),
(51,669,cs),
(42,669,o),
(42,642,o),
(51,642,cs),
(81,642,o),
(96,619,o),
(96,574,cs),
(96,555,l)
);
},
{
closed = 1;
nodes = (
(71,-1,o),
(103,0,o),
(134,0,cs),
(166,0,o),
(197,-1,o),
(229,-4,c),
(238,-4,o),
(238,24,o),
(229,24,cs),
(190,24,o),
(171,32,o),
(171,62,cs),
(171,98,l),
(96,98,l),
(96,62,ls),
(96,32,o),
(77,24,o),
(39,24,cs),
(30,24,o),
(30,-4,o),
(39,-4,c)
);
}
);
width = 779;
},
{
layerId = "75918100-ED89-42A8-B0FE-888EB9C86810";
shapes = (
{
closed = 1;
nodes = (
(718,-11,o),
(792,72,o),
(792,208,cs),
(792,304,o),
(748,425,o),
(653,425,cs),
(612,425,o),
(564,391,o),
(564,355,c),
(634,335,o),
(668,288,o),
(668,213,cs),
(668,115,o),
(641,30,o),
(559,30,cs),
(502,30,o),
(475,76,o),
(475,154,cs),
(475,223,ls),
(475,302,o),
(465,330,o),
(447,357,cs),
(417,402,o),
(374,425,o),
(313,425,cs),
(273,425,o),
(240,414,o),
(212,395,cs),
(208,392,o),
(204,390,o),
(201,390,cs),
(198,390,o),
(196,394,o),
(196,401,cs),
(196,628,l),
(84,567,l),
(84,71,l),
(196,71,l),
(196,306,ls),
(196,339,o),
(231,372,o),
(274,372,cs),
(305,372,o),
(331,355,o),
(345,333,cs),
(356,315,o),
(362,292,o),
(362,222,cs),
(362,151,ls),
(362,50,o),
(447,-11,o),
(547,-11,cs)
);
},
{
closed = 1;
nodes = (
(196,529,l),
(196,628,ls),
(196,655,o),
(196,684,o),
(200,713,c),
(200,722,o),
(195,727,o),
(188,727,cs),
(181,727,o),
(176,725,o),
(167,718,cs),
(141,696,o),
(78,665,o),
(39,665,cs),
(30,665,o),
(30,628,o),
(39,628,cs),
(78,628,o),
(84,608,o),
(84,567,cs),
(84,529,l)
);
},
{
closed = 1;
nodes = (
(68,-1,o),
(104,0,o),
(140,0,cs),
(175,0,o),
(211,-1,o),
(247,-4,c),
(255,-4,o),
(255,33,o),
(247,33,cs),
(213,33,o),
(196,41,o),
(196,66,cs),
(196,99,l),
(84,99,l),
(84,66,ls),
(84,41,o),
(66,33,o),
(33,33,cs),
(24,33,o),
(24,-4,o),
(33,-4,c)
);
}
);
width = 822;
},
{
layerId = "6ABD9449-5E80-4451-809E-12ADEB9E9AB4";
shapes = (
{
closed = 1;
nodes = (
(658,-11,o),
(727,106,o),
(727,208,cs),
(727,294,o),
(690,425,o),
(613,425,cs),
(591,425,o),
(563,394,o),
(563,374,c),
(628,349,o),
(661,292,o),
(661,203,cs),
(661,108,o),
(604,18,o),
(531,18,cs),
(478,18,o),
(440,50,o),
(440,151,cs),
(440,225,ls),
(440,304,o),
(427,342,o),
(407,371,cs),
(379,410,o),
(343,425,o),
(297,425,cs),
(248,425,o),
(211,407,o),
(180,372,cs),
(178,370,o),
(175,369,o),
(172,369,cs),
(167,369,o),
(164,373,o),
(164,381,cs),
(164,634,l),
(102,575,l),
(102,65,l),
(164,65,l),
(164,308,ls),
(164,347,o),
(205,384,o),
(262,384,cs),
(302,384,o),
(334,366,o),
(355,338,cs),
(369,317,o),
(378,293,o),
(378,230,cs),
(378,151,ls),
(378,24,o),
(438,-11,o),
(536,-11,cs)
);
},
{
closed = 1;
nodes = (
(164,564,l),
(164,641,ls),
(164,656,o),
(164,678,o),
(166,713,c),
(166,722,o),
(165,727,o),
(162,727,cs),
(158,727,o),
(151,722,o),
(141,713,cs),
(124,699,o),
(86,670,o),
(57,670,cs),
(48,670,o),
(48,646,o),
(57,646,cs),
(86,646,o),
(102,623,o),
(102,577,cs),
(102,564,l)
);
},
{
closed = 1;
nodes = (
(73,-1,o),
(103,0,o),
(133,0,cs),
(164,0,o),
(194,-1,o),
(224,-4,c),
(233,-4,o),
(233,21,o),
(224,21,cs),
(184,21,o),
(164,29,o),
(164,61,cs),
(164,98,l),
(102,98,l),
(102,61,ls),
(102,29,o),
(82,21,o),
(42,21,cs),
(34,21,o),
(34,-4,o),
(42,-4,c)
);
}
);
width = 769;
},
{
layerId = "70B83247-6FA0-4662-9656-C86DD2A17D3B";
shapes = (
{
closed = 1;
nodes = (
(563,-11,o),
(621,88,o),
(621,208,cs),
(621,298,o),
(588,425,o),
(517,425,cs),
(490,425,o),
(458,392,o),
(458,363,c),
(513,341,o),
(540,289,o),
(540,208,cs),
(540,111,o),
(508,24,o),
(445,24,cs),
(396,24,o),
(376,75,o),
(376,151,cs),
(376,224,ls),
(376,302,o),
(368,335,o),
(353,363,cs),
(330,406,o),
(296,425,o),
(252,425,cs),
(216,425,o),
(190,410,o),
(167,385,cs),
(164,382,o),
(162,380,o),
(159,380,cs),
(155,380,o),
(154,385,o),
(154,392,cs),
(154,630,l),
(79,571,l),
(79,67,l),
(154,67,l),
(154,307,ls),
(154,342,o),
(184,377,o),
(223,377,cs),
(251,377,o),
(273,359,o),
(286,335,cs),
(297,313,o),
(301,288,o),
(301,226,cs),
(301,151,ls),
(301,50,o),
(351,-11,o),
(442,-11,cs)
);
},
{
closed = 1;
nodes = (
(154,555,l),
(154,638,ls),
(154,656,o),
(154,680,o),
(157,713,c),
(157,722,o),
(155,727,o),
(151,727,cs),
(147,727,o),
(140,723,o),
(129,714,cs),
(112,701,o),
(64,669,o),
(34,669,cs),
(25,669,o),
(25,642,o),
(34,642,cs),
(64,642,o),
(79,619,o),
(79,574,cs),
(79,555,l)
);
},
{
closed = 1;
nodes = (
(62,-1,o),
(89,0,o),
(117,0,cs),
(145,0,o),
(172,-1,o),
(199,-4,c),
(208,-4,o),
(208,24,o),
(199,24,cs),
(169,24,o),
(154,32,o),
(154,62,cs),
(154,98,l),
(79,98,l),
(79,62,ls),
(79,32,o),
(64,24,o),
(35,24,cs),
(26,24,o),
(26,-4,o),
(35,-4,c)
);
}
);
width = 653;
},
{
layerId = "9E6FDE2E-55A6-44A9-9556-F1822294BF26";
shapes = (
{
closed = 1;
nodes = (
(783,-11,o),
(865,107,o),
(865,208,cs),
(865,295,o),
(821,425,o),
(729,425,cs),
(703,425,o),
(669,395,o),
(669,375,c),
(747,350,o),
(787,293,o),
(787,202,cs),
(787,109,o),
(719,18,o),
(631,18,cs),
(572,18,o),
(521,41,o),
(521,151,cs),
(521,225,ls),
(521,306,o),
(505,342,o),
(481,371,cs),
(449,410,o),
(405,425,o),
(350,425,cs),
(292,425,o),
(248,407,o),
(209,371,cs),
(207,369,o),
(204,368,o),
(200,368,cs),
(193,368,o),
(190,371,o),
(190,380,cs),
(190,634,l),
(115,576,l),
(115,67,l),
(190,67,l),
(190,308,ls),
(190,348,o),
(239,384,o),
(308,384,cs),
(354,384,o),
(394,368,o),
(419,338,cs),
(435,321,o),
(447,298,o),
(447,230,cs),
(447,152,ls),
(447,8,o),
(535,-11,o),
(636,-11,cs)
);
},
{
closed = 1;
nodes = (
(190,555,l),
(190,638,ls),
(190,656,o),
(190,680,o),
(193,713,c),
(193,722,o),
(191,727,o),
(187,727,cs),
(183,727,o),
(176,723,o),
(166,714,cs),
(148,701,o),
(100,669,o),
(70,669,cs),
(62,669,o),
(62,642,o),
(70,642,cs),
(100,642,o),
(115,619,o),
(115,574,cs),
(115,555,l)
);
},
{
closed = 1;
nodes = (
(82,-1,o),
(118,0,o),
(153,0,cs),
(188,0,o),
(225,-1,o),
(261,-4,c),
(270,-4,o),
(270,24,o),
(261,24,cs),
(214,24,o),
(190,32,o),
(190,62,cs),
(190,98,l),
(115,98,l),
(115,62,ls),
(115,32,o),
(92,24,o),
(45,24,cs),
(37,24,o),
(37,-4,o),
(45,-4,c)
);
}
);
width = 910;
},
{
layerId = "00F4936D-6309-4DEC-83B3-42806ED1A477";
shapes = (
{
closed = 1;
nodes = (
(673,-11,o),
(744,98,o),
(744,208,cs),
(744,297,o),
(705,425,o),
(624,425,cs),
(597,425,o),
(564,393,o),
(564,369,c),
(630,346,o),
(664,291,o),
(664,205,cs),
(664,110,o),
(614,21,o),
(539,21,cs),
(485,21,o),
(449,57,o),
(449,151,cs),
(449,224,ls),
(449,304,o),
(437,339,o),
(418,367,cs),
(390,408,o),
(351,425,o),
(302,425,cs),
(255,425,o),
(219,409,o),
(189,378,cs),
(186,375,o),
(183,374,o),
(180,374,cs),
(175,374,o),
(172,378,o),
(172,386,cs),
(172,632,l),
(98,573,l),
(98,67,l),
(172,67,l),
(172,307,ls),
(172,345,o),
(212,381,o),
(266,381,cs),
(303,381,o),
(334,363,o),
(353,336,cs),
(367,317,o),
(375,293,o),
(375,228,cs),
(375,151,ls),
(375,29,o),
(443,-11,o),
(540,-11,cs)
);
},
{
closed = 1;
nodes = (
(172,555,l),
(172,638,ls),
(172,656,o),
(172,680,o),
(175,713,c),
(175,722,o),
(173,727,o),
(169,727,cs),
(166,727,o),
(159,723,o),
(148,714,cs),
(131,701,o),
(83,669,o),
(53,669,cs),
(44,669,o),
(44,642,o),
(53,642,cs),
(83,642,o),
(98,619,o),
(98,574,cs),
(98,555,l)
);
},
{
closed = 1;
nodes = (
(72,-1,o),
(104,0,o),
(136,0,cs),
(167,0,o),
(199,-1,o),
(230,-4,c),
(239,-4,o),
(239,24,o),
(230,24,cs),
(192,24,o),
(172,32,o),
(172,62,cs),
(172,98,l),
(98,98,l),
(98,62,ls),
(98,32,o),
(79,24,o),
(41,24,cs),
(32,24,o),
(32,-4,o),
(41,-4,c)
);
}
);
width = 781;
}
);
metricLeft = h;
metricRight = o;
unicode = 405;
}
{
glyphname = Ocenteredtilde;
kernLeft = C;
kernRight = O;
layers = (
{
layerId = master01;
shapes = (
{
closed = 1;
nodes = (
(536,-13,o),
(675,140,o),
(675,332,cs),
(675,523,o),
(536,676,o),
(360,676,cs),
(184,676,o),
(44,523,o),
(44,332,cs),
(44,140,o),
(184,-13,o),
(360,-13,cs)
);
},
{
closed = 1;
nodes = (
(233,23,o),
(138,156,o),
(138,333,cs),
(138,509,o),
(233,642,o),
(360,642,cs),
(487,642,o),
(582,509,o),
(582,333,cs),
(582,156,o),
(487,23,o),
(360,23,cs)
);
},
{
closed = 1;
nodes = (
(618,309,l),
(618,354,l),
(91,354,l),
(91,309,l)
);
}
);
width = 713;
},
{
layerId = "75918100-ED89-42A8-B0FE-888EB9C86810";
shapes = (
{
closed = 1;
nodes = (
(563,-13,o),
(707,135,o),
(707,332,cs),
(707,528,o),
(563,676,o),
(372,676,cs),
(180,676,o),
(36,528,o),
(36,332,cs),
(36,135,o),
(180,-13,o),
(372,-13,cs)
);
},
{
closed = 1;
nodes = (
(256,33,o),
(169,162,o),
(169,333,cs),
(169,504,o),
(256,633,o),
(372,633,cs),
(487,633,o),
(574,504,o),
(574,333,cs),
(574,162,o),
(487,33,o),
(372,33,cs)
);
},
{
closed = 1;
nodes = (
(642,299,l),
(642,363,l),
(115,363,l),
(115,299,l)
);
}
);
width = 737;
},
{
layerId = "6ABD9449-5E80-4451-809E-12ADEB9E9AB4";
shapes = (
{
closed = 1;
nodes = (
(528,-13,o),
(666,141,o),
(666,332,cs),
(666,522,o),
(528,676,o),
(357,676,cs),
(187,676,o),
(49,522,o),
(49,332,cs),
(49,141,o),
(187,-13,o),
(357,-13,cs)
);
},
{
closed = 1;
nodes = (
(227,20,o),
(129,154,o),
(129,333,cs),
(129,511,o),
(227,645,o),
(357,645,cs),
(488,645,o),
(586,511,o),
(586,333,cs),
(586,154,o),
(488,20,o),
(357,20,cs)
);
},
{
closed = 1;
nodes = (
(611,312,l),
(611,352,l),
(84,352,l),
(84,312,l)
);
}
);
width = 708;
},
{
layerId = "70B83247-6FA0-4662-9656-C86DD2A17D3B";
shapes = (
{
closed = 1;
nodes = (
(440,-13,o),
(554,140,o),
(554,332,cs),
(554,523,o),
(440,676,o),
(296,676,cs),
(152,676,o),
(38,523,o),
(38,332,cs),
(38,140,o),
(152,-13,o),
(296,-13,cs)
);
},
{
closed = 1;
nodes = (
(199,23,o),
(131,151,o),
(131,333,cs),
(131,514,o),
(199,642,o),
(296,642,cs),
(393,642,o),
(461,514,o),
(461,333,cs),
(461,151,o),
(393,23,o),
(296,23,cs)
);
},
{
closed = 1;
nodes = (
(506,306,l),
(506,357,l),
(84,357,l),
(84,306,l)
);
}
);
width = 586;
},
{
layerId = "9E6FDE2E-55A6-44A9-9556-F1822294BF26";
shapes = (
{
closed = 1;
nodes = (
(633,-13,o),
(798,140,o),
(798,332,cs),
(798,523,o),
(633,676,o),
(426,676,cs),
(218,676,o),
(53,523,o),
(53,332,cs),
(53,140,o),
(218,-13,o),
(426,-13,cs)
);
},
{
closed = 1;
nodes = (
(270,23,o),
(146,160,o),
(146,333,cs),
(146,505,o),
(270,642,o),
(426,642,cs),
(582,642,o),
(705,505,o),
(705,333,cs),
(705,160,o),
(582,23,o),
(426,23,cs)
);
},
{
closed = 1;
nodes = (
(732,312,l),
(732,352,l),
(99,352,l),
(99,312,l)
);
}
);
width = 844;
},
{
layerId = "00F4936D-6309-4DEC-83B3-42806ED1A477";
shapes = (
{
closed = 1;
nodes = (
(536,-13,o),
(675,140,o),
(675,332,cs),
(675,523,o),
(536,676,o),
(360,676,cs),
(184,676,o),
(44,523,o),
(44,332,cs),
(44,140,o),
(184,-13,o),
(360,-13,cs)
);
},
{
closed = 1;
nodes = (
(233,23,o),
(138,156,o),
(138,333,cs),
(138,509,o),
(233,642,o),
(360,642,cs),
(487,642,o),
(582,509,o),
(582,333,cs),
(582,156,o),
(487,23,o),
(360,23,cs)
);
},
{
closed = 1;
nodes = (
(618,309,l),
(618,354,l),
(91,354,l),
(91,309,l)
);
}
);
width = 713;
}
);
metricLeft = O;
metricRight = O;
unicode = 415;
}
{
glyphname = Oi;
kernLeft = C;
layers = (
{
layerId = master01;
shapes = (
{
closed = 1;
nodes = (
(536,-13,o),
(675,140,o),
(675,332,cs),
(675,523,o),
(536,676,o),
(360,676,cs),
(184,676,o),
(44,523,o),
(44,332,cs),
(44,140,o),
(184,-13,o),
(360,-13,cs)
);
},
{
closed = 1;
nodes = (
(233,23,o),
(138,156,o),
(138,333,cs),
(138,509,o),
(233,642,o),
(360,642,cs),
(487,642,o),
(582,509,o),
(582,333,cs),
(582,156,o),
(487,23,o),
(360,23,cs)
);
},
{
closed = 1;
nodes = (
(719,-221,o),
(761,-220,o),
(803,-220,cs),
(845,-220,o),
(888,-221,o),
(930,-224,c),
(939,-224,o),
(939,-187,o),
(930,-187,cs),
(871,-187,o),
(842,-168,o),
(842,-129,cs),
(842,468,ls),
(842,569,o),
(825,609,o),
(790,639,cs),
(761,664,o),
(726,676,o),
(687,676,cs),
(620,676,o),
(569,657,o),
(528,612,c),
(553,590,l),
(581,626,o),
(619,642,o),
(667,642,cs),
(725,642,o),
(764,598,o),
(764,517,cs),
(764,-129,ls),
(764,-168,o),
(735,-187,o),
(677,-187,cs),
(667,-187,o),
(668,-224,o),
(677,-224,c)
);
}
);
width = 964;
},
{
layerId = "75918100-ED89-42A8-B0FE-888EB9C86810";
shapes = (
{
closed = 1;
nodes = (
(563,-13,o),
(707,135,o),
(707,332,cs),
(707,528,o),
(563,676,o),
(372,676,cs),
(180,676,o),
(36,528,o),
(36,332,cs),
(36,135,o),
(180,-13,o),
(372,-13,cs)
);
},
{
closed = 1;
nodes = (
(256,33,o),
(169,162,o),
(169,333,cs),
(169,504,o),
(256,633,o),
(372,633,cs),
(487,633,o),
(574,504,o),
(574,333,cs),
(574,162,o),
(487,33,o),
(372,33,cs)
);
},
{
closed = 1;
nodes = (
(756,-221,o),
(807,-220,o),
(858,-220,cs),
(909,-220,o),
(959,-221,o),
(1010,-224,c),
(1020,-224,o),
(1020,-187,o),
(1010,-187,cs),
(952,-187,o),
(922,-168,o),
(922,-129,cs),
(922,468,ls),
(922,569,o),
(903,611,o),
(865,639,cs),
(832,663,o),
(785,676,o),
(724,676,cs),
(651,676,o),
(594,656,o),
(549,605,c),
(581,575,l),
(620,618,o),
(648,632,o),
(688,632,cs),
(754,632,o),
(792,592,o),
(792,517,cs),
(792,-129,ls),
(792,-168,o),
(763,-187,o),
(705,-187,cs),
(696,-187,o),
(696,-224,o),
(705,-224,c)
);
}
);
width = 1038;
},
{
layerId = "6ABD9449-5E80-4451-809E-12ADEB9E9AB4";
shapes = (
{
closed = 1;
nodes = (
(528,-13,o),
(666,141,o),
(666,332,cs),
(666,522,o),
(528,676,o),
(357,676,cs),
(187,676,o),
(49,522,o),
(49,332,cs),
(49,141,o),
(187,-13,o),
(357,-13,cs)
);
},
{
closed = 1;
nodes = (
(227,20,o),
(129,154,o),
(129,333,cs),
(129,511,o),
(227,645,o),
(357,645,cs),
(488,645,o),
(586,511,o),
(586,333,cs),
(586,154,o),
(488,20,o),
(357,20,cs)
);
},
{
closed = 1;
nodes = (
(708,-221,o),
(751,-220,o),
(793,-220,cs),
(835,-220,o),
(877,-221,o),
(919,-224,c),
(929,-224,o),
(929,-187,o),
(919,-187,cs),
(861,-187,o),
(832,-168,o),
(832,-129,cs),
(832,468,ls),
(832,569,o),
(814,609,o),
(780,639,cs),
(750,664,o),
(716,676,o),
(676,676,cs),
(610,676,o),
(559,657,o),
(518,612,c),
(542,590,l),
(570,626,o),
(609,642,o),
(657,642,cs),
(714,642,o),
(753,598,o),
(753,517,cs),
(753,-129,ls),
(753,-168,o),
(725,-187,o),
(667,-187,cs),
(657,-187,o),
(658,-224,o),
(667,-224,c)
);
}
);
width = 956;
},
{
layerId = "70B83247-6FA0-4662-9656-C86DD2A17D3B";
shapes = (
{
closed = 1;
nodes = (
(440,-13,o),
(554,140,o),
(554,332,cs),
(554,523,o),
(440,676,o),
(296,676,cs),
(152,676,o),
(38,523,o),
(38,332,cs),
(38,140,o),
(152,-13,o),
(296,-13,cs)
);
},
{
closed = 1;
nodes = (
(199,23,o),
(131,151,o),
(131,333,cs),
(131,514,o),
(199,642,o),
(296,642,cs),
(393,642,o),
(461,514,o),
(461,333,cs),
(461,151,o),
(393,23,o),
(296,23,cs)
);
},
{
closed = 1;
nodes = (
(589,-221,o),
(625,-220,o),
(661,-220,cs),
(697,-220,o),
(733,-221,o),
(769,-224,c),
(776,-224,o),
(776,-187,o),
(769,-187,cs),
(723,-187,o),
(699,-168,o),
(699,-129,cs),
(699,468,ls),
(699,568,o),
(685,610,o),
(656,639,cs),
(631,664,o),
(601,676,o),
(563,676,cs),
(508,676,o),
(466,656,o),
(432,610,c),
(454,586,l),
(479,624,o),
(507,639,o),
(543,639,cs),
(591,639,o),
(623,597,o),
(623,517,cs),
(623,-129,ls),
(623,-168,o),
(599,-187,o),
(553,-187,cs),
(545,-187,o),
(546,-224,o),
(553,-224,c)
);
}
);
width = 797;
},
{
layerId = "9E6FDE2E-55A6-44A9-9556-F1822294BF26";
shapes = (
{
closed = 1;
nodes = (
(633,-13,o),
(798,140,o),
(798,332,cs),
(798,523,o),
(633,676,o),
(426,676,cs),
(218,676,o),
(53,523,o),
(53,332,cs),
(53,140,o),
(218,-13,o),
(426,-13,cs)
);
},
{
closed = 1;
nodes = (
(270,23,o),
(146,160,o),
(146,333,cs),
(146,505,o),
(270,642,o),
(426,642,cs),
(582,642,o),
(705,505,o),
(705,333,cs),
(705,160,o),
(582,23,o),
(426,23,cs)
);
},
{
closed = 1;
nodes = (
(840,-221,o),
(890,-220,o),
(938,-220,cs),
(985,-220,o),
(1035,-221,o),
(1083,-224,c),
(1094,-224,o),
(1095,-187,o),
(1083,-187,cs),
(1012,-187,o),
(977,-168,o),
(977,-129,cs),
(977,468,ls),
(977,570,o),
(957,609,o),
(917,639,cs),
(882,665,o),
(843,676,o),
(802,676,cs),
(724,676,o),
(664,657,o),
(616,614,c),
(644,594,l),
(674,629,o),
(724,644,o),
(784,644,cs),
(850,644,o),
(897,600,o),
(897,517,cs),
(897,-129,ls),
(897,-168,o),
(863,-187,o),
(792,-187,cs),
(782,-187,o),
(782,-224,o),
(792,-224,c)
);
}
);
width = 1125;
},
{
layerId = "00F4936D-6309-4DEC-83B3-42806ED1A477";
shapes = (
{
closed = 1;
nodes = (
(536,-13,o),
(675,140,o),
(675,332,cs),
(675,523,o),
(536,676,o),
(360,676,cs),
(184,676,o),
(44,523,o),
(44,332,cs),
(44,140,o),
(184,-13,o),
(360,-13,cs)
);
},
{
closed = 1;
nodes = (
(233,23,o),
(138,156,o),
(138,333,cs),
(138,509,o),
(233,642,o),
(360,642,cs),
(487,642,o),
(582,509,o),
(582,333,cs),
(582,156,o),
(487,23,o),
(360,23,cs)
);
},
{
closed = 1;
nodes = (
(719,-221,o),
(761,-220,o),
(803,-220,cs),
(845,-220,o),
(888,-221,o),
(930,-224,c),
(939,-224,o),
(939,-187,o),
(930,-187,cs),
(871,-187,o),
(842,-168,o),
(842,-129,cs),
(842,468,ls),
(842,569,o),
(825,609,o),
(790,639,cs),
(761,664,o),
(726,676,o),
(687,676,cs),
(620,676,o),
(569,657,o),
(528,612,c),
(553,590,l),
(581,626,o),
(619,642,o),
(667,642,cs),
(725,642,o),
(764,598,o),
(764,517,cs),
(764,-129,ls),
(764,-168,o),
(735,-187,o),
(677,-187,cs),
(667,-187,o),
(668,-224,o),
(677,-224,c)
);
}
);
width = 964;
}
);
metricLeft = O;
metricRight = I;
unicode = 418;
}
{
glyphname = Upsilonafrican;
layers = (
{
layerId = master01;
shapes = (
{
closed = 1;
nodes = (
(536,-13,o),
(676,126,o),
(676,326,cs),
(676,457,o),
(613,552,o),
(548,610,c),
(561,624,o),
(581,628,o),
(608,628,cs),
(617,628,o),
(617,666,o),
(608,666,c),
(573,664,o),
(540,663,o),
(505,663,cs),
(488,663,o),
(478,655,o),
(478,634,cs),
(478,605,l),
(543,547,o),
(583,449,o),
(583,326,cs),
(583,128,o),
(480,23,o),
(360,23,cs),
(241,23,o),
(138,128,o),
(138,326,cs),
(138,449,o),
(177,547,o),
(242,605,c),
(241,628,ls),
(240,651,o),
(231,663,o),
(216,663,cs),
(176,663,o),
(137,665,o),
(98,666,c),
(89,666,o),
(89,628,o),
(98,628,cs),
(132,628,o),
(157,622,o),
(172,610,c),
(107,552,o),
(44,457,o),
(44,326,cs),
(44,126,o),
(185,-13,o),
(360,-13,cs)
);
}
);
width = 714;
},
{
layerId = "75918100-ED89-42A8-B0FE-888EB9C86810";
shapes = (
{
closed = 1;
nodes = (
(561,-13,o),
(708,126,o),
(708,316,cs),
(708,445,o),
(642,546,o),
(574,604,c),
(587,615,o),
(607,621,o),
(634,621,cs),
(643,621,o),
(643,666,o),
(634,666,c),
(586,664,o),
(538,663,o),
(490,663,cs),
(474,663,o),
(463,655,o),
(463,634,cs),
(463,605,l),
(531,554,o),
(574,442,o),
(574,316,cs),
(574,172,o),
(517,23,o),
(372,23,cs),
(226,23,o),
(169,172,o),
(169,316,cs),
(169,442,o),
(212,554,o),
(280,605,c),
(279,628,ls),
(278,651,o),
(269,663,o),
(253,663,cs),
(204,663,o),
(144,665,o),
(95,666,c),
(86,666,o),
(86,621,o),
(95,621,cs),
(129,621,o),
(154,615,o),
(169,604,c),
(102,544,o),
(36,449,o),
(36,316,cs),
(36,126,o),
(183,-13,o),
(372,-13,cs)
);
}
);
width = 738;
},
{
guides = (
{
pos = (854,1265);
}
);
layerId = "6ABD9449-5E80-4451-809E-12ADEB9E9AB4";
shapes = (
{
closed = 1;
nodes = (
(529,-13,o),
(667,126,o),
(667,329,cs),
(667,460,o),
(604,560,o),
(541,618,c),
(554,627,o),
(574,631,o),
(601,631,cs),
(609,631,o),
(609,666,o),
(601,666,c),
(570,664,o),
(542,663,o),
(511,663,cs),
(495,663,o),
(484,655,o),
(484,634,cs),
(484,605,l),
(548,545,o),
(587,451,o),
(587,330,cs),
(587,113,o),
(469,23,o),
(358,23,cs),
(247,23,o),
(129,113,o),
(129,330,cs),
(129,451,o),
(167,545,o),
(231,605,c),
(230,628,ls),
(229,651,o),
(220,663,o),
(205,663,cs),
(168,663,o),
(136,664,o),
(100,666,c),
(91,666,o),
(91,631,o),
(100,631,cs),
(135,631,o),
(160,627,o),
(175,618,c),
(111,560,o),
(49,460,o),
(49,329,cs),
(49,126,o),
(188,-13,o),
(358,-13,cs)
);
}
);
width = 709;
},
{
layerId = "70B83247-6FA0-4662-9656-C86DD2A17D3B";
shapes = (
{
closed = 1;
nodes = (
(464,-13,o),
(585,126,o),
(585,323,cs),
(585,453,o),
(531,552,o),
(476,610,c),
(487,621,o),
(504,628,o),
(526,628,cs),
(534,628,o),
(534,666,o),
(526,666,c),
(493,664,o),
(458,663,o),
(425,663,cs),
(411,663,o),
(402,655,o),
(402,634,cs),
(402,605,l),
(458,549,o),
(492,444,o),
(492,323,cs),
(492,139,o),
(416,23,o),
(312,23,cs),
(207,23,o),
(131,139,o),
(131,323,cs),
(131,447,o),
(166,549,o),
(221,605,c),
(220,628,ls),
(219,651,o),
(211,663,o),
(198,663,cs),
(162,663,o),
(123,665,o),
(84,666,c),
(77,666,o),
(77,628,o),
(84,628,cs),
(114,628,o),
(138,622,o),
(147,610,c),
(92,552,o),
(38,452,o),
(38,323,cs),
(38,126,o),
(159,-13,o),
(312,-13,cs)
);
}
);
width = 617;
},
{
layerId = "9E6FDE2E-55A6-44A9-9556-F1822294BF26";
shapes = (
{
closed = 1;
nodes = (
(640,-13,o),
(804,126,o),
(804,325,cs),
(804,461,o),
(727,551,o),
(646,610,c),
(663,623,o),
(687,629,o),
(719,629,cs),
(729,629,o),
(730,666,o),
(719,666,c),
(678,664,o),
(650,663,o),
(609,663,cs),
(589,663,o),
(577,655,o),
(577,634,cs),
(577,605,l),
(659,547,o),
(710,457,o),
(710,327,cs),
(710,167,o),
(631,23,o),
(429,23,cs),
(226,23,o),
(146,167,o),
(146,327,cs),
(146,457,o),
(198,547,o),
(280,605,c),
(279,628,ls),
(278,651,o),
(267,663,o),
(248,663,cs),
(205,663,o),
(164,664,o),
(121,666,c),
(110,666,o),
(110,629,o),
(121,629,cs),
(163,629,o),
(192,623,o),
(210,610,c),
(130,551,o),
(53,461,o),
(53,325,cs),
(53,126,o),
(218,-13,o),
(429,-13,cs)
);
}
);
width = 850;
},
{
layerId = "00F4936D-6309-4DEC-83B3-42806ED1A477";
shapes = (
{
closed = 1;
nodes = (
(536,-13,o),
(676,126,o),
(676,326,cs),
(676,457,o),
(613,552,o),
(548,610,c),
(561,624,o),
(581,628,o),
(608,628,cs),
(617,628,o),
(617,666,o),
(608,666,c),
(573,664,o),
(540,663,o),
(505,663,cs),
(488,663,o),
(478,655,o),
(478,634,cs),
(478,605,l),
(543,547,o),
(583,449,o),
(583,326,cs),
(583,128,o),
(480,23,o),
(360,23,cs),
(241,23,o),
(138,128,o),
(138,326,cs),
(138,449,o),
(177,547,o),
(242,605,c),
(241,628,ls),
(240,651,o),
(231,663,o),
(216,663,cs),
(176,663,o),
(137,665,o),
(98,666,c),
(89,666,o),
(89,628,o),
(98,628,cs),
(132,628,o),
(157,622,o),
(172,610,c),
(107,552,o),
(44,457,o),
(44,326,cs),
(44,126,o),
(185,-13,o),
(360,-13,cs)
);
}
);
width = 714;
}
);
metricLeft = O;
metricRight = O;
unicode = 433;
}
{
glyphname = Ezh;
layers = (
{
anchors = (
{
name = bottom;
pos = (208,11);
},
{
name = top;
pos = (244,663);
}
);
layerId = master01;
shapes = (
{
closed = 1;
nodes = (
(363,-13,o),
(464,71,o),
(464,221,cs),
(464,346,o),
(398,426,o),
(291,426,cs),
(247,426,o),
(246,429,o),
(263,443,cs),
(333,500,o),
(396,563,o),
(448,636,cs),
(450,639,o),
(451,644,o),
(451,651,cs),
(451,660,o),
(446,665,o),
(435,665,cs),
(404,665,o),
(373,663,o),
(342,663,cs),
(95,663,ls),
(86,663,o),
(83,659,o),
(82,651,cs),
(65,531,ls),
(64,527,o),
(74,525,o),
(76,528,cs),
(101,579,o),
(113,596,o),
(165,596,cs),
(358,596,l),
(363,590,l),
(300,526,o),
(188,421,o),
(105,379,cs),
(100,376,o),
(125,335,o),
(132,342,cs),
(169,379,o),
(201,396,o),
(242,396,cs),
(322,396,o),
(371,327,o),
(371,208,cs),
(371,101,o),
(329,23,o),
(238,23,cs),
(196,23,o),
(166,40,o),
(145,72,cs),
(123,105,o),
(103,121,o),
(83,121,cs),
(60,121,o),
(44,104,o),
(44,80,cs),
(44,25,o),
(116,-13,o),
(217,-13,cs)
);
}
);
userData = {
com.fontlab.hintData = {
hhints = (
{
position = -27;
width = 75;
},
{
position = 806;
width = 61;
},
{
position = 1215;
width = 137;
}
);
vhints = (
{
position = 768;
width = 182;
}
);
};
};
width = 523;
},
{
anchors = (
{
name = bottom;
pos = (217,11);
},
{
name = top;
pos = (253,663);
}
);
layerId = "75918100-ED89-42A8-B0FE-888EB9C86810";
shapes = (
{
closed = 1;
nodes = (
(359,-13,o),
(472,70,o),
(472,224,cs),
(472,343,o),
(405,423,o),
(297,423,cs),
(252,423,o),
(252,426,o),
(269,440,cs),
(337,499,o),
(397,562,o),
(449,636,cs),
(451,639,o),
(452,644,o),
(452,651,cs),
(452,660,o),
(447,665,o),
(436,665,cs),
(405,665,o),
(374,663,o),
(343,663,cs),
(86,663,ls),
(78,663,o),
(75,659,o),
(73,651,cs),
(53,521,ls),
(51,513,o),
(76,511,o),
(79,519,cs),
(97,569,o),
(115,586,o),
(167,586,cs),
(337,586,l),
(344,577,l),
(280,513,o),
(180,416,o),
(98,377,cs),
(90,374,o),
(120,321,o),
(133,334,cs),
(164,364,o),
(189,379,o),
(225,379,cs),
(297,379,o),
(338,320,o),
(338,207,cs),
(338,112,o),
(306,38,o),
(230,38,cs),
(195,38,o),
(171,54,o),
(150,87,cs),
(130,120,o),
(108,136,o),
(83,136,cs),
(55,136,o),
(36,115,o),
(36,84,cs),
(36,27,o),
(110,-13,o),
(215,-13,cs)
);
}
);
width = 519;
},
{
anchors = (
{
name = bottom;
pos = (207,11);
},
{
name = top;
pos = (243,663);
}
);
layerId = "6ABD9449-5E80-4451-809E-12ADEB9E9AB4";
shapes = (
{
closed = 1;
nodes = (
(365,-13,o),
(463,72,o),
(463,220,cs),
(463,347,o),
(397,427,o),
(291,427,cs),
(246,427,o),
(246,430,o),
(263,444,cs),
(333,501,o),
(397,563,o),
(449,636,cs),
(451,639,o),
(452,644,o),
(452,651,cs),
(452,660,o),
(447,665,o),
(436,665,cs),
(405,665,o),
(374,663,o),
(343,663,cs),
(100,663,ls),
(91,663,o),
(87,659,o),
(86,651,cs),
(70,534,ls),
(70,531,o),
(75,530,o),
(76,531,cs),
(104,582,o),
(114,600,o),
(166,600,cs),
(367,600,l),
(371,594,l),
(309,531,o),
(193,423,o),
(109,379,cs),
(105,377,o),
(129,339,o),
(133,344,cs),
(172,384,o),
(206,402,o),
(249,402,cs),
(332,402,o),
(383,330,o),
(383,209,cs),
(383,97,o),
(338,19,o),
(242,19,cs),
(198,19,o),
(166,35,o),
(144,67,cs),
(122,100,o),
(102,116,o),
(84,116,cs),
(63,116,o),
(49,102,o),
(49,80,cs),
(49,25,o),
(120,-13,o),
(220,-13,cs)
);
}
);
width = 528;
},
{
anchors = (
{
name = bottom;
pos = (172,11);
},
{
name = top;
pos = (201,663);
}
);
layerId = "70B83247-6FA0-4662-9656-C86DD2A17D3B";
shapes = (
{
closed = 1;
nodes = (
(293,-13,o),
(378,71,o),
(378,222,cs),
(378,345,o),
(325,425,o),
(239,425,cs),
(204,425,o),
(203,428,o),
(217,442,cs),
(272,500,o),
(322,563,o),
(360,630,cs),
(365,638,o),
(366,643,o),
(366,650,cs),
(366,660,o),
(361,665,o),
(353,665,cs),
(328,665,o),
(303,663,o),
(279,663,cs),
(78,663,ls),
(71,663,o),
(68,659,o),
(67,651,cs),
(53,529,ls),
(52,524,o),
(63,522,o),
(65,526,cs),
(90,589,o),
(106,599,o),
(143,599,cs),
(286,599,l),
(292,590,l),
(243,527,o),
(153,417,o),
(87,379,cs),
(82,375,o),
(103,330,o),
(111,340,cs),
(137,374,o),
(160,391,o),
(191,391,cs),
(250,391,o),
(285,328,o),
(285,209,cs),
(285,108,o),
(258,23,o),
(191,23,cs),
(161,23,o),
(139,40,o),
(122,72,cs),
(105,105,o),
(88,121,o),
(71,121,cs),
(51,121,o),
(38,104,o),
(38,80,cs),
(38,25,o),
(96,-13,o),
(179,-13,cs)
);
}
);
width = 428;
},
{
anchors = (
{
name = bottom;
pos = (247,11);
},
{
name = top;
pos = (290,663);
}
);
layerId = "9E6FDE2E-55A6-44A9-9556-F1822294BF26";
shapes = (
{
closed = 1;
nodes = (
(434,-13,o),
(552,71,o),
(552,220,cs),
(552,342,o),
(474,419,o),
(345,419,cs),
(292,419,o),
(289,428,o),
(312,443,cs),
(395,500,o),
(472,563,o),
(531,632,cs),
(537,639,o),
(539,644,o),
(539,651,cs),
(539,660,o),
(532,665,o),
(519,665,cs),
(481,665,o),
(445,663,o),
(408,663,cs),
(114,663,ls),
(104,663,o),
(100,659,o),
(99,651,cs),
(79,533,ls),
(79,529,o),
(87,528,o),
(88,530,cs),
(115,573,o),
(128,593,o),
(196,593,cs),
(430,593,l),
(438,590,l),
(363,528,o),
(226,425,o),
(125,379,cs),
(121,377,o),
(147,335,o),
(152,340,cs),
(198,379,o),
(240,394,o),
(290,394,cs),
(394,394,o),
(458,327,o),
(458,207,cs),
(458,98,o),
(408,23,o),
(292,23,cs),
(238,23,o),
(195,40,o),
(169,72,cs),
(143,105,o),
(119,121,o),
(97,121,cs),
(71,121,o),
(53,104,o),
(53,80,cs),
(53,25,o),
(138,-13,o),
(257,-13,cs)
);
}
);
width = 623;
},
{
anchors = (
{
name = bottom;
pos = (208,11);
},
{
name = top;
pos = (244,663);
}
);
layerId = "00F4936D-6309-4DEC-83B3-42806ED1A477";
shapes = (
{
closed = 1;
nodes = (
(363,-13,o),
(464,71,o),
(464,221,cs),
(464,346,o),
(398,426,o),
(291,426,cs),
(247,426,o),
(246,429,o),
(263,443,cs),
(333,500,o),
(396,563,o),
(448,636,cs),
(450,639,o),
(451,644,o),
(451,651,cs),
(451,660,o),
(446,665,o),
(435,665,cs),
(404,665,o),
(373,663,o),
(342,663,cs),
(95,663,ls),
(86,663,o),
(83,659,o),
(82,651,cs),
(65,531,ls),
(64,527,o),
(74,525,o),
(76,528,cs),
(101,579,o),
(113,596,o),
(165,596,cs),
(358,596,l),
(363,590,l),
(300,526,o),
(188,421,o),
(105,379,cs),
(100,376,o),
(125,335,o),
(132,342,cs),
(169,379,o),
(201,396,o),
(242,396,cs),
(322,396,o),
(371,327,o),
(371,208,cs),
(371,101,o),
(329,23,o),
(238,23,cs),
(196,23,o),
(166,40,o),
(145,72,cs),
(123,105,o),
(103,121,o),
(83,121,cs),
(60,121,o),
(44,104,o),
(44,80,cs),
(44,25,o),
(116,-13,o),
(217,-13,cs)
);
}
);
userData = {
com.fontlab.hintData = {
hhints = (
{
position = -27;
width = 75;
},
{
position = 806;
width = 61;
},
{
position = 1215;
width = 137;
}
);
vhints = (
{
position = 768;
width = 182;
}
);
};
};
width = 523;
}
);
metricRight = B;
unicode = 439;
}
{
glyphname = Glottalstop;
kernLeft = Glottal;
kernRight = Glottal;
layers = (
{
guides = (
{
angle = 90;
pos = (451,648);
},
{
angle = 90;
pos = (891,648);
},
{
pos = (665,383);
showMeasurement = 1;
}
);
layerId = master01;
shapes = (
{
closed = 1;
nodes = (
(137,-1,o),
(179,0,o),
(221,0,cs),
(262,0,o),
(304,-1,o),
(345,-3,c),
(354,-3,o),
(354,34,o),
(345,34,cs),
(283,34,o),
(260,47,o),
(260,75,cs),
(260,283,ls),
(260,292,o),
(265,295,o),
(271,295,cs),
(381,306,o),
(455,394,o),
(455,485,cs),
(455,605,o),
(365,676,o),
(232,676,cs),
(191,676,o),
(154,670,o),
(115,662,cs),
(74,652,o),
(53,648,o),
(39,648,c),
(29,621,o),
(25,575,o),
(25,498,cs),
(25,485,o),
(58,486,o),
(59,495,c),
(59,580,o),
(138,642,o),
(229,642,cs),
(314,642,o),
(362,580,o),
(362,496,cs),
(362,412,o),
(312,327,o),
(202,327,cs),
(191,327,o),
(182,323,o),
(182,311,cs),
(182,75,ls),
(182,47,o),
(158,34,o),
(96,34,cs),
(86,34,o),
(86,-2,o),
(96,-3,c)
);
}
);
width = 479;
},
{
layerId = "75918100-ED89-42A8-B0FE-888EB9C86810";
shapes = (
{
closed = 1;
nodes = (
(141,-1,o),
(182,0,o),
(235,0,cs),
(287,0,o),
(328,-1,o),
(370,-3,c),
(379,-3,o),
(379,42,o),
(370,42,cs),
(318,42,o),
(294,56,o),
(294,83,cs),
(294,280,ls),
(294,290,o),
(299,292,o),
(305,292,cs),
(425,304,o),
(495,392,o),
(495,485,cs),
(495,605,o),
(391,676,o),
(238,676,cs),
(187,676,o),
(149,670,o),
(110,662,cs),
(69,652,o),
(48,648,o),
(34,648,c),
(24,621,o),
(20,575,o),
(20,498,cs),
(20,485,o),
(64,486,o),
(64,495,cs),
(64,573,o),
(133,633,o),
(235,633,cs),
(313,633,o),
(357,573,o),
(357,491,cs),
(357,411,o),
(306,330,o),
(196,330,cs),
(185,330,o),
(175,326,o),
(175,313,cs),
(175,83,ls),
(175,56,o),
(151,42,o),
(99,42,cs),
(90,42,o),
(90,-2,o),
(99,-3,c)
);
}
);
width = 513;
},
{
layerId = "6ABD9449-5E80-4451-809E-12ADEB9E9AB4";
shapes = (
{
closed = 1;
nodes = (
(137,-1,o),
(178,0,o),
(216,0,cs),
(255,0,o),
(296,-1,o),
(338,-3,c),
(347,-3,o),
(347,31,o),
(338,31,cs),
(269,31,o),
(249,44,o),
(249,72,cs),
(249,284,ls),
(249,293,o),
(254,296,o),
(260,296,cs),
(368,306,o),
(442,394,o),
(442,485,cs),
(442,605,o),
(356,676,o),
(231,676,cs),
(194,676,o),
(157,670,o),
(117,662,cs),
(76,652,o),
(56,648,o),
(42,648,c),
(32,621,o),
(27,575,o),
(27,498,cs),
(27,485,o),
(57,486,o),
(57,495,c),
(57,583,o),
(140,645,o),
(228,645,cs),
(315,645,o),
(364,583,o),
(364,497,cs),
(364,412,o),
(314,326,o),
(205,326,cs),
(194,326,o),
(185,322,o),
(185,310,cs),
(185,72,ls),
(185,44,o),
(165,31,o),
(95,31,cs),
(86,31,o),
(86,-2,o),
(95,-3,c)
);
}
);
width = 468;
},
{
guides = (
{
pos = (903,391);
showMeasurement = 1;
}
);
layerId = "70B83247-6FA0-4662-9656-C86DD2A17D3B";
shapes = (
{
closed = 1;
nodes = (
(121,-1,o),
(158,0,o),
(196,0,cs),
(236,0,o),
(271,-1,o),
(308,-3,c),
(315,-3,o),
(315,34,o),
(308,34,cs),
(253,34,o),
(236,47,o),
(236,75,cs),
(236,283,ls),
(236,291,o),
(239,295,o),
(245,295,cs),
(341,306,o),
(403,393,o),
(403,485,cs),
(403,605,o),
(320,676,o),
(202,676,cs),
(164,676,o),
(133,670,o),
(100,662,cs),
(64,652,o),
(46,648,o),
(33,648,c),
(25,621,o),
(21,574,o),
(21,498,cs),
(21,485,o),
(55,486,o),
(55,495,c),
(55,579,o),
(119,642,o),
(200,642,cs),
(269,642,o),
(310,579,o),
(310,494,cs),
(310,412,o),
(267,327,o),
(175,327,cs),
(166,327,o),
(158,323,o),
(158,311,cs),
(158,75,ls),
(158,47,o),
(139,34,o),
(84,34,cs),
(77,34,o),
(77,-2,o),
(84,-3,c)
);
}
);
width = 423;
},
{
layerId = "9E6FDE2E-55A6-44A9-9556-F1822294BF26";
shapes = (
{
closed = 1;
nodes = (
(154,-1,o),
(201,0,o),
(246,0,cs),
(290,0,o),
(337,-1,o),
(383,-3,c),
(395,-3,o),
(395,34,o),
(383,34,cs),
(304,34,o),
(285,47,o),
(285,75,cs),
(285,283,ls),
(285,294,o),
(292,295,o),
(297,295,cs),
(422,306,o),
(508,394,o),
(508,485,cs),
(508,605,o),
(411,676,o),
(264,676,cs),
(220,676,o),
(176,670,o),
(130,662,cs),
(83,652,o),
(62,648,o),
(46,648,c),
(35,621,o),
(30,576,o),
(30,498,cs),
(30,485,o),
(63,486,o),
(63,495,c),
(63,581,o),
(157,642,o),
(260,642,cs),
(361,642,o),
(415,582,o),
(415,497,cs),
(415,411,o),
(357,327,o),
(229,327,cs),
(217,327,o),
(207,323,o),
(207,311,cs),
(207,75,ls),
(207,47,o),
(188,34,o),
(108,34,cs),
(97,34,o),
(97,-2,o),
(108,-3,c)
);
}
);
width = 536;
},
{
layerId = "00F4936D-6309-4DEC-83B3-42806ED1A477";
shapes = (
{
closed = 1;
nodes = (
(137,-1,o),
(179,0,o),
(221,0,cs),
(262,0,o),
(304,-1,o),
(345,-3,c),
(354,-3,o),
(354,34,o),
(345,34,cs),
(283,34,o),
(260,47,o),
(260,75,cs),
(260,283,ls),
(260,292,o),
(265,295,o),
(271,295,cs),
(381,306,o),
(455,394,o),
(455,485,cs),
(455,605,o),
(365,676,o),
(232,676,cs),
(191,676,o),
(154,670,o),
(115,662,cs),
(74,652,o),
(53,648,o),
(39,648,c),
(29,621,o),
(25,575,o),
(25,498,cs),
(25,485,o),
(58,486,o),
(59,495,c),
(59,580,o),
(138,642,o),
(229,642,cs),
(314,642,o),
(362,580,o),
(362,496,cs),
(362,412,o),
(312,327,o),
(202,327,cs),
(191,327,o),
(182,323,o),
(182,311,cs),
(182,75,ls),
(182,47,o),
(158,34,o),
(96,34,cs),
(86,34,o),
(86,-2,o),
(96,-3,c)
);
}
);
width = 479;
}
);
metricLeft = "=T*1.5";
metricRight = P;
unicode = 577;
}
{
glyphname = ereversed;
layers = (
{
layerId = master01;
shapes = (
{
closed = 1;
nodes = (
(292,-11,o),
(368,81,o),
(368,210,cs),
(368,336,o),
(292,425,o),
(190,425,cs),
(143,425,o),
(104,406,o),
(72,372,cs),
(48,346,o),
(34,319,o),
(34,299,cs),
(34,276,o),
(42,268,o),
(65,268,cs),
(321,268,l),
(321,301,l),
(114,301,ls),
(108,301,o),
(106,303,o),
(106,309,cs),
(106,351,o),
(150,396,o),
(191,396,cs),
(259,396,o),
(293,306,o),
(293,211,cs),
(293,100,o),
(246,46,o),
(156,46,cs),
(118,46,o),
(88,55,o),
(54,75,cs),
(44,81,o),
(30,64,o),
(37,57,cs),
(87,10,o),
(134,-11,o),
(187,-11,cs)
);
}
);
width = 410;
},
{
layerId = "75918100-ED89-42A8-B0FE-888EB9C86810";
shapes = (
{
closed = 1;
nodes = (
(310,-11,o),
(389,75,o),
(389,203,cs),
(389,333,o),
(307,425,o),
(189,425,cs),
(138,425,o),
(92,404,o),
(60,367,cs),
(38,343,o),
(27,319,o),
(27,299,cs),
(27,272,o),
(37,262,o),
(64,262,cs),
(312,262,l),
(312,306,l),
(148,306,ls),
(139,306,o),
(136,309,o),
(136,318,cs),
(136,358,o),
(161,386,o),
(194,386,cs),
(247,386,o),
(277,314,o),
(277,225,cs),
(277,107,o),
(228,60,o),
(151,60,cs),
(118,60,o),
(95,69,o),
(67,87,cs),
(56,94,o),
(29,60,o),
(36,52,cs),
(76,10,o),
(129,-11,o),
(191,-11,cs)
);
}
);
width = 422;
},
{
layerId = "6ABD9449-5E80-4451-809E-12ADEB9E9AB4";
shapes = (
{
closed = 1;
nodes = (
(288,-11,o),
(362,83,o),
(362,212,cs),
(362,337,o),
(290,425,o),
(192,425,cs),
(145,425,o),
(109,407,o),
(78,373,cs),
(53,347,o),
(38,319,o),
(38,299,cs),
(38,278,o),
(45,270,o),
(66,270,cs),
(326,270,l),
(326,299,l),
(105,299,ls),
(100,299,o),
(98,301,o),
(98,306,cs),
(98,349,o),
(148,399,o),
(192,399,cs),
(265,399,o),
(300,303,o),
(300,207,cs),
(300,98,o),
(254,41,o),
(159,41,cs),
(120,41,o),
(87,51,o),
(51,71,cs),
(42,77,o),
(32,66,o),
(39,59,cs),
(92,10,o),
(137,-11,o),
(187,-11,cs)
);
}
);
width = 408;
},
{
guides = (
{
pos = (302,434);
showMeasurement = 1;
},
{
pos = (-105,154);
},
{
pos = (-80,117);
}
);
layerId = "70B83247-6FA0-4662-9656-C86DD2A17D3B";
shapes = (
{
closed = 1;
nodes = (
(255,-11,o),
(319,78,o),
(319,208,cs),
(319,333,o),
(253,425,o),
(163,425,cs),
(123,425,o),
(88,407,o),
(60,371,cs),
(40,346,o),
(29,320,o),
(29,299,cs),
(29,276,o),
(37,268,o),
(59,268,cs),
(271,268,l),
(271,301,l),
(111,301,ls),
(104,301,o),
(101,303,o),
(101,311,cs),
(101,357,o),
(129,396,o),
(163,396,cs),
(211,396,o),
(245,322,o),
(245,215,cs),
(245,103,o),
(207,46,o),
(132,46,cs),
(105,46,o),
(78,56,o),
(52,75,cs),
(44,81,o),
(28,64,o),
(34,57,cs),
(74,11,o),
(115,-11,o),
(161,-11,cs)
);
}
);
width = 354;
},
{
layerId = "9E6FDE2E-55A6-44A9-9556-F1822294BF26";
shapes = (
{
closed = 1;
nodes = (
(333,-11,o),
(419,83,o),
(419,212,cs),
(419,339,o),
(335,425,o),
(221,425,cs),
(166,425,o),
(123,406,o),
(87,372,cs),
(60,346,o),
(42,318,o),
(42,299,cs),
(42,276,o),
(51,268,o),
(73,268,cs),
(375,268,l),
(375,301,l),
(121,301,ls),
(116,301,o),
(114,303,o),
(114,308,cs),
(114,345,o),
(174,396,o),
(223,396,cs),
(311,396,o),
(345,289,o),
(345,207,cs),
(345,98,o),
(289,46,o),
(183,46,cs),
(135,46,o),
(102,55,o),
(60,75,cs),
(48,81,o),
(35,64,o),
(44,57,cs),
(104,10,o),
(156,-11,o),
(215,-11,cs)
);
}
);
width = 469;
},
{
layerId = "00F4936D-6309-4DEC-83B3-42806ED1A477";
shapes = (
{
closed = 1;
nodes = (
(292,-11,o),
(368,81,o),
(368,210,cs),
(368,336,o),
(292,425,o),
(190,425,cs),
(143,425,o),
(104,406,o),
(72,372,cs),
(48,346,o),
(34,319,o),
(34,299,cs),
(34,276,o),
(42,268,o),
(65,268,cs),
(321,268,l),
(321,301,l),
(114,301,ls),
(108,301,o),
(106,303,o),
(106,309,cs),
(106,351,o),
(150,396,o),
(191,396,cs),
(259,396,o),
(293,306,o),
(293,211,cs),
(293,100,o),
(246,46,o),
(156,46,cs),
(118,46,o),
(88,55,o),
(54,75,cs),
(44,81,o),
(30,64,o),
(37,57,cs),
(87,10,o),
(134,-11,o),
(187,-11,cs)
);
}
);
width = 410;
}
);
metricLeft = "=|e";
metricRight = "=|e";
unicode = 600;
}
{
glyphname = uni025E;
layers = (
{
anchors = (
{
name = bottom;
pos = (217,0);
},
{
name = top;
pos = (217,415);
}
);
layerId = master01;
shapes = (
{
closed = 1;
nodes = (
(319,-11,o),
(382,33,o),
(382,108,cs),
(382,152,o),
(356,188,o),
(305,215,c),
(351,235,o),
(374,268,o),
(374,312,cs),
(374,378,o),
(301,425,o),
(218,425,cs),
(81,425,o),
(38,346,o),
(38,212,cs),
(38,62,o),
(86,-11,o),
(235,-11,cs)
);
},
{
closed = 1;
nodes = (
(142,27,o),
(117,120,o),
(117,223,cs),
(117,323,o),
(146,396,o),
(233,396,cs),
(263,396,o),
(298,363,o),
(298,324,cs),
(298,283,o),
(274,238,o),
(228,238,cs),
(184,238,ls),
(175,238,o),
(175,209,o),
(184,209,cs),
(223,209,ls),
(270,209,o),
(307,184,o),
(307,132,cs),
(307,63,o),
(278,27,o),
(221,27,cs)
);
}
);
width = 404;
},
{
anchors = (
{
name = bottom;
pos = (232,0);
},
{
name = top;
pos = (232,415);
}
);
layerId = "75918100-ED89-42A8-B0FE-888EB9C86810";
shapes = (
{
closed = 1;
nodes = (
(359,-11,o),
(436,17,o),
(436,105,cs),
(436,147,o),
(407,184,o),
(351,214,c),
(402,235,o),
(428,267,o),
(428,311,cs),
(428,385,o),
(348,425,o),
(255,425,cs),
(109,425,o),
(30,329,o),
(30,207,cs),
(30,61,o),
(101,-11,o),
(266,-11,cs)
);
},
{
closed = 1;
nodes = (
(168,39,o),
(154,133,o),
(154,205,cs),
(154,289,o),
(180,382,o),
(253,382,cs),
(298,382,o),
(325,359,o),
(325,324,cs),
(325,288,o),
(304,253,o),
(274,253,cs),
(225,253,ls),
(215,253,o),
(215,193,o),
(225,193,cs),
(269,193,ls),
(309,193,o),
(335,170,o),
(335,121,cs),
(335,74,o),
(307,39,o),
(250,39,cs)
);
}
);
width = 453;
},
{
anchors = (
{
name = bottom;
pos = (213,0);
},
{
name = top;
pos = (213,415);
}
);
layerId = "6ABD9449-5E80-4451-809E-12ADEB9E9AB4";
shapes = (
{
closed = 1;
nodes = (
(308,-11,o),
(366,38,o),
(366,109,cs),
(366,153,o),
(341,188,o),
(291,215,c),
(335,235,o),
(357,268,o),
(357,312,cs),
(357,376,o),
(287,425,o),
(207,425,cs),
(91,425,o),
(42,352,o),
(42,213,cs),
(42,63,o),
(102,-11,o),
(227,-11,cs)
);
},
{
closed = 1;
nodes = (
(135,23,o),
(106,116,o),
(106,229,cs),
(106,334,o),
(136,401,o),
(228,401,cs),
(253,401,o),
(291,365,o),
(291,324,cs),
(291,281,o),
(266,233,o),
(214,233,cs),
(172,233,ls),
(163,233,o),
(163,214,o),
(172,214,cs),
(209,214,ls),
(259,214,o),
(299,189,o),
(299,136,cs),
(299,59,o),
(271,23,o),
(213,23,cs)
);
}
);
width = 390;
},
{
anchors = (
{
name = bottom;
pos = (184,0);
},
{
name = top;
pos = (184,415);
}
);
layerId = "70B83247-6FA0-4662-9656-C86DD2A17D3B";
shapes = (
{
closed = 1;
nodes = (
(274,-11,o),
(329,28,o),
(329,107,cs),
(329,151,o),
(307,187,o),
(265,214,c),
(303,235,o),
(323,268,o),
(323,312,cs),
(323,380,o),
(261,425,o),
(191,425,cs),
(77,425,o),
(32,339,o),
(32,210,cs),
(32,62,o),
(76,-11,o),
(203,-11,cs)
);
},
{
closed = 1;
nodes = (
(127,27,o),
(111,125,o),
(111,216,cs),
(111,310,o),
(133,396,o),
(198,396,cs),
(228,396,o),
(252,361,o),
(252,324,cs),
(252,285,o),
(234,238,o),
(203,238,cs),
(166,238,ls),
(156,238,o),
(156,209,o),
(166,209,cs),
(199,209,ls),
(234,209,o),
(260,183,o),
(260,130,cs),
(260,65,o),
(237,27,o),
(191,27,cs)
);
}
);
width = 347;
},
{
anchors = (
{
name = bottom;
pos = (251,0);
},
{
name = top;
pos = (251,415);
}
);
layerId = "9E6FDE2E-55A6-44A9-9556-F1822294BF26";
shapes = (
{
closed = 1;
nodes = (
(366,-11,o),
(437,38,o),
(437,109,cs),
(437,153,o),
(408,188,o),
(346,215,c),
(400,235,o),
(426,268,o),
(426,312,cs),
(426,376,o),
(342,425,o),
(246,425,cs),
(86,425,o),
(45,353,o),
(45,214,cs),
(45,62,o),
(98,-11,o),
(269,-11,cs)
);
},
{
closed = 1;
nodes = (
(159,27,o),
(125,115,o),
(125,229,cs),
(125,335,o),
(160,396,o),
(270,396,cs),
(300,396,o),
(346,366,o),
(346,324,cs),
(346,280,o),
(316,238,o),
(254,238,cs),
(204,238,ls),
(195,238,o),
(195,209,o),
(204,209,cs),
(248,209,ls),
(308,209,o),
(355,185,o),
(355,135,cs),
(355,60,o),
(321,27,o),
(252,27,cs)
);
}
);
width = 463;
},
{
anchors = (
{
name = bottom;
pos = (217,0);
},
{
name = top;
pos = (217,415);
}
);
layerId = "00F4936D-6309-4DEC-83B3-42806ED1A477";
shapes = (
{
closed = 1;
nodes = (
(319,-11,o),
(382,33,o),
(382,108,cs),
(382,152,o),
(356,188,o),
(305,215,c),
(351,235,o),
(374,268,o),
(374,312,cs),
(374,378,o),
(301,425,o),
(218,425,cs),
(81,425,o),
(38,346,o),
(38,212,cs),
(38,62,o),
(86,-11,o),
(235,-11,cs)
);
},
{
closed = 1;
nodes = (
(142,27,o),
(117,120,o),
(117,223,cs),
(117,323,o),
(146,396,o),
(233,396,cs),
(263,396,o),
(298,363,o),
(298,324,cs),
(298,283,o),
(274,238,o),
(228,238,cs),
(184,238,ls),
(175,238,o),
(175,209,o),
(184,209,cs),
(223,209,ls),
(270,209,o),
(307,184,o),
(307,132,cs),
(307,63,o),
(278,27,o),
(221,27,cs)
);
}
);
width = 404;
}
);
metricLeft = o;
unicode = 606;
}
{
glyphname = uni026E;
layers = (
{
layerId = master01;
shapes = (
{
closed = 1;
nodes = (
(494,-272,o),
(599,-188,o),
(599,-37,cs),
(599,89,o),
(532,174,o),
(421,174,cs),
(373,174,l),
(432,217,o),
(511,298,o),
(572,374,cs),
(584,390,o),
(585,395,o),
(585,404,cs),
(585,413,o),
(580,417,o),
(569,417,cs),
(538,417,o),
(506,415,o),
(475,415,cs),
(173,415,l),
(173,637,ls),
(173,655,o),
(173,679,o),
(176,712,c),
(176,721,o),
(174,726,o),
(170,726,cs),
(166,726,o),
(159,722,o),
(148,714,cs),
(131,701,o),
(77,668,o),
(53,668,cs),
(44,668,o),
(44,641,o),
(53,641,cs),
(83,641,o),
(98,619,o),
(98,574,cs),
(98,62,ls),
(98,37,o),
(79,24,o),
(41,24,cs),
(32,24,o),
(32,-4,o),
(41,-4,c),
(83,-1,o),
(102,0,o),
(136,0,cs),
(170,0,o),
(190,-1,o),
(231,-4,c),
(240,-4,o),
(240,24,o),
(231,24,cs),
(192,24,o),
(173,37,o),
(173,62,cs),
(173,361,l),
(518,361,l),
(393,233,o),
(307,162,o),
(232,126,cs),
(225,122,o),
(252,80,o),
(260,88,cs),
(297,125,o),
(343,144,o),
(396,144,cs),
(476,144,o),
(516,79,o),
(516,-52,cs),
(516,-151,o),
(457,-237,o),
(354,-237,cs),
(321,-237,o),
(293,-220,o),
(271,-186,cs),
(249,-152,o),
(230,-135,o),
(214,-135,cs),
(196,-135,o),
(170,-147,o),
(170,-170,cs),
(170,-239,o),
(258,-272,o),
(329,-272,cs)
);
}
);
width = 596;
},
{
layerId = "75918100-ED89-42A8-B0FE-888EB9C86810";
shapes = (
{
closed = 1;
nodes = (
(549,-272,o),
(654,-194,o),
(654,-43,cs),
(654,81,o),
(586,151,o),
(477,151,cs),
(430,151,l),
(491,204,o),
(552,275,o),
(635,383,cs),
(640,390,o),
(642,396,o),
(642,404,cs),
(642,413,o),
(636,417,o),
(625,417,cs),
(593,417,o),
(562,415,o),
(530,415,cs),
(198,415,l),
(198,628,ls),
(198,655,o),
(198,683,o),
(202,713,c),
(202,722,o),
(197,726,o),
(189,726,cs),
(183,726,o),
(178,724,o),
(169,717,cs),
(142,696,o),
(79,664,o),
(41,664,cs),
(31,664,o),
(31,628,o),
(41,628,cs),
(70,628,o),
(85,607,o),
(85,567,cs),
(85,66,ls),
(85,44,o),
(68,33,o),
(34,33,cs),
(25,33,o),
(25,-4,o),
(34,-4,c),
(87,-1,o),
(107,0,o),
(141,0,cs),
(175,0,o),
(195,-1,o),
(248,-4,c),
(257,-4,o),
(257,33,o),
(248,33,cs),
(214,33,o),
(198,44,o),
(198,66,cs),
(198,346,l),
(526,347,l),
(460,249,o),
(387,178,o),
(281,115,cs),
(271,108,o),
(302,54,o),
(315,65,cs),
(350,93,o),
(388,107,o),
(428,107,cs),
(500,107,o),
(529,33,o),
(529,-59,cs),
(529,-156,o),
(502,-231,o),
(410,-231,cs),
(378,-231,o),
(353,-215,o),
(334,-183,cs),
(315,-151,o),
(296,-135,o),
(277,-135,cs),
(252,-135,o),
(226,-153,o),
(226,-188,cs),
(226,-251,o),
(311,-272,o),
(384,-272,cs)
);
}
);
width = 651;
},
{
layerId = "6ABD9449-5E80-4451-809E-12ADEB9E9AB4";
shapes = (
{
closed = 1;
nodes = (
(494,-272,o),
(598,-187,o),
(598,-35,cs),
(598,92,o),
(532,182,o),
(420,182,cs),
(375,182,l),
(446,238,o),
(527,318,o),
(577,382,cs),
(583,390,o),
(584,395,o),
(584,404,cs),
(584,413,o),
(579,417,o),
(568,417,cs),
(537,417,o),
(505,415,o),
(474,415,cs),
(166,415,l),
(166,640,ls),
(166,655,o),
(166,678,o),
(168,712,cs),
(168,721,o),
(167,726,o),
(164,726,cs),
(160,726,o),
(153,722,o),
(143,713,cs),
(126,699,o),
(77,670,o),
(59,670,cs),
(49,670,o),
(49,646,o),
(59,646,cs),
(88,646,o),
(104,623,o),
(104,576,cs),
(104,61,ls),
(104,34,o),
(84,21,o),
(44,21,cs),
(35,21,o),
(35,-4,o),
(44,-4,c),
(82,-1,o),
(101,0,o),
(135,0,cs),
(169,0,o),
(189,-1,o),
(226,-4,c),
(235,-4,o),
(235,21,o),
(226,21,cs),
(186,21,o),
(166,34,o),
(166,61,cs),
(166,366,l),
(528,366,l),
(406,239,o),
(318,167,o),
(235,127,cs),
(227,124,o),
(253,90,o),
(259,96,cs),
(297,136,o),
(345,156,o),
(403,156,cs),
(486,156,o),
(529,94,o),
(529,-49,cs),
(529,-150,o),
(459,-239,o),
(354,-239,cs),
(319,-239,o),
(291,-221,o),
(268,-187,cs),
(245,-152,o),
(226,-135,o),
(211,-135,cs),
(195,-135,o),
(169,-146,o),
(169,-164,cs),
(169,-235,o),
(258,-272,o),
(328,-272,cs)
);
}
);
width = 595;
},
{
layerId = "70B83247-6FA0-4662-9656-C86DD2A17D3B";
shapes = (
{
closed = 1;
nodes = (
(419,-272,o),
(504,-190,o),
(504,-39,cs),
(504,86,o),
(449,165,o),
(362,165,cs),
(324,165,l),
(368,209,o),
(418,277,o),
(486,379,cs),
(492,390,o),
(493,395,o),
(493,404,cs),
(493,413,o),
(488,417,o),
(480,417,cs),
(455,417,o),
(430,415,o),
(405,415,cs),
(155,415,l),
(155,633,ls),
(155,655,o),
(155,681,o),
(158,712,c),
(158,721,o),
(155,726,o),
(151,726,cs),
(147,726,o),
(140,722,o),
(134,716,cs),
(120,702,o),
(68,668,o),
(44,668,cs),
(36,668,o),
(36,641,o),
(44,641,cs),
(68,641,o),
(81,619,o),
(81,571,cs),
(81,62,ls),
(81,37,o),
(66,24,o),
(36,24,cs),
(27,24,o),
(27,-4,o),
(36,-4,c),
(70,-1,o),
(89,0,o),
(119,0,cs),
(148,0,o),
(167,-1,o),
(201,-4,c),
(210,-4,o),
(210,24,o),
(201,24,cs),
(170,24,o),
(155,37,o),
(155,62,cs),
(155,355,l),
(414,355,l),
(352,261,o),
(290,190,o),
(206,124,cs),
(199,118,o),
(228,73,o),
(233,79,cs),
(261,112,o),
(294,129,o),
(333,129,cs),
(395,129,o),
(424,60,o),
(424,-55,cs),
(424,-153,o),
(389,-234,o),
(309,-234,cs),
(282,-234,o),
(260,-218,o),
(244,-185,cs),
(228,-151,o),
(212,-135,o),
(199,-135,cs),
(182,-135,o),
(161,-150,o),
(161,-177,cs),
(161,-243,o),
(230,-272,o),
(288,-272,cs)
);
}
);
width = 502;
},
{
layerId = "9E6FDE2E-55A6-44A9-9556-F1822294BF26";
shapes = (
{
closed = 1;
nodes = (
(571,-272,o),
(695,-187,o),
(695,-34,cs),
(695,93,o),
(617,183,o),
(483,183,cs),
(424,183,l),
(498,225,o),
(606,318,o),
(660,369,cs),
(679,390,o),
(680,395,o),
(680,404,cs),
(680,413,o),
(674,417,o),
(660,417,cs),
(622,417,o),
(584,415,o),
(546,415,cs),
(192,415,l),
(192,641,ls),
(192,655,o),
(192,678,o),
(196,712,c),
(196,722,o),
(194,726,o),
(191,726,cs),
(187,726,o),
(180,723,o),
(165,712,cs),
(145,700,o),
(88,668,o),
(64,668,cs),
(54,668,o),
(54,641,o),
(64,641,cs),
(100,641,o),
(118,619,o),
(118,576,cs),
(118,62,ls),
(118,37,o),
(94,24,o),
(48,24,cs),
(39,24,o),
(39,-4,o),
(48,-4,c),
(97,-1,o),
(117,0,o),
(156,0,cs),
(195,0,o),
(214,-1,o),
(263,-4,c),
(272,-4,o),
(272,24,o),
(263,24,cs),
(216,24,o),
(192,37,o),
(192,62,cs),
(192,367,l),
(623,367,l),
(436,205,o),
(327,133,o),
(261,128,cs),
(252,126,o),
(278,87,o),
(289,97,cs),
(335,139,o),
(394,159,o),
(462,159,cs),
(559,159,o),
(609,98,o),
(609,-48,cs),
(609,-150,o),
(527,-239,o),
(402,-239,cs),
(361,-239,o),
(328,-222,o),
(300,-188,cs),
(272,-152,o),
(250,-135,o),
(232,-135,cs),
(212,-135,o),
(182,-145,o),
(182,-163,cs),
(182,-234,o),
(289,-272,o),
(372,-272,cs)
);
}
);
width = 692;
},
{
layerId = "00F4936D-6309-4DEC-83B3-42806ED1A477";
shapes = (
{
closed = 1;
nodes = (
(494,-272,o),
(599,-188,o),
(599,-37,cs),
(599,89,o),
(532,174,o),
(421,174,cs),
(373,174,l),
(432,217,o),
(511,298,o),
(572,374,cs),
(584,390,o),
(585,395,o),
(585,404,cs),
(585,413,o),
(580,417,o),
(569,417,cs),
(538,417,o),
(506,415,o),
(475,415,cs),
(173,415,l),
(173,637,ls),
(173,655,o),
(173,679,o),
(176,712,c),
(176,721,o),
(174,726,o),
(170,726,cs),
(166,726,o),
(159,722,o),
(148,714,cs),
(131,701,o),
(77,668,o),
(53,668,cs),
(44,668,o),
(44,641,o),
(53,641,cs),
(83,641,o),
(98,619,o),
(98,574,cs),
(98,62,ls),
(98,37,o),
(79,24,o),
(41,24,cs),
(32,24,o),
(32,-4,o),
(41,-4,c),
(83,-1,o),
(102,0,o),
(136,0,cs),
(170,0,o),
(190,-1,o),
(231,-4,c),
(240,-4,o),
(240,24,o),
(231,24,cs),
(192,24,o),
(173,37,o),
(173,62,cs),
(173,361,l),
(518,361,l),
(393,233,o),
(307,162,o),
(232,126,cs),
(225,122,o),
(252,80,o),
(260,88,cs),
(297,125,o),
(343,144,o),
(396,144,cs),
(476,144,o),
(516,79,o),
(516,-52,cs),
(516,-151,o),
(457,-237,o),
(354,-237,cs),
(321,-237,o),
(293,-220,o),
(271,-186,cs),
(249,-152,o),
(230,-135,o),
(214,-135,cs),
(196,-135,o),
(170,-147,o),
(170,-170,cs),
(170,-239,o),
(258,-272,o),
(329,-272,cs)
);
}
);
width = 596;
}
);
metricLeft = l;
metricRight = ezh;
unicode = 622;
}
{
glyphname = uni0274;
layers = (
{
anchors = (
{
name = bottom;
pos = (240,0);
},
{
name = top;
pos = (240,415);
}
);
layerId = master01;
shapes = (
{
closed = 1;
nodes = (
(405,-6,o),
(409,2,o),
(409,21,cs),
(409,352,ls),
(409,376,o),
(420,388,o),
(452,388,cs),
(460,388,o),
(460,417,o),
(452,417,c),
(431,416,o),
(410,415,o),
(390,415,cs),
(369,415,o),
(348,416,o),
(327,417,c),
(318,417,o),
(318,388,o),
(327,388,cs),
(364,388,o),
(375,378,o),
(375,352,cs),
(375,139,ls),
(375,130,o),
(363,128,o),
(356,135,cs),
(142,396,ls),
(131,409,o),
(118,415,o),
(106,415,cs),
(81,415,o),
(55,416,o),
(30,417,c),
(21,417,o),
(21,388,o),
(30,388,cs),
(77,388,o),
(83,373,o),
(83,333,cs),
(83,62,ls),
(83,39,o),
(67,26,o),
(35,26,cs),
(24,26,o),
(24,-2,o),
(35,-2,c),
(57,0,o),
(78,0,o),
(100,0,cs),
(122,0,o),
(144,0,o),
(166,-2,c),
(175,-2,o),
(174,26,o),
(166,26,cs),
(129,26,o),
(120,42,o),
(120,62,cs),
(120,296,ls),
(120,304,o),
(123,305,o),
(129,298,cs),
(374,9,ls),
(382,-1,o),
(390,-6,o),
(398,-6,cs)
);
}
);
userData = {
RMXScaler = {
height = 91.6;
weight = 31;
width = 91.6;
};
};
width = 479;
},
{
anchors = (
{
name = bottom;
pos = (234,0);
},
{
name = top;
pos = (234,415);
}
);
layerId = "75918100-ED89-42A8-B0FE-888EB9C86810";
shapes = (
{
closed = 1;
nodes = (
(397,-6,o),
(405,-1,o),
(405,8,cs),
(405,352,ls),
(405,376,o),
(416,388,o),
(447,388,cs),
(456,388,o),
(456,417,o),
(447,417,c),
(423,416,o),
(399,415,o),
(376,415,cs),
(352,415,o),
(328,416,o),
(304,417,c),
(296,417,o),
(295,388,o),
(304,388,cs),
(340,388,o),
(353,379,o),
(353,352,cs),
(353,186,ls),
(353,175,o),
(342,173,o),
(333,184,cs),
(159,396,ls),
(151,407,o),
(135,415,o),
(124,415,cs),
(90,415,o),
(57,416,o),
(24,417,c),
(15,417,o),
(16,388,o),
(24,388,cs),
(71,388,o),
(77,373,o),
(77,333,cs),
(77,62,ls),
(77,39,o),
(62,26,o),
(29,26,cs),
(19,26,o),
(19,-2,o),
(29,-2,c),
(54,0,o),
(79,0,o),
(103,0,cs),
(128,0,o),
(153,0,o),
(178,-2,c),
(188,-2,o),
(187,26,o),
(178,26,cs),
(141,26,o),
(132,42,o),
(132,62,cs),
(132,245,ls),
(132,252,o),
(135,254,o),
(141,247,cs),
(356,0,ls),
(359,-4,o),
(368,-6,o),
(382,-6,cs)
);
}
);
userData = {
RMXScaler = {
height = 91.6;
weight = 14;
width = 91.6;
};
};
width = 470;
},
{
anchors = (
{
name = bottom;
pos = (241,0);
},
{
name = top;
pos = (241,415);
}
);
layerId = "6ABD9449-5E80-4451-809E-12ADEB9E9AB4";
shapes = (
{
closed = 1;
nodes = (
(408,-6,o),
(411,5,o),
(411,25,cs),
(411,352,ls),
(411,376,o),
(422,388,o),
(453,388,cs),
(462,388,o),
(462,417,o),
(453,417,c),
(433,416,o),
(414,415,o),
(394,415,cs),
(374,415,o),
(354,416,o),
(335,417,c),
(325,417,o),
(325,388,o),
(335,388,cs),
(372,388,o),
(382,378,o),
(382,352,cs),
(382,123,ls),
(382,115,o),
(371,113,o),
(363,122,cs),
(135,396,ls),
(125,409,o),
(114,415,o),
(100,415,cs),
(77,415,o),
(54,416,o),
(32,417,c),
(23,417,o),
(23,388,o),
(32,388,cs),
(79,388,o),
(85,374,o),
(85,333,cs),
(85,62,ls),
(85,39,o),
(69,26,o),
(37,26,cs),
(26,26,o),
(26,-2,o),
(37,-2,c),
(58,0,o),
(78,0,o),
(99,0,cs),
(120,0,o),
(141,0,o),
(162,-2,c),
(171,-2,o),
(171,26,o),
(162,26,cs),
(126,26,o),
(115,41,o),
(115,62,cs),
(115,313,ls),
(115,321,o),
(119,323,o),
(125,315,cs),
(380,12,ls),
(390,0,o),
(398,-6,o),
(403,-6,cs)
);
}
);
userData = {
RMXScaler = {
height = 91.6;
weight = 34;
width = 91.6;
};
};
width = 483;
},
{
anchors = (
{
name = bottom;
pos = (193,0);
},
{
name = top;
pos = (193,415);
}
);
layerId = "70B83247-6FA0-4662-9656-C86DD2A17D3B";
shapes = (
{
closed = 1;
nodes = (
(326,-6,o),
(330,1,o),
(330,17,cs),
(330,352,ls),
(330,374,o),
(336,388,o),
(364,388,cs),
(371,388,o),
(370,417,o),
(364,417,c),
(346,416,o),
(329,415,o),
(311,415,cs),
(293,415,o),
(276,416,o),
(258,417,c),
(251,417,o),
(251,388,o),
(258,388,cs),
(291,388,o),
(297,375,o),
(297,352,cs),
(297,152,ls),
(297,144,o),
(288,142,o),
(281,152,cs),
(123,396,ls),
(115,408,o),
(104,415,o),
(94,415,cs),
(71,415,o),
(49,416,o),
(26,417,c),
(18,417,o),
(19,388,o),
(26,388,cs),
(66,388,o),
(68,369,o),
(68,333,cs),
(68,62,ls),
(68,36,o),
(56,26,o),
(30,26,cs),
(21,26,o),
(22,-2,o),
(30,-2,c),
(48,0,o),
(66,0,o),
(85,0,cs),
(103,0,o),
(122,0,o),
(140,-2,c),
(147,-2,o),
(147,26,o),
(140,26,cs),
(109,26,o),
(104,36,o),
(104,62,cs),
(104,277,ls),
(104,289,o),
(106,289,o),
(112,279,cs),
(297,6,ls),
(303,-2,o),
(309,-6,o),
(317,-6,cs)
);
}
);
userData = {
RMXScaler = {
height = 91.5;
weight = 56;
width = 91.6;
};
};
width = 386;
},
{
anchors = (
{
name = bottom;
pos = (287,0);
},
{
name = top;
pos = (287,415);
}
);
layerId = "9E6FDE2E-55A6-44A9-9556-F1822294BF26";
shapes = (
{
closed = 1;
nodes = (
(486,-6,o),
(490,3,o),
(490,25,cs),
(490,352,ls),
(490,378,o),
(504,388,o),
(540,388,cs),
(551,388,o),
(552,417,o),
(540,417,c),
(517,416,o),
(493,415,o),
(469,415,cs),
(445,415,o),
(421,416,o),
(397,417,c),
(385,417,o),
(385,388,o),
(397,388,cs),
(439,388,o),
(453,380,o),
(453,352,cs),
(453,125,ls),
(453,117,o),
(438,114,o),
(432,119,cs),
(161,396,ls),
(148,410,o),
(133,415,o),
(119,415,cs),
(91,415,o),
(62,416,o),
(35,417,c),
(25,417,o),
(25,388,o),
(35,388,cs),
(89,388,o),
(99,377,o),
(99,333,cs),
(99,62,ls),
(99,42,o),
(79,26,o),
(40,26,cs),
(28,26,o),
(28,-2,o),
(40,-2,c),
(66,0,o),
(91,0,o),
(116,0,cs),
(142,0,o),
(166,0,o),
(192,-2,c),
(204,-2,o),
(203,26,o),
(192,26,cs),
(150,26,o),
(137,47,o),
(137,62,cs),
(137,314,ls),
(137,319,o),
(140,321,o),
(146,316,cs),
(452,12,ls),
(463,0,o),
(471,-6,o),
(479,-6,cs)
);
}
);
width = 574;
},
{
anchors = (
{
name = bottom;
pos = (240,0);
},
{
name = top;
pos = (240,494);
}
);
layerId = "00F4936D-6309-4DEC-83B3-42806ED1A477";
shapes = (
{
closed = 1;
nodes = (
(405,-6,o),
(409,2,o),
(409,21,cs),
(409,352,ls),
(409,376,o),
(420,388,o),
(452,388,cs),
(460,388,o),
(460,417,o),
(452,417,c),
(431,416,o),
(410,415,o),
(390,415,cs),
(369,415,o),
(348,416,o),
(327,417,c),
(318,417,o),
(318,388,o),
(327,388,cs),
(364,388,o),
(375,378,o),
(375,352,cs),
(375,139,ls),
(375,130,o),
(363,128,o),
(356,135,cs),
(142,396,ls),
(131,409,o),
(118,415,o),
(106,415,cs),
(81,415,o),
(55,416,o),
(30,417,c),
(21,417,o),
(21,388,o),
(30,388,cs),
(77,388,o),
(83,373,o),
(83,333,cs),
(83,62,ls),
(83,39,o),
(67,26,o),
(35,26,cs),
(24,26,o),
(24,-2,o),
(35,-2,c),
(57,0,o),
(78,0,o),
(100,0,cs),
(122,0,o),
(144,0,o),
(166,-2,c),
(175,-2,o),
(174,26,o),
(166,26,cs),
(129,26,o),
(120,42,o),
(120,62,cs),
(120,296,ls),
(120,304,o),
(123,305,o),
(129,298,cs),
(374,9,ls),
(382,-1,o),
(390,-6,o),
(398,-6,cs)
);
}
);
userData = {
RMXScaler = {
height = 91.6;
weight = 31;
width = 91.6;
};
};
width = 479;
}
);
metricLeft = "=n.sc*0.9";
metricRight = "=n.sc*0.9";
unicode = 628;
userData = {
RMXScaler = {
source = n.sc;
};
};
}
{
glyphname = uni0280;
layers = (
{
anchors = (
{
name = bottom;
pos = (232,0);
},
{
name = top;
pos = (232,417);
}
);
layerId = master01;
shapes = (
{
closed = 1;
nodes = (
(469,-7,o),
(468,16,o),
(457,16,cs),
(442,16,o),
(422,31,o),
(400,54,cs),
(363,94,o),
(332,134,o),
(305,179,cs),
(299,188,o),
(299,192,o),
(307,195,cs),
(360,212,o),
(391,245,o),
(391,297,cs),
(391,381,o),
(312,417,o),
(221,417,cs),
(187,417,o),
(154,415,o),
(120,415,cs),
(90,415,o),
(60,416,o),
(30,417,c),
(20,417,o),
(20,387,o),
(30,387,cs),
(75,387,o),
(82,376,o),
(82,354,cs),
(82,63,ls),
(82,40,o),
(66,27,o),
(33,27,cs),
(24,27,o),
(24,-2,o),
(33,-2,c),
(62,0,o),
(90,0,o),
(119,0,cs),
(147,0,o),
(176,0,o),
(204,-2,c),
(213,-2,o),
(213,27,o),
(204,27,cs),
(168,27,o),
(157,39,o),
(157,63,cs),
(157,173,ls),
(157,178,o),
(158,181,o),
(165,180,cs),
(167,180,o),
(183,179,o),
(199,179,cs),
(203,179,o),
(208,179,o),
(211,178,cs),
(220,174,o),
(235,159,o),
(250,136,cs),
(264,114,o),
(286,82,o),
(311,52,cs),
(358,0,o),
(391,-7,o),
(457,-7,cs)
);
},
{
closed = 1;
nodes = (
(170,207,o),
(157,211,o),
(157,221,cs),
(157,376,ls),
(157,387,o),
(165,390,o),
(192,390,cs),
(262,390,o),
(313,355,o),
(313,297,cs),
(313,237,o),
(275,207,o),
(200,207,cs)
);
}
);
userData = {
RMXScaler = {
height = 91.6;
weight = 31;
width = 91.6;
};
};
width = 466;
},
{
anchors = (
{
name = bottom;
pos = (246,0);
},
{
name = top;
pos = (246,417);
}
);
layerId = "75918100-ED89-42A8-B0FE-888EB9C86810";
shapes = (
{
closed = 1;
nodes = (
(501,-6,o),
(499,26,o),
(489,26,cs),
(472,26,o),
(451,41,o),
(422,76,cs),
(401,101,o),
(374,139,o),
(347,179,cs),
(340,189,o),
(341,195,o),
(348,198,cs),
(395,217,o),
(423,250,o),
(423,297,cs),
(423,381,o),
(344,417,o),
(253,417,cs),
(213,417,o),
(173,415,o),
(133,415,cs),
(97,415,o),
(61,416,o),
(25,417,cs),
(16,417,o),
(15,383,o),
(25,383,cs),
(64,383,o),
(77,373,o),
(77,350,cs),
(77,67,ls),
(77,43,o),
(60,31,o),
(28,31,cs),
(19,31,o),
(20,-2,o),
(28,-2,c),
(62,0,o),
(97,0,o),
(132,0,cs),
(166,0,o),
(201,0,o),
(236,-2,c),
(246,-2,o),
(245,31,o),
(236,31,cs),
(199,31,o),
(189,42,o),
(189,67,cs),
(189,173,ls),
(189,178,o),
(191,180,o),
(196,180,cs),
(199,180,o),
(207,179,o),
(218,179,cs),
(223,179,o),
(227,179,o),
(230,178,cs),
(239,175,o),
(259,153,o),
(271,133,cs),
(284,112,o),
(304,83,o),
(331,52,cs),
(368,11,o),
(409,-6,o),
(489,-6,cs)
);
},
{
closed = 1;
nodes = (
(202,219,o),
(189,223,o),
(189,232,cs),
(189,365,ls),
(189,372,o),
(202,377,o),
(224,377,cs),
(275,377,o),
(307,347,o),
(307,297,cs),
(307,246,o),
(282,219,o),
(232,219,cs)
);
}
);
userData = {
RMXScaler = {
height = 91.6;
weight = 14;
width = 91.6;
};
};
width = 497;
},
{
anchors = (
{
name = bottom;
pos = (229,0);
},
{
name = top;
pos = (229,417);
}
);
layerId = "6ABD9449-5E80-4451-809E-12ADEB9E9AB4";
shapes = (
{
closed = 1;
nodes = (
(458,-7,o),
(458,13,o),
(447,13,cs),
(432,13,o),
(413,27,o),
(394,47,cs),
(353,89,o),
(321,130,o),
(292,179,cs),
(287,186,o),
(285,191,o),
(293,194,cs),
(352,211,o),
(380,245,o),
(380,297,cs),
(380,381,o),
(301,417,o),
(211,417,cs),
(179,417,o),
(148,415,o),
(116,415,cs),
(88,415,o),
(61,415,o),
(33,417,c),
(22,417,o),
(22,389,o),
(33,389,cs),
(77,389,o),
(85,377,o),
(85,355,cs),
(85,62,ls),
(85,38,o),
(68,26,o),
(36,26,cs),
(26,26,o),
(26,-2,o),
(36,-2,c),
(62,0,o),
(88,0,o),
(115,0,cs),
(142,0,o),
(168,0,o),
(194,-2,c),
(203,-2,o),
(203,26,o),
(194,26,cs),
(158,26,o),
(147,38,o),
(147,62,cs),
(147,173,ls),
(147,179,o),
(149,182,o),
(155,181,cs),
(162,180,o),
(172,179,o),
(193,179,cs),
(197,179,o),
(202,179,o),
(205,178,cs),
(214,174,o),
(227,161,o),
(243,138,cs),
(259,113,o),
(281,80,o),
(306,52,cs),
(355,-4,o),
(386,-7,o),
(447,-7,cs)
);
},
{
closed = 1;
nodes = (
(160,203,o),
(147,208,o),
(147,217,cs),
(147,380,ls),
(147,392,o),
(152,394,o),
(182,394,cs),
(258,394,o),
(316,358,o),
(316,297,cs),
(316,234,o),
(273,203,o),
(190,203,cs)
);
}
);
userData = {
RMXScaler = {
height = 91.6;
weight = 34;
width = 91.6;
};
};
width = 455;
},
{
anchors = (
{
name = bottom;
pos = (195,0);
},
{
name = top;
pos = (195,417);
}
);
layerId = "70B83247-6FA0-4662-9656-C86DD2A17D3B";
shapes = (
{
closed = 1;
nodes = (
(393,-6,o),
(391,20,o),
(383,20,cs),
(371,20,o),
(354,33,o),
(333,63,cs),
(311,96,o),
(285,140,o),
(266,178,cs),
(261,187,o),
(259,192,o),
(267,196,cs),
(306,214,o),
(330,247,o),
(330,297,cs),
(330,381,o),
(266,417,o),
(194,417,cs),
(165,417,o),
(135,415,o),
(106,415,cs),
(80,415,o),
(53,416,o),
(26,417,c),
(18,417,o),
(18,385,o),
(26,385,cs),
(53,385,o),
(68,375,o),
(68,352,cs),
(68,64,ls),
(68,41,o),
(55,29,o),
(29,29,cs),
(21,29,o),
(21,-2,o),
(29,-2,c),
(54,0,o),
(79,0,o),
(104,0,cs),
(130,0,o),
(155,0,o),
(180,-2,c),
(188,-2,o),
(188,29,o),
(180,29,cs),
(146,29,o),
(143,46,o),
(143,64,cs),
(143,173,ls),
(143,176,o),
(143,181,o),
(148,180,cs),
(152,180,o),
(161,179,o),
(171,179,cs),
(174,179,o),
(179,179,o),
(181,177,cs),
(188,174,o),
(203,154,o),
(212,135,cs),
(223,114,o),
(240,82,o),
(260,53,cs),
(295,4,o),
(323,-6,o),
(383,-6,cs)
);
},
{
closed = 1;
nodes = (
(153,211,o),
(143,216,o),
(143,226,cs),
(143,372,ls),
(143,378,o),
(146,384,o),
(171,384,cs),
(218,384,o),
(250,352,o),
(250,297,cs),
(250,241,o),
(226,211,o),
(178,211,cs)
);
}
);
userData = {
RMXScaler = {
height = 91.5;
weight = 56;
width = 91.6;
};
};
width = 391;
},
{
anchors = (
{
name = bottom;
pos = (272,0);
},
{
name = top;
pos = (272,417);
}
);
layerId = "9E6FDE2E-55A6-44A9-9556-F1822294BF26";
shapes = (
{
closed = 1;
nodes = (
(548,-7,o),
(547,12,o),
(534,12,cs),
(516,12,o),
(493,28,o),
(471,45,cs),
(419,93,o),
(383,128,o),
(348,179,cs),
(340,189,o),
(343,192,o),
(349,193,cs),
(417,210,o),
(454,243,o),
(454,297,cs),
(454,381,o),
(361,417,o),
(251,417,cs),
(213,417,o),
(175,415,o),
(137,415,cs),
(104,415,o),
(70,416,o),
(37,417,c),
(26,417,o),
(25,389,o),
(37,389,cs),
(99,389,o),
(100,377,o),
(100,355,cs),
(100,62,ls),
(100,38,o),
(80,26,o),
(41,26,cs),
(30,26,o),
(29,-2,o),
(41,-2,c),
(73,0,o),
(104,0,o),
(137,0,cs),
(168,0,o),
(201,0,o),
(232,-2,c),
(241,-2,o),
(242,26,o),
(232,26,cs),
(193,26,o),
(174,31,o),
(174,62,cs),
(174,173,ls),
(174,180,o),
(176,181,o),
(185,180,cs),
(186,180,o),
(209,179,o),
(229,179,cs),
(234,179,o),
(241,179,o),
(244,178,cs),
(255,174,o),
(270,165,o),
(291,136,cs),
(308,115,o),
(334,81,o),
(366,51,cs),
(425,-5,o),
(463,-7,o),
(534,-7,cs)
);
},
{
closed = 1;
nodes = (
(189,203,o),
(174,207,o),
(174,217,cs),
(174,381,ls),
(174,396,o),
(187,395,o),
(216,395,cs),
(310,395,o),
(378,358,o),
(378,297,cs),
(378,234,o),
(327,203,o),
(226,203,cs)
);
}
);
width = 544;
},
{
anchors = (
{
name = bottom;
pos = (232,0);
},
{
name = top;
pos = (232,417);
}
);
layerId = "00F4936D-6309-4DEC-83B3-42806ED1A477";
shapes = (
{
closed = 1;
nodes = (
(469,-7,o),
(468,16,o),
(457,16,cs),
(442,16,o),
(422,31,o),
(400,54,cs),
(363,94,o),
(332,134,o),
(305,179,cs),
(299,188,o),
(299,192,o),
(307,195,cs),
(360,212,o),
(391,245,o),
(391,297,cs),
(391,381,o),
(312,417,o),
(221,417,cs),
(187,417,o),
(154,415,o),
(120,415,cs),
(90,415,o),
(60,416,o),
(30,417,c),
(20,417,o),
(20,387,o),
(30,387,cs),
(75,387,o),
(82,376,o),
(82,354,cs),
(82,63,ls),
(82,40,o),
(66,27,o),
(33,27,cs),
(24,27,o),
(24,-2,o),
(33,-2,c),
(62,0,o),
(90,0,o),
(119,0,cs),
(147,0,o),
(176,0,o),
(204,-2,c),
(213,-2,o),
(213,27,o),
(204,27,cs),
(168,27,o),
(157,39,o),
(157,63,cs),
(157,173,ls),
(157,178,o),
(158,181,o),
(165,180,cs),
(167,180,o),
(183,179,o),
(199,179,cs),
(203,179,o),
(208,179,o),
(211,178,cs),
(220,174,o),
(235,159,o),
(250,136,cs),
(264,114,o),
(286,82,o),
(311,52,cs),
(358,0,o),
(391,-7,o),
(457,-7,cs)
);
},
{
closed = 1;
nodes = (
(170,207,o),
(157,211,o),
(157,221,cs),
(157,376,ls),
(157,387,o),
(165,390,o),
(192,390,cs),
(262,390,o),
(313,355,o),
(313,297,cs),
(313,237,o),
(275,207,o),
(200,207,cs)
);
}
);
userData = {
RMXScaler = {
height = 91.6;
weight = 31;
width = 91.6;
};
};
width = 466;
}
);
metricLeft = "=r.sc*0.9";
metricRight = r.sc;
unicode = 640;
userData = {
RMXScaler = {
source = r.sc;
};
};
}
{
glyphname = uni0285;
layers = (
{
layerId = master01;
shapes = (
{
closed = 1;
nodes = (
(334,-217,o),
(370,-202,o),
(370,-170,cs),
(370,-153,o),
(356,-136,o),
(332,-136,cs),
(315,-136,o),
(301,-142,o),
(289,-155,cs),
(275,-168,o),
(265,-174,o),
(257,-174,cs),
(225,-174,o),
(208,-139,o),
(208,-70,cs),
(208,125,ls),
(208,231,o),
(191,310,o),
(155,361,cs),
(124,403,o),
(83,425,o),
(34,425,cs),
(7,425,o),
(-27,409,o),
(-27,378,cs),
(-27,361,o),
(-14,344,o),
(11,344,cs),
(27,344,o),
(41,350,o),
(54,363,cs),
(67,376,o),
(77,382,o),
(85,382,cs),
(118,382,o),
(134,347,o),
(134,278,cs),
(134,83,ls),
(134,-23,o),
(151,-102,o),
(188,-153,cs),
(218,-195,o),
(259,-217,o),
(309,-217,cs)
);
}
);
width = 243;
},
{
layerId = "75918100-ED89-42A8-B0FE-888EB9C86810";
shapes = (
{
closed = 1;
nodes = (
(371,-216,o),
(412,-195,o),
(412,-166,cs),
(412,-141,o),
(398,-123,o),
(374,-123,cs),
(357,-123,o),
(343,-129,o),
(331,-142,cs),
(317,-155,o),
(307,-161,o),
(299,-161,cs),
(267,-161,o),
(251,-126,o),
(251,-57,cs),
(251,126,ls),
(251,224,o),
(234,299,o),
(197,350,cs),
(160,400,o),
(114,425,o),
(59,425,cs),
(11,425,o),
(-21,406,o),
(-21,376,cs),
(-21,346,o),
(-10,329,o),
(17,329,cs),
(34,329,o),
(48,336,o),
(59,350,cs),
(70,364,o),
(81,371,o),
(92,371,cs),
(125,371,o),
(140,336,o),
(140,267,cs),
(140,84,ls),
(140,-17,o),
(154,-92,o),
(186,-142,cs),
(217,-191,o),
(266,-216,o),
(333,-216,cs)
);
}
);
width = 294;
},
{
layerId = "6ABD9449-5E80-4451-809E-12ADEB9E9AB4";
shapes = (
{
closed = 1;
nodes = (
(305,-217,o),
(339,-204,o),
(339,-171,cs),
(339,-157,o),
(326,-140,o),
(301,-140,cs),
(285,-140,o),
(271,-146,o),
(258,-159,cs),
(245,-172,o),
(234,-178,o),
(227,-178,cs),
(194,-178,o),
(178,-133,o),
(178,-74,cs),
(178,125,ls),
(178,233,o),
(161,314,o),
(125,365,cs),
(96,405,o),
(57,425,o),
(9,425,cs),
(-11,425,o),
(-45,410,o),
(-45,379,cs),
(-45,366,o),
(-31,349,o),
(-7,349,cs),
(8,349,o),
(22,355,o),
(36,367,cs),
(49,380,o),
(60,386,o),
(67,386,cs),
(99,386,o),
(116,336,o),
(116,282,cs),
(116,83,ls),
(116,-25,o),
(134,-105,o),
(172,-156,cs),
(202,-197,o),
(240,-217,o),
(284,-217,cs)
);
}
);
width = 204;
},
{
guides = (
{
pos = (505,623);
showMeasurement = 1;
}
);
layerId = "70B83247-6FA0-4662-9656-C86DD2A17D3B";
shapes = (
{
closed = 1;
nodes = (
(284,-217,o),
(315,-199,o),
(315,-168,cs),
(315,-148,o),
(304,-131,o),
(284,-131,cs),
(272,-131,o),
(261,-137,o),
(250,-150,cs),
(239,-165,o),
(230,-169,o),
(225,-169,cs),
(196,-169,o),
(187,-126,o),
(187,-65,cs),
(187,125,ls),
(187,227,o),
(173,306,o),
(144,356,cs),
(115,405,o),
(79,425,o),
(40,425,cs),
(10,425,o),
(-17,407,o),
(-17,377,cs),
(-17,355,o),
(-6,338,o),
(14,338,cs),
(27,338,o),
(39,344,o),
(48,358,cs),
(60,373,o),
(67,377,o),
(74,377,cs),
(105,377,o),
(112,330,o),
(112,273,cs),
(112,83,ls),
(112,-16,o),
(124,-97,o),
(152,-148,cs),
(175,-191,o),
(210,-217,o),
(259,-217,cs)
);
}
);
width = 218;
},
{
layerId = "9E6FDE2E-55A6-44A9-9556-F1822294BF26";
shapes = (
{
closed = 1;
nodes = (
(374,-217,o),
(415,-204,o),
(415,-171,cs),
(415,-157,o),
(398,-140,o),
(369,-140,cs),
(349,-140,o),
(332,-147,o),
(317,-160,cs),
(302,-171,o),
(289,-178,o),
(279,-178,cs),
(244,-178,o),
(220,-152,o),
(220,-74,cs),
(220,125,ls),
(220,235,o),
(200,314,o),
(156,366,cs),
(124,402,o),
(78,425,o),
(18,425,cs),
(-6,425,o),
(-48,410,o),
(-48,379,cs),
(-48,367,o),
(-31,350,o),
(-2,350,cs),
(17,350,o),
(34,356,o),
(49,368,cs),
(64,379,o),
(77,386,o),
(87,386,cs),
(121,386,o),
(146,365,o),
(146,282,cs),
(146,83,ls),
(146,-30,o),
(168,-107,o),
(213,-158,cs),
(251,-200,o),
(298,-217,o),
(348,-217,cs)
);
}
);
width = 254;
},
{
layerId = "00F4936D-6309-4DEC-83B3-42806ED1A477";
shapes = (
{
closed = 1;
nodes = (
(334,-217,o),
(370,-202,o),
(370,-170,cs),
(370,-153,o),
(356,-136,o),
(332,-136,cs),
(315,-136,o),
(301,-142,o),
(289,-155,cs),
(275,-168,o),
(265,-174,o),
(257,-174,cs),
(225,-174,o),
(208,-139,o),
(208,-70,cs),
(208,125,ls),
(208,231,o),
(191,310,o),
(155,361,cs),
(124,403,o),
(83,425,o),
(34,425,cs),
(7,425,o),
(-27,409,o),
(-27,378,cs),
(-27,361,o),
(-14,344,o),
(11,344,cs),
(27,344,o),
(41,350,o),
(54,363,cs),
(67,376,o),
(77,382,o),
(85,382,cs),
(118,382,o),
(134,347,o),
(134,278,cs),
(134,83,ls),
(134,-23,o),
(151,-102,o),
(188,-153,cs),
(218,-195,o),
(259,-217,o),
(309,-217,cs)
);
}
);
width = 243;
}
);
unicode = 645;
}
{
glyphname = tretroflexhook;
layers = (
{
anchors = (
{
name = bottom;
pos = (207,-255);
},
{
name = top;
pos = (165,463);
}
);
layerId = master01;
shapes = (
{
closed = 1;
nodes = (
(251,-269,o),
(287,-252,o),
(315,-218,cs),
(318,-214,o),
(309,-197,o),
(301,-203,cs),
(283,-215,o),
(265,-222,o),
(248,-222,cs),
(185,-222,o),
(169,-177,o),
(169,-103,cs),
(169,371,l),
(308,371,ls),
(317,371,o),
(317,415,o),
(308,415,cs),
(169,415,l),
(169,484,ls),
(169,489,o),
(165,491,o),
(160,492,cs),
(155,494,o),
(149,494,o),
(147,489,cs),
(128,444,o),
(80,394,o),
(39,394,cs),
(30,394,o),
(30,371,o),
(39,371,c),
(94,371,l),
(94,-134,ls),
(94,-228,o),
(126,-269,o),
(207,-269,cs)
);
}
);
width = 329;
},
{
anchors = (
{
name = bottom;
pos = (196,-255);
},
{
name = top;
pos = (163,457);
}
);
layerId = "75918100-ED89-42A8-B0FE-888EB9C86810";
shapes = (
{
closed = 1;
nodes = (
(254,-269,o),
(298,-250,o),
(334,-214,cs),
(341,-207,o),
(317,-175,o),
(308,-182,cs),
(285,-199,o),
(263,-205,o),
(247,-205,cs),
(199,-205,o),
(188,-174,o),
(188,-112,cs),
(188,364,l),
(308,364,ls),
(317,364,o),
(317,415,o),
(308,415,cs),
(188,415,l),
(188,476,ls),
(188,483,o),
(177,487,o),
(166,490,cs),
(155,494,o),
(144,495,o),
(142,489,cs),
(126,447,o),
(73,400,o),
(33,400,cs),
(23,400,o),
(23,364,o),
(33,364,c),
(75,364,l),
(75,-144,ls),
(75,-213,o),
(104,-269,o),
(201,-269,cs)
);
}
);
width = 346;
},
{
anchors = (
{
name = bottom;
pos = (198,-254);
},
{
name = top;
pos = (167,465);
}
);
layerId = "6ABD9449-5E80-4451-809E-12ADEB9E9AB4";
shapes = (
{
closed = 1;
nodes = (
(251,-269,o),
(284,-253,o),
(310,-220,cs),
(313,-216,o),
(305,-205,o),
(301,-208,cs),
(283,-222,o),
(266,-228,o),
(244,-228,cs),
(185,-228,o),
(164,-197,o),
(164,-100,cs),
(164,374,l),
(310,374,ls),
(319,374,o),
(319,415,o),
(310,415,cs),
(164,415,l),
(164,486,ls),
(164,492,o),
(162,493,o),
(159,494,cs),
(155,495,o),
(152,495,o),
(150,488,cs),
(132,442,o),
(83,392,o),
(42,392,cs),
(33,392,o),
(33,374,o),
(42,374,cs),
(102,374,l),
(102,-133,ls),
(102,-230,o),
(135,-269,o),
(207,-269,cs)
);
}
);
width = 331;
},
{
anchors = (
{
name = bottom;
pos = (167,-255);
},
{
name = top;
pos = (136,461);
}
);
layerId = "70B83247-6FA0-4662-9656-C86DD2A17D3B";
shapes = (
{
closed = 1;
nodes = (
(208,-269,o),
(240,-250,o),
(268,-213,cs),
(271,-208,o),
(254,-190,o),
(249,-194,cs),
(232,-208,o),
(217,-215,o),
(203,-215,cs),
(148,-215,o),
(148,-145,o),
(148,-106,cs),
(148,367,l),
(251,367,ls),
(261,367,o),
(261,414,o),
(251,414,cs),
(148,414,l),
(148,479,ls),
(148,484,o),
(145,487,o),
(136,489,cs),
(129,492,o),
(123,492,o),
(121,487,cs),
(107,444,o),
(66,395,o),
(34,395,cs),
(25,395,o),
(25,367,o),
(34,367,cs),
(73,367,l),
(73,-138,ls),
(73,-189,o),
(79,-269,o),
(168,-269,cs)
);
}
);
width = 279;
},
{
anchors = (
{
name = bottom;
pos = (247,-256);
},
{
name = top;
pos = (194,465);
}
);
layerId = "9E6FDE2E-55A6-44A9-9556-F1822294BF26";
shapes = (
{
closed = 1;
nodes = (
(296,-269,o),
(334,-254,o),
(365,-224,cs),
(367,-221,o),
(365,-205,o),
(354,-211,cs),
(334,-222,o),
(314,-229,o),
(294,-229,cs),
(223,-229,o),
(191,-208,o),
(191,-100,cs),
(191,375,l),
(366,375,ls),
(375,375,o),
(375,417,o),
(366,417,cs),
(191,417,l),
(191,488,ls),
(191,493,o),
(187,495,o),
(186,495,cs),
(183,496,o),
(178,496,o),
(174,490,cs),
(151,444,o),
(95,393,o),
(45,393,cs),
(36,393,o),
(36,375,o),
(45,375,cs),
(117,375,l),
(117,-130,ls),
(117,-266,o),
(175,-269,o),
(246,-269,cs)
);
}
);
width = 389;
},
{
anchors = (
{
name = bottom;
pos = (207,-255);
},
{
name = top;
pos = (165,463);
}
);
layerId = "00F4936D-6309-4DEC-83B3-42806ED1A477";
shapes = (
{
closed = 1;
nodes = (
(251,-269,o),
(287,-252,o),
(315,-218,cs),
(318,-214,o),
(309,-197,o),
(301,-203,cs),
(283,-215,o),
(265,-222,o),
(248,-222,cs),
(185,-222,o),
(169,-177,o),
(169,-103,cs),
(169,371,l),
(308,371,ls),
(317,371,o),
(317,415,o),
(308,415,cs),
(169,415,l),
(169,484,ls),
(169,489,o),
(165,491,o),
(160,492,cs),
(155,494,o),
(149,494,o),
(147,489,cs),
(128,444,o),
(80,394,o),
(39,394,cs),
(30,394,o),
(30,371,o),
(39,371,c),
(94,371,l),
(94,-134,ls),
(94,-228,o),
(126,-269,o),
(207,-269,cs)
);
}
);
width = 329;
}
);
unicode = 648;
}
{
glyphname = uni028A;
layers = (
{
anchors = (
{
name = bottom;
pos = (244,0);
},
{
name = top;
pos = (244,415);
}
);
layerId = master01;
shapes = (
{
closed = 1;
nodes = (
(360,-11,o),
(447,89,o),
(447,201,cs),
(447,251,o),
(433,298,o),
(405,342,c),
(405,378,o),
(418,390,o),
(460,390,cs),
(464,390,o),
(467,395,o),
(467,404,cs),
(467,414,o),
(464,418,o),
(460,418,c),
(441,416,o),
(417,415,o),
(385,415,cs),
(354,415,o),
(337,410,o),
(332,403,cs),
(326,395,o),
(326,378,o),
(326,353,c),
(354,310,o),
(368,260,o),
(368,203,cs),
(368,111,o),
(317,21,o),
(244,21,cs),
(172,21,o),
(121,110,o),
(121,203,cs),
(121,260,o),
(134,310,o),
(162,353,c),
(162,378,o),
(162,395,o),
(156,403,cs),
(150,411,o),
(134,415,o),
(100,415,cs),
(66,415,o),
(42,416,o),
(28,418,c),
(24,418,o),
(21,414,o),
(21,404,cs),
(21,395,o),
(24,390,o),
(28,390,cs),
(72,390,o),
(87,379,o),
(87,342,c),
(57,298,o),
(41,251,o),
(41,201,cs),
(41,90,o),
(127,-11,o),
(244,-11,cs)
);
}
);
width = 486;
},
{
anchors = (
{
name = bottom;
pos = (258,0);
},
{
name = top;
pos = (258,415);
}
);
layerId = "75918100-ED89-42A8-B0FE-888EB9C86810";
shapes = (
{
closed = 1;
nodes = (
(388,-11,o),
(477,82,o),
(477,201,cs),
(477,249,o),
(467,287,o),
(448,318,c),
(448,353,o),
(462,370,o),
(490,370,cs),
(495,370,o),
(497,380,o),
(497,392,cs),
(497,403,o),
(494,418,o),
(490,418,c),
(453,416,o),
(422,415,o),
(396,415,cs),
(363,415,o),
(337,415,o),
(329,403,cs),
(322,393,o),
(319,372,o),
(319,345,c),
(342,308,o),
(353,260,o),
(353,203,cs),
(353,116,o),
(322,30,o),
(254,30,cs),
(193,30,o),
(160,117,o),
(160,203,cs),
(160,262,o),
(171,311,o),
(196,348,c),
(196,365,o),
(193,394,o),
(186,403,cs),
(177,415,o),
(155,415,o),
(118,415,cs),
(90,415,o),
(59,416,o),
(24,418,c),
(20,418,o),
(17,403,o),
(17,392,cs),
(17,380,o),
(20,370,o),
(24,370,cs),
(52,370,o),
(66,353,o),
(66,319,c),
(46,287,o),
(36,248,o),
(36,201,cs),
(36,86,o),
(132,-11,o),
(257,-11,cs)
);
}
);
width = 512;
},
{
anchors = (
{
name = bottom;
pos = (240,0);
},
{
name = top;
pos = (240,415);
}
);
layerId = "6ABD9449-5E80-4451-809E-12ADEB9E9AB4";
shapes = (
{
closed = 1;
nodes = (
(351,-11,o),
(438,92,o),
(438,201,cs),
(438,252,o),
(422,301,o),
(391,350,c),
(391,387,o),
(404,397,o),
(450,397,cs),
(455,397,o),
(457,400,o),
(457,408,cs),
(457,417,o),
(455,418,o),
(450,418,c),
(438,416,o),
(415,415,o),
(382,415,cs),
(351,415,o),
(338,410,o),
(333,403,cs),
(329,396,o),
(329,380,o),
(329,355,c),
(358,310,o),
(373,260,o),
(373,203,cs),
(373,110,o),
(316,18,o),
(241,18,cs),
(165,18,o),
(108,107,o),
(108,203,cs),
(108,259,o),
(123,309,o),
(151,354,c),
(151,382,o),
(151,396,o),
(146,403,cs),
(143,409,o),
(127,415,o),
(95,415,cs),
(59,415,o),
(38,416,o),
(30,418,c),
(26,418,o),
(23,417,o),
(23,409,cs),
(23,400,o),
(26,397,o),
(30,397,cs),
(79,397,o),
(95,388,o),
(95,350,c),
(61,301,o),
(43,252,o),
(43,201,cs),
(43,92,o),
(125,-11,o),
(240,-11,cs)
);
}
);
width = 478;
},
{
anchors = (
{
name = bottom;
pos = (202,0);
},
{
name = top;
pos = (202,415);
}
);
layerId = "70B83247-6FA0-4662-9656-C86DD2A17D3B";
shapes = (
{
closed = 1;
nodes = (
(299,-11,o),
(369,87,o),
(369,201,cs),
(369,252,o),
(358,296,o),
(339,334,c),
(339,371,o),
(351,384,o),
(379,384,cs),
(383,384,o),
(385,390,o),
(385,401,cs),
(385,410,o),
(383,418,o),
(379,418,c),
(359,416,o),
(334,415,o),
(311,415,cs),
(285,415,o),
(270,411,o),
(265,403,cs),
(259,395,o),
(259,375,o),
(259,351,c),
(279,309,o),
(290,260,o),
(290,203,cs),
(290,112,o),
(257,23,o),
(201,23,cs),
(146,23,o),
(113,112,o),
(113,203,cs),
(113,259,o),
(123,310,o),
(145,352,c),
(145,374,o),
(144,395,o),
(139,403,cs),
(133,412,o),
(117,415,o),
(90,415,cs),
(65,415,o),
(42,416,o),
(23,418,c),
(20,418,o),
(18,410,o),
(18,400,cs),
(18,391,o),
(20,384,o),
(23,384,cs),
(54,384,o),
(66,372,o),
(66,335,c),
(45,295,o),
(34,251,o),
(34,201,cs),
(34,89,o),
(105,-11,o),
(202,-11,cs)
);
}
);
width = 401;
},
{
anchors = (
{
name = bottom;
pos = (288,0);
},
{
name = top;
pos = (288,415);
}
);
layerId = "9E6FDE2E-55A6-44A9-9556-F1822294BF26";
shapes = (
{
closed = 1;
nodes = (
(422,-11,o),
(526,91,o),
(526,201,cs),
(526,250,o),
(509,300,o),
(472,349,c),
(472,386,o),
(487,396,o),
(542,396,cs),
(547,396,o),
(550,400,o),
(550,408,cs),
(550,417,o),
(547,418,o),
(542,418,c),
(525,416,o),
(500,415,o),
(460,415,cs),
(423,415,o),
(406,408,o),
(400,403,cs),
(394,396,o),
(395,380,o),
(395,355,c),
(430,310,o),
(447,259,o),
(447,203,cs),
(447,110,o),
(378,19,o),
(289,19,cs),
(198,19,o),
(129,107,o),
(129,203,cs),
(129,260,o),
(146,309,o),
(181,354,c),
(181,382,o),
(181,396,o),
(175,403,cs),
(169,409,o),
(151,415,o),
(111,415,cs),
(69,415,o),
(44,416,o),
(34,418,c),
(29,418,o),
(26,417,o),
(26,408,cs),
(26,399,o),
(29,396,o),
(34,396,cs),
(91,396,o),
(110,387,o),
(110,349,c),
(69,300,o),
(49,251,o),
(49,201,cs),
(49,91,o),
(149,-11,o),
(288,-11,cs)
);
}
);
width = 573;
},
{
anchors = (
{
name = bottom;
pos = (244,0);
},
{
name = top;
pos = (244,415);
}
);
layerId = "00F4936D-6309-4DEC-83B3-42806ED1A477";
shapes = (
{
closed = 1;
nodes = (
(360,-11,o),
(447,89,o),
(447,201,cs),
(447,251,o),
(433,298,o),
(405,342,c),
(405,378,o),
(418,390,o),
(460,390,cs),
(464,390,o),
(467,395,o),
(467,404,cs),
(467,414,o),
(464,418,o),
(460,418,c),
(441,416,o),
(417,415,o),
(385,415,cs),
(354,415,o),
(337,410,o),
(332,403,cs),
(326,395,o),
(326,378,o),
(326,353,c),
(354,310,o),
(368,260,o),
(368,203,cs),
(368,111,o),
(317,21,o),
(244,21,cs),
(172,21,o),
(121,110,o),
(121,203,cs),
(121,260,o),
(134,310,o),
(162,353,c),
(162,378,o),
(162,395,o),
(156,403,cs),
(150,411,o),
(134,415,o),
(100,415,cs),
(66,415,o),
(42,416,o),
(28,418,c),
(24,418,o),
(21,414,o),
(21,404,cs),
(21,395,o),
(24,390,o),
(28,390,cs),
(72,390,o),
(87,379,o),
(87,342,c),
(57,298,o),
(41,251,o),
(41,201,cs),
(41,90,o),
(127,-11,o),
(244,-11,cs)
);
}
);
width = 486;
}
);
unicode = 650;
}
{
glyphname = ezh;
layers = (
{
anchors = (
{
name = bottom;
pos = (203,-238);
},
{
name = top;
pos = (217,415);
}
);
guides = (
{
angle = 90;
pos = (368,554);
showMeasurement = 1;
}
);
layerId = master01;
shapes = (
{
closed = 1;
nodes = (
(333,-272,o),
(437,-188,o),
(437,-37,cs),
(437,89,o),
(371,174,o),
(260,174,cs),
(214,174,o),
(212,175,o),
(244,200,cs),
(299,244,o),
(362,310,o),
(421,386,cs),
(424,390,o),
(425,395,o),
(425,399,cs),
(425,408,o),
(420,416,o),
(407,416,cs),
(376,416,o),
(344,415,o),
(313,415,cs),
(156,415,ls),
(136,415,o),
(106,417,o),
(67,425,c),
(62,425,o),
(58,420,o),
(56,408,cs),
(38,278,ls),
(37,272,o),
(47,271,o),
(49,275,cs),
(61,299,o),
(75,325,o),
(85,335,cs),
(100,351,o),
(126,360,o),
(156,360,cs),
(331,360,ls),
(341,360,o),
(344,349,o),
(336,340,cs),
(292,292,o),
(237,242,o),
(191,206,cs),
(145,170,o),
(105,143,o),
(71,126,cs),
(65,124,o),
(93,83,o),
(98,88,cs),
(136,125,o),
(181,144,o),
(235,144,cs),
(314,144,o),
(354,79,o),
(354,-52,cs),
(354,-151,o),
(295,-237,o),
(193,-237,cs),
(159,-237,o),
(131,-220,o),
(109,-186,cs),
(87,-152,o),
(68,-135,o),
(53,-135,cs),
(35,-135,o),
(9,-147,o),
(9,-170,cs),
(9,-239,o),
(97,-272,o),
(191,-272,cs)
);
}
);
userData = {
com.fontlab.hintData = {
hhints = (
{
position = -557;
width = 72;
},
{
position = 295;
width = 61;
},
{
position = 707;
width = 141;
}
);
vhints = (
{
position = 725;
width = 170;
}
);
};
};
width = 434;
},
{
anchors = (
{
name = bottom;
pos = (186,-238);
},
{
name = top;
pos = (215,415);
}
);
guides = (
{
angle = 90;
pos = (329,544);
showMeasurement = 1;
}
);
layerId = "75918100-ED89-42A8-B0FE-888EB9C86810";
shapes = (
{
closed = 1;
nodes = (
(330,-272,o),
(435,-194,o),
(435,-43,cs),
(435,81,o),
(367,151,o),
(258,151,cs),
(212,151,o),
(215,155,o),
(248,187,cs),
(302,240,o),
(353,300,o),
(419,386,cs),
(421,390,o),
(423,395,o),
(423,399,cs),
(423,408,o),
(418,416,o),
(405,416,cs),
(374,416,o),
(342,415,o),
(311,415,cs),
(154,415,ls),
(134,415,o),
(104,417,o),
(65,425,c),
(59,425,o),
(56,420,o),
(54,408,cs),
(36,278,ls),
(35,271,o),
(44,269,o),
(47,275,cs),
(56,296,o),
(65,313,o),
(74,323,cs),
(87,338,o),
(108,345,o),
(138,345,cs),
(273,346,ls),
(285,346,o),
(288,338,o),
(279,326,cs),
(232,267,o),
(192,222,o),
(157,193,cs),
(116,158,o),
(83,134,o),
(58,121,cs),
(51,117,o),
(88,58,o),
(96,65,cs),
(131,93,o),
(168,107,o),
(209,107,cs),
(280,107,o),
(310,33,o),
(310,-59,cs),
(310,-156,o),
(283,-231,o),
(191,-231,cs),
(159,-231,o),
(134,-215,o),
(115,-183,cs),
(96,-151,o),
(77,-135,o),
(58,-135,cs),
(33,-135,o),
(7,-153,o),
(7,-188,cs),
(7,-251,o),
(92,-272,o),
(171,-272,cs)
);
}
);
width = 432;
},
{
anchors = (
{
name = bottom;
pos = (218,-233);
},
{
name = top;
pos = (218,415);
}
);
layerId = "6ABD9449-5E80-4451-809E-12ADEB9E9AB4";
shapes = (
{
closed = 1;
nodes = (
(334,-272,o),
(438,-187,o),
(438,-35,cs),
(438,92,o),
(372,182,o),
(261,182,cs),
(220,182,o),
(219,184,o),
(249,207,cs),
(302,248,o),
(366,313,o),
(422,386,cs),
(424,390,o),
(426,395,o),
(426,399,cs),
(426,408,o),
(420,416,o),
(408,416,cs),
(377,416,o),
(345,415,o),
(314,415,cs),
(157,415,ls),
(137,415,o),
(107,417,o),
(68,425,c),
(63,425,o),
(59,420,o),
(57,408,cs),
(39,278,ls),
(38,272,o),
(47,270,o),
(50,275,cs),
(63,300,o),
(79,329,o),
(89,339,cs),
(104,355,o),
(132,365,o),
(162,365,cs),
(350,365,ls),
(361,365,o),
(362,352,o),
(356,345,cs),
(312,301,o),
(252,249,o),
(203,210,cs),
(156,172,o),
(113,146,o),
(75,127,cs),
(68,124,o),
(93,89,o),
(99,96,cs),
(138,136,o),
(186,156,o),
(244,156,cs),
(326,156,o),
(369,94,o),
(369,-49,cs),
(369,-150,o),
(300,-239,o),
(194,-239,cs),
(160,-239,o),
(131,-221,o),
(108,-187,cs),
(85,-152,o),
(66,-135,o),
(51,-135,cs),
(36,-135,o),
(10,-146,o),
(10,-164,cs),
(10,-235,o),
(99,-272,o),
(192,-272,cs)
);
}
);
width = 435;
},
{
anchors = (
{
name = bottom;
pos = (157,-238);
},
{
name = top;
pos = (174,415);
}
);
layerId = "70B83247-6FA0-4662-9656-C86DD2A17D3B";
shapes = (
{
closed = 1;
nodes = (
(266,-272,o),
(350,-190,o),
(350,-39,cs),
(350,87,o),
(296,167,o),
(208,167,cs),
(174,167,o),
(173,170,o),
(197,196,cs),
(241,242,o),
(290,309,o),
(337,386,cs),
(340,390,o),
(341,396,o),
(341,400,cs),
(341,409,o),
(336,416,o),
(326,416,cs),
(301,416,o),
(276,415,o),
(251,415,cs),
(125,415,ls),
(109,415,o),
(85,417,o),
(54,425,c),
(50,425,o),
(47,420,o),
(45,408,cs),
(31,278,ls),
(30,273,o),
(38,271,o),
(40,275,cs),
(47,296,o),
(58,320,o),
(66,332,cs),
(77,346,o),
(95,356,o),
(120,356,cs),
(249,356,ls),
(257,356,o),
(259,345,o),
(252,335,cs),
(217,285,o),
(172,230,o),
(144,202,cs),
(112,169,o),
(79,139,o),
(54,125,cs),
(45,120,o),
(74,75,o),
(79,81,cs),
(108,116,o),
(142,133,o),
(181,133,cs),
(242,133,o),
(271,65,o),
(271,-54,cs),
(271,-153,o),
(233,-235,o),
(155,-235,cs),
(128,-235,o),
(107,-218,o),
(90,-186,cs),
(74,-152,o),
(59,-135,o),
(45,-135,cs),
(28,-135,o),
(7,-149,o),
(7,-175,cs),
(7,-242,o),
(77,-272,o),
(149,-272,cs)
);
}
);
width = 348;
},
{
anchors = (
{
name = bottom;
pos = (249,-237);
},
{
name = top;
pos = (261,415);
}
);
layerId = "9E6FDE2E-55A6-44A9-9556-F1822294BF26";
shapes = (
{
closed = 1;
nodes = (
(399,-272,o),
(524,-187,o),
(524,-35,cs),
(524,92,o),
(445,181,o),
(312,181,cs),
(264,181,o),
(263,184,o),
(299,207,cs),
(358,246,o),
(436,311,o),
(505,386,cs),
(508,390,o),
(510,395,o),
(510,398,cs),
(510,408,o),
(504,416,o),
(489,416,cs),
(451,416,o),
(413,415,o),
(375,415,cs),
(187,415,ls),
(163,415,o),
(127,417,o),
(80,425,c),
(74,425,o),
(69,420,o),
(67,408,cs),
(46,278,ls),
(45,272,o),
(57,271,o),
(59,275,cs),
(74,301,o),
(93,329,o),
(105,339,cs),
(123,355,o),
(157,365,o),
(192,365,cs),
(413,365,ls),
(425,365,o),
(430,353,o),
(421,345,cs),
(368,300,o),
(302,253,o),
(239,209,cs),
(179,167,o),
(133,146,o),
(88,127,cs),
(86,127,o),
(112,90,o),
(118,95,cs),
(164,135,o),
(221,155,o),
(289,155,cs),
(388,155,o),
(438,92,o),
(438,-49,cs),
(438,-150,o),
(358,-239,o),
(231,-239,cs),
(190,-239,o),
(156,-221,o),
(129,-187,cs),
(102,-151,o),
(79,-135,o),
(61,-135,cs),
(42,-135,o),
(11,-146,o),
(11,-181,cs),
(11,-235,o),
(117,-272,o),
(234,-272,cs)
);
}
);
width = 521;
},
{
anchors = (
{
name = bottom;
pos = (203,-238);
},
{
name = top;
pos = (217,415);
}
);
guides = (
{
angle = 90;
pos = (368,554);
showMeasurement = 1;
}
);
layerId = "00F4936D-6309-4DEC-83B3-42806ED1A477";
shapes = (
{
closed = 1;
nodes = (
(333,-272,o),
(437,-188,o),
(437,-37,cs),
(437,89,o),
(371,174,o),
(260,174,cs),
(214,174,o),
(212,175,o),
(244,200,cs),
(299,244,o),
(362,310,o),
(421,386,cs),
(424,390,o),
(425,395,o),
(425,399,cs),
(425,408,o),
(420,416,o),
(407,416,cs),
(376,416,o),
(344,415,o),
(313,415,cs),
(156,415,ls),
(136,415,o),
(106,417,o),
(67,425,c),
(62,425,o),
(58,420,o),
(56,408,cs),
(38,278,ls),
(37,272,o),
(47,271,o),
(49,275,cs),
(61,299,o),
(75,325,o),
(85,335,cs),
(100,351,o),
(126,360,o),
(156,360,cs),
(331,360,ls),
(341,360,o),
(344,349,o),
(336,340,cs),
(292,292,o),
(237,242,o),
(191,206,cs),
(145,170,o),
(105,143,o),
(71,126,cs),
(65,124,o),
(93,83,o),
(98,88,cs),
(136,125,o),
(181,144,o),
(235,144,cs),
(314,144,o),
(354,79,o),
(354,-52,cs),
(354,-151,o),
(295,-237,o),
(193,-237,cs),
(159,-237,o),
(131,-220,o),
(109,-186,cs),
(87,-152,o),
(68,-135,o),
(53,-135,cs),
(35,-135,o),
(9,-147,o),
(9,-170,cs),
(9,-239,o),
(97,-272,o),
(191,-272,cs)
);
}
);
userData = {
com.fontlab.hintData = {
hhints = (
{
position = -557;
width = 72;
},
{
position = 295;
width = 61;
},
{
position = 707;
width = 141;
}
);
vhints = (
{
position = 725;
width = 170;
}
);
};
};
width = 434;
}
);
unicode = 658;
}
{
glyphname = uni02A5;
layers = (
{
layerId = master01;
shapes = (
{
closed = 1;
nodes = (
(549,-94,o),
(553,-91,o),
(554,-85,cs),
(560,-51,o),
(570,-22,o),
(580,0,c),
(696,0,ls),
(763,0,o),
(790,31,o),
(790,75,cs),
(790,123,o),
(757,151,o),
(701,151,cs),
(635,151,o),
(583,90,o),
(556,30,c),
(516,30,ls),
(508,30,o),
(500,32,o),
(500,39,cs),
(500,44,o),
(500,47,o),
(502,51,cs),
(690,395,ls),
(696,406,o),
(697,411,o),
(697,414,cs),
(697,417,o),
(692,418,o),
(683,418,cs),
(463,418,ls),
(445,418,o),
(427,420,o),
(411,424,c),
(411,572,l),
(336,572,l),
(336,428,ls),
(336,421,o),
(333,416,o),
(330,416,cs),
(326,416,o),
(323,416,o),
(315,418,cs),
(305,421,o),
(287,425,o),
(264,425,cs),
(128,425,o),
(32,328,o),
(32,201,cs),
(32,76,o),
(94,-11,o),
(221,-11,cs),
(254,-11,o),
(284,5,o),
(317,32,cs),
(322,37,o),
(327,39,o),
(330,39,cs),
(334,39,o),
(336,35,o),
(336,28,cs),
(336,8,ls),
(336,-8,o),
(339,-16,o),
(344,-16,c),
(353,-10,o),
(378,0,o),
(411,0,cs),
(543,0,l),
(536,-19,o),
(527,-51,o),
(525,-82,cs),
(525,-89,o),
(527,-92,o),
(538,-93,cs)
);
},
{
closed = 1;
nodes = (
(167,36,o),
(112,126,o),
(112,215,cs),
(112,312,o),
(163,396,o),
(253,396,cs),
(282,396,o),
(306,388,o),
(325,372,cs),
(333,366,o),
(336,351,o),
(336,326,cs),
(336,97,ls),
(336,63,o),
(289,36,o),
(246,36,cs)
);
},
{
closed = 1;
nodes = (
(416,63,o),
(411,83,o),
(411,113,cs),
(411,323,l),
(422,347,o),
(449,390,o),
(481,390,cs),
(587,390,ls),
(597,390,o),
(602,387,o),
(602,381,cs),
(602,379,o),
(601,375,o),
(598,370,cs),
(425,51,l)
);
},
{
closed = 1;
nodes = (
(615,66,o),
(654,119,o),
(698,119,cs),
(720,119,o),
(743,103,o),
(743,74,cs),
(743,41,o),
(725,30,o),
(695,30,cs),
(594,30,l)
);
},
{
closed = 1;
nodes = (
(411,555,l),
(411,637,ls),
(411,655,o),
(411,679,o),
(414,712,c),
(414,721,o),
(412,726,o),
(408,726,cs),
(404,726,o),
(397,722,o),
(386,714,cs),
(375,706,o),
(356,694,o),
(339,685,cs),
(322,676,o),
(302,668,o),
(291,668,cs),
(286,668,o),
(283,664,o),
(283,655,cs),
(283,646,o),
(286,641,o),
(291,641,cs),
(321,641,o),
(336,619,o),
(336,574,cs),
(336,555,l)
);
}
);
width = 801;
},
{
layerId = "75918100-ED89-42A8-B0FE-888EB9C86810";
shapes = (
{
closed = 1;
nodes = (
(625,-104,o),
(640,-103,o),
(641,-97,cs),
(649,-60,o),
(659,-28,o),
(669,0,c),
(804,0,ls),
(883,0,o),
(929,36,o),
(929,91,cs),
(929,148,o),
(875,187,o),
(800,187,cs),
(721,187,o),
(669,141,o),
(631,39,c),
(602,39,ls),
(592,39,o),
(587,42,o),
(587,51,cs),
(587,54,o),
(588,56,o),
(589,58,cs),
(765,383,ls),
(768,388,o),
(769,394,o),
(769,399,cs),
(769,410,o),
(761,415,o),
(747,415,cs),
(514,415,ls),
(491,415,o),
(468,417,o),
(441,422,c),
(441,567,l),
(329,567,l),
(329,428,ls),
(329,421,o),
(327,416,o),
(325,416,cs),
(322,416,o),
(319,416,o),
(314,418,cs),
(307,421,o),
(294,425,o),
(277,425,cs),
(129,425,o),
(26,334,o),
(26,204,cs),
(26,84,o),
(94,-11,o),
(234,-11,cs),
(268,-11,o),
(299,0,o),
(329,23,cs),
(335,27,o),
(340,30,o),
(343,30,cs),
(347,30,o),
(348,26,o),
(348,19,cs),
(348,5,ls),
(348,-10,o),
(352,-17,o),
(359,-17,c),
(385,-8,o),
(424,0,o),
(464,0,cs),
(618,0,l),
(609,-28,o),
(601,-60,o),
(594,-96,cs),
(593,-103,o),
(608,-104,o),
(616,-104,cs)
);
},
{
closed = 1;
nodes = (
(186,30,o),
(150,119,o),
(150,217,cs),
(150,299,o),
(182,387,o),
(264,387,cs),
(285,387,o),
(304,383,o),
(319,373,cs),
(328,367,o),
(329,359,o),
(329,339,cs),
(329,69,ls),
(329,51,o),
(294,30,o),
(259,30,cs)
);
},
{
closed = 1;
nodes = (
(443,61,o),
(441,85,o),
(441,125,cs),
(441,327,l),
(458,361,o),
(477,378,o),
(497,378,cs),
(613,378,ls),
(623,378,o),
(627,375,o),
(627,368,cs),
(627,365,o),
(627,360,o),
(624,355,cs),
(458,51,l)
);
},
{
closed = 1;
nodes = (
(716,113,o),
(753,147,o),
(795,147,cs),
(834,147,o),
(853,127,o),
(853,96,cs),
(853,60,o),
(830,39,o),
(769,39,cs),
(685,39,l)
);
},
{
closed = 1;
nodes = (
(441,529,l),
(441,628,ls),
(441,655,o),
(441,683,o),
(445,713,c),
(445,722,o),
(440,726,o),
(433,726,cs),
(426,726,o),
(421,724,o),
(413,717,cs),
(403,710,o),
(366,688,o),
(343,678,cs),
(321,668,o),
(296,664,o),
(284,664,cs),
(280,664,o),
(277,658,o),
(277,646,cs),
(277,634,o),
(280,628,o),
(284,628,cs),
(314,628,o),
(329,607,o),
(329,567,cs),
(329,529,l)
);
}
);
width = 938;
},
{
guides = (
{
pos = (330,416);
},
{
pos = (315,418);
},
{
pos = (305,421);
},
{
pos = (287,425);
}
);
layerId = "6ABD9449-5E80-4451-809E-12ADEB9E9AB4";
shapes = (
{
closed = 1;
nodes = (
(523,-90,o),
(525,-87,o),
(526,-82,cs),
(532,-48,o),
(541,-21,o),
(552,0,c),
(662,0,ls),
(713,0,o),
(748,30,o),
(748,70,cs),
(748,114,o),
(707,139,o),
(669,139,cs),
(607,139,o),
(555,73,o),
(533,27,c),
(488,27,ls),
(481,27,o),
(472,29,o),
(472,35,cs),
(472,41,o),
(473,44,o),
(475,48,cs),
(665,396,ls),
(670,404,o),
(672,411,o),
(672,413,cs),
(672,417,o),
(670,419,o),
(663,419,cs),
(448,419,ls),
(431,419,o),
(415,421,o),
(402,424,c),
(402,622,l),
(340,622,l),
(340,428,ls),
(340,421,o),
(337,416,o),
(333,416,cs),
(329,416,o),
(326,416,o),
(317,418,cs),
(306,421,o),
(286,425,o),
(261,425,cs),
(129,425,o),
(36,326,o),
(36,200,cs),
(36,73,o),
(95,-11,o),
(218,-11,cs),
(251,-11,o),
(281,7,o),
(314,35,cs),
(319,40,o),
(324,42,o),
(327,42,cs),
(331,42,o),
(333,38,o),
(333,31,cs),
(333,9,ls),
(333,-8,o),
(336,-16,o),
(341,-16,c),
(343,-11,o),
(364,0,o),
(394,0,cs),
(520,0,l),
(513,-15,o),
(506,-48,o),
(504,-78,cs),
(503,-85,o),
(504,-89,o),
(513,-89,cs)
);
},
{
closed = 1;
nodes = (
(162,38,o),
(101,128,o),
(101,214,cs),
(101,315,o),
(158,399,o),
(250,399,cs),
(282,399,o),
(311,393,o),
(329,372,cs),
(335,365,o),
(340,348,o),
(340,322,cs),
(340,106,ls),
(340,67,o),
(289,38,o),
(243,38,cs)
);
},
{
closed = 1;
nodes = (
(408,64,o),
(402,83,o),
(402,109,cs),
(402,322,l),
(411,343,o),
(441,394,o),
(477,394,cs),
(580,394,ls),
(589,394,o),
(594,392,o),
(594,386,cs),
(594,384,o),
(593,380,o),
(590,375,cs),
(416,51,l)
);
},
{
closed = 1;
nodes = (
(583,50,o),
(623,109,o),
(667,109,cs),
(692,109,o),
(708,95,o),
(708,67,cs),
(708,35,o),
(691,27,o),
(658,27,cs),
(565,27,l)
);
},
{
closed = 1;
nodes = (
(402,563,l),
(402,640,ls),
(402,655,o),
(402,678,o),
(404,712,c),
(404,721,o),
(403,726,o),
(400,726,cs),
(396,726,o),
(389,722,o),
(379,713,cs),
(368,704,o),
(354,695,o),
(339,687,cs),
(324,679,o),
(305,670,o),
(295,670,cs),
(289,670,o),
(286,666,o),
(286,658,cs),
(286,649,o),
(289,646,o),
(295,646,cs),
(325,646,o),
(340,623,o),
(340,576,cs),
(340,563,l)
);
}
);
width = 760;
},
{
layerId = "70B83247-6FA0-4662-9656-C86DD2A17D3B";
shapes = (
{
closed = 1;
nodes = (
(471,-98,o),
(479,-96,o),
(480,-88,cs),
(485,-56,o),
(493,-27,o),
(501,0,c),
(602,0,ls),
(661,0,o),
(688,33,o),
(688,82,cs),
(688,132,o),
(656,165,o),
(603,165,cs),
(545,165,o),
(502,110,o),
(477,34,c),
(449,34,ls),
(442,34,o),
(437,36,o),
(437,43,cs),
(437,48,o),
(438,51,o),
(439,53,cs),
(583,391,ls),
(585,396,o),
(588,403,o),
(588,409,cs),
(588,416,o),
(581,417,o),
(573,417,cs),
(393,417,ls),
(377,417,o),
(360,419,o),
(344,423,c),
(344,563,l),
(269,563,l),
(269,428,ls),
(269,421,o),
(267,416,o),
(265,416,cs),
(262,416,o),
(260,416,o),
(254,418,cs),
(247,421,o),
(238,425,o),
(219,425,cs),
(107,425,o),
(27,331,o),
(27,203,cs),
(27,80,o),
(79,-11,o),
(185,-11,cs),
(210,-11,o),
(236,3,o),
(261,28,cs),
(265,33,o),
(269,36,o),
(272,36,cs),
(275,36,o),
(276,30,o),
(276,24,cs),
(276,6,ls),
(276,-8,o),
(279,-17,o),
(284,-17,c),
(298,-10,o),
(322,0,o),
(353,0,cs),
(466,0,l),
(459,-22,o),
(453,-61,o),
(450,-88,cs),
(449,-93,o),
(457,-97,o),
(463,-97,cs)
);
},
{
closed = 1;
nodes = (
(144,34,o),
(107,124,o),
(107,215,cs),
(107,307,o),
(141,393,o),
(209,393,cs),
(229,393,o),
(247,386,o),
(261,373,cs),
(267,366,o),
(269,354,o),
(269,331,cs),
(269,86,ls),
(269,59,o),
(236,34,o),
(205,34,cs)
);
},
{
closed = 1;
nodes = (
(344,64,o),
(344,93,o),
(344,117,cs),
(344,325,l),
(354,352,o),
(373,386,o),
(394,386,cs),
(483,386,ls),
(490,386,o),
(495,382,o),
(495,376,cs),
(495,374,o),
(493,369,o),
(491,364,cs),
(356,51,l)
);
},
{
closed = 1;
nodes = (
(534,84,o),
(565,130,o),
(599,130,cs),
(622,130,o),
(640,112,o),
(640,83,cs),
(640,43,o),
(617,34,o),
(589,34,cs),
(513,34,l)
);
},
{
closed = 1;
nodes = (
(344,544,l),
(344,633,ls),
(344,655,o),
(344,681,o),
(346,712,c),
(346,721,o),
(343,726,o),
(339,726,cs),
(335,726,o),
(330,723,o),
(322,715,cs),
(314,708,o),
(295,694,o),
(275,682,cs),
(260,673,o),
(242,667,o),
(233,667,cs),
(229,667,o),
(227,661,o),
(227,651,cs),
(227,642,o),
(229,636,o),
(233,636,cs),
(257,636,o),
(269,613,o),
(269,571,cs),
(269,544,l)
);
}
);
width = 698;
},
{
layerId = "9E6FDE2E-55A6-44A9-9556-F1822294BF26";
shapes = (
{
closed = 1;
nodes = (
(628,-90,o),
(628,-85,o),
(629,-83,cs),
(636,-46,o),
(648,-18,o),
(660,0,c),
(792,0,ls),
(866,0,o),
(893,29,o),
(893,69,cs),
(893,113,o),
(859,137,o),
(801,137,cs),
(726,137,o),
(664,69,o),
(637,26,c),
(584,26,ls),
(575,26,o),
(564,28,o),
(564,35,cs),
(564,40,o),
(564,43,o),
(567,48,cs),
(798,399,ls),
(804,408,o),
(805,413,o),
(805,416,cs),
(805,418,o),
(801,419,o),
(793,419,cs),
(535,419,ls),
(514,419,o),
(496,421,o),
(479,424,c),
(479,581,l),
(404,581,l),
(404,428,ls),
(404,421,o),
(400,416,o),
(396,416,cs),
(391,416,o),
(387,416,o),
(377,418,cs),
(364,421,o),
(341,425,o),
(311,425,cs),
(151,425,o),
(39,326,o),
(39,200,cs),
(39,72,o),
(110,-11,o),
(259,-11,cs),
(299,-11,o),
(333,7,o),
(375,36,cs),
(381,41,o),
(386,42,o),
(390,42,cs),
(394,42,o),
(397,41,o),
(397,31,cs),
(397,9,ls),
(397,-8,o),
(400,-16,o),
(406,-16,c),
(409,-11,o),
(436,0,o),
(470,0,cs),
(621,0,l),
(614,-15,o),
(604,-41,o),
(603,-76,cs),
(602,-85,o),
(599,-87,o),
(613,-88,cs)
);
},
{
closed = 1;
nodes = (
(191,39,o),
(118,128,o),
(118,214,cs),
(118,316,o),
(187,399,o),
(298,399,cs),
(335,399,o),
(367,390,o),
(391,372,cs),
(399,365,o),
(404,347,o),
(404,321,cs),
(404,108,ls),
(404,68,o),
(343,39,o),
(289,39,cs)
);
},
{
closed = 1;
nodes = (
(489,62,o),
(479,74,o),
(479,108,cs),
(479,322,l),
(491,343,o),
(527,395,o),
(569,395,cs),
(693,395,ls),
(705,395,o),
(710,392,o),
(710,386,cs),
(710,384,o),
(709,381,o),
(706,376,cs),
(496,51,l)
);
},
{
closed = 1;
nodes = (
(698,48,o),
(745,107,o),
(799,107,cs),
(819,107,o),
(847,94,o),
(847,66,cs),
(847,39,o),
(833,26,o),
(803,26,cs),
(677,26,l)
);
},
{
closed = 1;
nodes = (
(479,565,l),
(479,641,ls),
(479,655,o),
(479,678,o),
(482,712,c),
(482,722,o),
(481,726,o),
(478,726,cs),
(474,726,o),
(466,722,o),
(452,712,cs),
(438,704,o),
(418,694,o),
(404,688,cs),
(385,679,o),
(363,670,o),
(350,670,cs),
(344,670,o),
(340,667,o),
(340,658,cs),
(340,649,o),
(344,646,o),
(350,646,cs),
(386,646,o),
(404,624,o),
(404,576,cs),
(404,565,l)
);
}
);
width = 907;
},
{
layerId = "00F4936D-6309-4DEC-83B3-42806ED1A477";
shapes = (
{
closed = 1;
nodes = (
(549,-94,o),
(553,-91,o),
(554,-85,cs),
(560,-51,o),
(570,-22,o),
(580,0,c),
(696,0,ls),
(763,0,o),
(790,31,o),
(790,75,cs),
(790,123,o),
(757,151,o),
(701,151,cs),
(635,151,o),
(583,90,o),
(556,30,c),
(516,30,ls),
(508,30,o),
(500,32,o),
(500,39,cs),
(500,44,o),
(500,47,o),
(502,51,cs),
(690,395,ls),
(696,406,o),
(697,411,o),
(697,414,cs),
(697,417,o),
(692,418,o),
(683,418,cs),
(463,418,ls),
(445,418,o),
(427,420,o),
(411,424,c),
(411,572,l),
(336,572,l),
(336,428,ls),
(336,421,o),
(333,416,o),
(330,416,cs),
(326,416,o),
(323,416,o),
(315,418,cs),
(305,421,o),
(287,425,o),
(264,425,cs),
(128,425,o),
(32,328,o),
(32,201,cs),
(32,76,o),
(94,-11,o),
(221,-11,cs),
(254,-11,o),
(284,5,o),
(317,32,cs),
(322,37,o),
(327,39,o),
(330,39,cs),
(334,39,o),
(336,35,o),
(336,28,cs),
(336,8,ls),
(336,-8,o),
(339,-16,o),
(344,-16,c),
(353,-10,o),
(378,0,o),
(411,0,cs),
(543,0,l),
(536,-19,o),
(527,-51,o),
(525,-82,cs),
(525,-89,o),
(527,-92,o),
(538,-93,cs)
);
},
{
closed = 1;
nodes = (
(167,36,o),
(112,126,o),
(112,215,cs),
(112,312,o),
(163,396,o),
(253,396,cs),
(282,396,o),
(306,388,o),
(325,372,cs),
(333,366,o),
(336,351,o),
(336,326,cs),
(336,97,ls),
(336,63,o),
(289,36,o),
(246,36,cs)
);
},
{
closed = 1;
nodes = (
(416,63,o),
(411,83,o),
(411,113,cs),
(411,323,l),
(422,347,o),
(449,390,o),
(481,390,cs),
(587,390,ls),
(597,390,o),
(602,387,o),
(602,381,cs),
(602,379,o),
(601,375,o),
(598,370,cs),
(425,51,l)
);
},
{
closed = 1;
nodes = (
(615,66,o),
(654,119,o),
(698,119,cs),
(720,119,o),
(743,103,o),
(743,74,cs),
(743,41,o),
(725,30,o),
(695,30,cs),
(594,30,l)
);
},
{
closed = 1;
nodes = (
(411,555,l),
(411,637,ls),
(411,655,o),
(411,679,o),
(414,712,c),
(414,721,o),
(412,726,o),
(408,726,cs),
(404,726,o),
(397,722,o),
(386,714,cs),
(375,706,o),
(356,694,o),
(339,685,cs),
(322,676,o),
(302,668,o),
(291,668,cs),
(286,668,o),
(283,664,o),
(283,655,cs),
(283,646,o),
(286,641,o),
(291,641,cs),
(321,641,o),
(336,619,o),
(336,574,cs),
(336,555,l)
);
}
);
width = 801;
}
);
unicode = 677;
}
{
glyphname = uni02B5;
layers = (
{
layerId = master01;
shapes = (
{
closed = 1;
nodes = (
(70,253,o),
(89,263,o),
(103,280,cs),
(106,285,o),
(108,288,o),
(112,288,cs),
(114,288,o),
(116,285,o),
(116,279,c),
(175,279,l),
(175,459,l),
(116,459,l),
(116,358,ls),
(116,331,o),
(103,299,o),
(80,299,cs),
(76,299,o),
(70,301,o),
(64,306,cs),
(53,315,o),
(44,318,o),
(38,318,cs),
(23,318,o),
(10,303,o),
(10,287,cs),
(10,267,o),
(27,253,o),
(49,253,cs)
);
},
{
closed = 1;
nodes = (
(254,126,o),
(277,140,o),
(277,164,cs),
(277,179,o),
(266,192,o),
(251,192,cs),
(241,192,o),
(232,187,o),
(228,175,cs),
(224,164,o),
(217,157,o),
(206,157,cs),
(181,157,o),
(175,205,o),
(175,248,cs),
(175,307,l),
(116,307,l),
(116,274,ls),
(116,191,o),
(158,126,o),
(223,126,cs)
);
},
{
closed = 1;
nodes = (
(175,449,l),
(175,469,ls),
(175,483,o),
(187,490,o),
(207,490,cs),
(210,490,o),
(211,494,o),
(211,500,cs),
(211,506,o),
(209,510,o),
(207,510,c),
(189,508,o),
(165,508,o),
(144,508,cs),
(119,508,o),
(102,509,o),
(84,510,c),
(82,510,o),
(80,506,o),
(80,500,cs),
(80,494,o),
(82,490,o),
(84,490,cs),
(104,490,o),
(116,483,o),
(116,469,cs),
(116,449,l)
);
}
);
userData = {
RMXScaler = {
height = 60;
weight = -30;
width = 60;
};
};
width = 287;
},
{
layerId = "75918100-ED89-42A8-B0FE-888EB9C86810";
shapes = (
{
closed = 1;
nodes = (
(69,253,o),
(85,259,o),
(97,272,cs),
(103,279,o),
(106,280,o),
(108,280,cs),
(110,280,o),
(112,279,o),
(112,275,c),
(186,275,l),
(186,456,l),
(112,456,l),
(112,353,ls),
(112,332,o),
(99,302,o),
(83,302,cs),
(78,302,o),
(74,304,o),
(71,308,cs),
(62,318,o),
(50,326,o),
(38,326,cs),
(22,326,o),
(6,312,o),
(6,288,cs),
(6,268,o),
(28,253,o),
(52,253,cs)
);
},
{
closed = 1;
nodes = (
(251,126,o),
(273,145,o),
(273,170,cs),
(273,186,o),
(265,203,o),
(248,203,cs),
(238,203,o),
(228,197,o),
(225,182,cs),
(222,170,o),
(217,161,o),
(208,161,cs),
(186,161,o),
(186,227,o),
(186,251,cs),
(186,311,l),
(112,311,l),
(112,270,ls),
(112,220,o),
(153,126,o),
(219,126,cs)
);
},
{
closed = 1;
nodes = (
(186,449,l),
(186,468,ls),
(186,480,o),
(196,486,o),
(215,486,cs),
(219,486,o),
(220,491,o),
(220,499,cs),
(220,505,o),
(218,510,o),
(215,510,c),
(198,508,o),
(172,508,o),
(146,508,cs),
(120,508,o),
(104,509,o),
(83,510,c),
(81,510,o),
(79,505,o),
(79,499,cs),
(79,491,o),
(81,486,o),
(83,486,cs),
(103,486,o),
(112,480,o),
(112,468,cs),
(112,449,l)
);
}
);
userData = {
RMXScaler = {
height = 60;
weight = -210;
width = 60;
};
};
width = 279;
},
{
layerId = "6ABD9449-5E80-4451-809E-12ADEB9E9AB4";
shapes = (
{
closed = 1;
nodes = (
(70,253,o),
(91,265,o),
(104,283,cs),
(107,287,o),
(110,290,o),
(113,290,cs),
(116,290,o),
(117,287,o),
(117,280,c),
(171,280,l),
(171,460,l),
(118,460,l),
(118,360,ls),
(118,330,o),
(104,298,o),
(79,298,cs),
(76,298,o),
(68,300,o),
(62,306,cs),
(50,314,o),
(42,316,o),
(38,316,cs),
(23,316,o),
(11,300,o),
(11,286,cs),
(11,266,o),
(27,253,o),
(48,253,cs)
);
},
{
closed = 1;
nodes = (
(255,126,o),
(278,139,o),
(278,162,cs),
(278,177,o),
(267,189,o),
(253,189,cs),
(242,189,o),
(233,183,o),
(229,172,cs),
(225,162,o),
(217,155,o),
(206,155,cs),
(179,155,o),
(171,197,o),
(171,247,cs),
(171,305,l),
(117,305,l),
(117,276,ls),
(117,182,o),
(159,126,o),
(225,126,cs)
);
},
{
closed = 1;
nodes = (
(171,449,l),
(171,470,ls),
(171,484,o),
(183,491,o),
(204,491,cs),
(207,491,o),
(208,495,o),
(208,501,cs),
(208,507,o),
(207,510,o),
(204,510,c),
(186,508,o),
(163,508,o),
(143,508,cs),
(119,508,o),
(101,509,o),
(85,510,c),
(82,510,o),
(81,507,o),
(81,501,cs),
(81,495,o),
(82,491,o),
(85,491,cs),
(105,491,o),
(118,484,o),
(118,470,cs),
(118,449,l)
);
}
);
userData = {
RMXScaler = {
height = 60;
width = 60;
};
};
width = 289;
},
{
layerId = "70B83247-6FA0-4662-9656-C86DD2A17D3B";
shapes = (
{
closed = 1;
nodes = (
(59,253,o),
(73,260,o),
(83,275,cs),
(88,283,o),
(89,284,o),
(92,284,cs),
(93,284,o),
(94,281,o),
(94,276,c),
(153,276,l),
(153,457,l),
(95,457,l),
(95,355,ls),
(95,333,o),
(84,301,o),
(71,301,cs),
(68,301,o),
(65,302,o),
(61,308,cs),
(53,318,o),
(42,322,o),
(35,322,cs),
(22,322,o),
(10,307,o),
(10,288,cs),
(10,268,o),
(27,253,o),
(46,253,cs)
);
},
{
closed = 1;
nodes = (
(205,126,o),
(224,143,o),
(224,167,cs),
(224,183,o),
(217,199,o),
(203,199,cs),
(194,199,o),
(186,191,o),
(185,179,cs),
(183,168,o),
(178,159,o),
(171,159,cs),
(153,159,o),
(153,221,o),
(153,247,cs),
(153,308,l),
(94,308,l),
(94,271,ls),
(94,213,o),
(126,126,o),
(180,126,cs)
);
},
{
closed = 1;
nodes = (
(153,449,l),
(153,468,ls),
(153,481,o),
(162,487,o),
(177,487,cs),
(180,487,o),
(181,494,o),
(181,499,cs),
(181,506,o),
(179,510,o),
(177,510,c),
(162,508,o),
(143,508,o),
(121,508,cs),
(102,508,o),
(88,509,o),
(72,510,c),
(69,510,o),
(68,505,o),
(68,499,cs),
(68,493,o),
(69,487,o),
(72,487,cs),
(87,487,o),
(95,481,o),
(95,468,cs),
(95,449,l)
);
}
);
userData = {
RMXScaler = {
height = 60;
weight = -25;
width = 60;
};
};
width = 233;
},
{
layerId = "9E6FDE2E-55A6-44A9-9556-F1822294BF26";
shapes = (
{
closed = 1;
nodes = (
(81,253,o),
(106,266,o),
(122,285,cs),
(124,286,o),
(128,292,o),
(132,292,cs),
(135,292,o),
(137,289,o),
(137,281,c),
(196,281,l),
(196,461,l),
(138,461,l),
(138,361,ls),
(138,329,o),
(121,298,o),
(89,298,cs),
(84,298,o),
(75,301,o),
(67,305,cs),
(54,312,o),
(46,314,o),
(40,314,cs),
(23,314,o),
(10,298,o),
(10,286,cs),
(10,265,o),
(27,253,o),
(52,253,cs)
);
},
{
closed = 1;
nodes = (
(303,126,o),
(330,138,o),
(330,160,cs),
(330,176,o),
(315,186,o),
(300,186,cs),
(288,186,o),
(278,182,o),
(271,170,cs),
(265,159,o),
(256,155,o),
(241,155,cs),
(208,155,o),
(196,188,o),
(196,249,cs),
(196,305,l),
(137,305,l),
(137,278,ls),
(137,170,o),
(189,126,o),
(266,126,cs)
);
},
{
closed = 1;
nodes = (
(196,449,l),
(196,470,ls),
(196,486,o),
(211,492,o),
(236,492,cs),
(240,492,o),
(241,494,o),
(241,502,cs),
(241,506,o),
(240,510,o),
(236,510,c),
(216,508,o),
(187,508,o),
(166,508,cs),
(137,508,o),
(115,509,o),
(97,510,c),
(94,510,o),
(92,508,o),
(92,502,cs),
(92,495,o),
(94,492,o),
(97,492,cs),
(122,492,o),
(138,486,o),
(138,470,cs),
(138,449,l)
);
}
);
width = 340;
},
{
layerId = "00F4936D-6309-4DEC-83B3-42806ED1A477";
shapes = (
{
closed = 1;
nodes = (
(70,253,o),
(89,263,o),
(103,280,cs),
(106,285,o),
(108,288,o),
(112,288,cs),
(114,288,o),
(116,285,o),
(116,279,c),
(175,279,l),
(175,459,l),
(116,459,l),
(116,358,ls),
(116,331,o),
(103,299,o),
(80,299,cs),
(76,299,o),
(70,301,o),
(64,306,cs),
(53,315,o),
(44,318,o),
(38,318,cs),
(23,318,o),
(10,303,o),
(10,287,cs),
(10,267,o),
(27,253,o),
(49,253,cs)
);
},
{
closed = 1;
nodes = (
(254,126,o),
(277,140,o),
(277,164,cs),
(277,179,o),
(266,192,o),
(251,192,cs),
(241,192,o),
(232,187,o),
(228,175,cs),
(224,164,o),
(217,157,o),
(206,157,cs),
(181,157,o),
(175,205,o),
(175,248,cs),
(175,307,l),
(116,307,l),
(116,274,ls),
(116,191,o),
(158,126,o),
(223,126,cs)
);
},
{
closed = 1;
nodes = (
(175,449,l),
(175,469,ls),
(175,483,o),
(187,490,o),
(207,490,cs),
(210,490,o),
(211,494,o),
(211,500,cs),
(211,506,o),
(209,510,o),
(207,510,c),
(189,508,o),
(165,508,o),
(144,508,cs),
(119,508,o),
(102,509,o),
(84,510,c),
(82,510,o),
(80,506,o),
(80,500,cs),
(80,494,o),
(82,490,o),
(84,490,cs),
(104,490,o),
(116,483,o),
(116,469,cs),
(116,449,l)
);
}
);
userData = {
RMXScaler = {
height = 60;
weight = -30;
width = 60;
};
};
width = 287;
}
);
unicode = 693;
userData = {
RMXScaler = {
source = uni027B;
};
};
}
