STARTFONT 2.1
COMMENT +
COMMENT  Copyright 1988 Bitstream, Inc., Cambridge, Massachusetts, USA
COMMENT  Copyright 1996 BIZNET Poland, Inc.
COMMENT
COMMENT  Permission to use, copy, modify, and distribute this software and
COMMENT  its documentation for any purpose and without fee is hereby
COMMENT  granted, provided that the above copyright notice appear in all
COMMENT  copies and that both that copyright notice and this permission
COMMENT  notice appear in supporting documentation, and that the name of
COMMENT  Bitstream not be used in advertising or publicity pertaining to
COMMENT  distribution of the software without specific, written prior
COMMENT  permission.  Bitstream makes no representations about the
COMMENT  suitability of this software for any purpose.  It is provided "as
COMMENT  is" without express or implied warranty.
COMMENT
COMMENT  BITSTREAM DISCLAIMS ALL WARRANTIES WITH REGARD TO THIS SOFTWARE,
COMMENT  INCLUDING ALL IMPLIED WARRANTIES OF MERCHANTABILITY AND FITNESS, IN
COMMENT  NO EVENT SHALL BITSTREAM BE LIABLE FOR ANY SPECIAL, INDIRECT OR
COMMENT  CONSEQUENTIAL DAMAGES OR ANY DAMAGES WHATSOEVER RESULTING FROM LOSS
COMMENT  OF USE, DATA OR PROFITS, WHETHER IN AN ACTION OF CONTRACT,
COMMENT  NEGLIGENCE OR OTHER TORTIOUS ACTION, ARISING OUT OF OR IN
COMMENT  CONNECTION WITH THE USE OR PERFORMANCE OF THIS SOFTWARE.
COMMENT -
FONT -BIZNET-Chartis-Medium-I-Normal--17-120-100-100-P-92-ISO8859-2
SIZE 12 100 100
FONTBOUNDINGBOX 15 17 -2 -4
STARTPROPERTIES 23
FOUNDRY "BIZNET"
FAMILY_NAME "BIZNET Chartis"
WEIGHT_NAME "Medium"
SLANT "I"
SETWIDTH_NAME "Normal"
ADD_STYLE_NAME ""
PIXEL_SIZE 17
POINT_SIZE 120
RESOLUTION_X 100
RESOLUTION_Y 100
SPACING "P"
AVERAGE_WIDTH 92
CHARSET_REGISTRY "ISO8859"
CHARSET_ENCODING "2"
CAP_HEIGHT 11
X_HEIGHT 8
FONT_ASCENT 16
FONT_DESCENT 4
FACE_NAME "BIZNET Chartis Italic"
DEFAULT_CHAR 1
CHARSET_COLLECTIONS "ASCII ISO8859-2"

STARTCHAR space
ENCODING 32
SWIDTH 300 0
DWIDTH 5 0
BBX 1 1 0 0
BITMAP
00
ENDCHAR
STARTCHAR exclam
ENCODING 33
SWIDTH 360 0
DWIDTH 6 0
BBX 4 11 1 0
BITMAP
30
30
30
20
60
60
40
40
00
C0
C0
ENDCHAR
STARTCHAR quotedbl
ENCODING 34
SWIDTH 420 0
DWIDTH 7 0
BBX 5 5 1 7
BITMAP
D8
D8
D8
48
48
ENDCHAR
STARTCHAR numbersign
ENCODING 35
SWIDTH 720 0
DWIDTH 12 0
BBX 10 12 1 0
BITMAP
0480
0880
0900
0900
7FC0
1200
1200
FF80
2400
2400
4400
4800
ENDCHAR
STARTCHAR dollar
ENCODING 36
SWIDTH 540 0
DWIDTH 9 0
BBX 8 15 0 -2
BITMAP
04
04
1F
35
29
68
38
1C
0E
12
92
94
78
10
20
ENDCHAR
STARTCHAR percent
ENCODING 37
SWIDTH 840 0
DWIDTH 14 0
BBX 12 11 1 0
BITMAP
3020
4840
8880
8900
9A60
9690
6490
0910
1110
2120
40C0
ENDCHAR
STARTCHAR ampersand
ENCODING 38
SWIDTH 720 0
DWIDTH 12 0
BBX 11 11 0 0
BITMAP
0E00
1300
2100
2200
3C00
39E0
4C80
C480
C300
C700
79C0
ENDCHAR
STARTCHAR quoteright
ENCODING 39
SWIDTH 240 0
DWIDTH 4 0
BBX 3 5 1 7
BITMAP
60
60
20
40
C0
ENDCHAR
STARTCHAR parenleft
ENCODING 40
SWIDTH 420 0
DWIDTH 7 0
BBX 7 14 1 -2
BITMAP
06
18
30
60
40
40
C0
80
80
80
80
80
40
30
ENDCHAR
STARTCHAR parenright
ENCODING 41
SWIDTH 420 0
DWIDTH 7 0
BBX 6 14 -1 -2
BITMAP
10
08
04
04
04
04
04
04
0C
08
08
10
20
C0
ENDCHAR
STARTCHAR asterisk
ENCODING 42
SWIDTH 480 0
DWIDTH 8 0
BBX 6 6 2 6
BITMAP
10
10
EC
30
50
D0
ENDCHAR
STARTCHAR plus
ENCODING 43
SWIDTH 840 0
DWIDTH 14 0
BBX 9 11 3 0
BITMAP
0800
0800
0800
0800
0800
FF80
0800
0800
0800
0800
0800
ENDCHAR
STARTCHAR comma
ENCODING 44
SWIDTH 240 0
DWIDTH 4 0
BBX 3 5 -1 -3
BITMAP
60
60
20
40
80
ENDCHAR
STARTCHAR minus
ENCODING 45
SWIDTH 300 0
DWIDTH 5 0
BBX 4 1 0 4
BITMAP
F0
ENDCHAR
STARTCHAR period
ENCODING 46
SWIDTH 240 0
DWIDTH 4 0
BBX 2 2 0 0
BITMAP
C0
C0
ENDCHAR
STARTCHAR slash
ENCODING 47
SWIDTH 480 0
DWIDTH 8 0
BBX 11 13 -2 -2
BITMAP
0020
0040
0080
0100
0100
0200
0400
0800
1800
1000
2000
4000
8000
ENDCHAR
STARTCHAR zero
ENCODING 48
SWIDTH 540 0
DWIDTH 9 0
BBX 8 11 1 0
BITMAP
1E
33
61
41
C1
81
83
82
86
CC
78
ENDCHAR
STARTCHAR one
ENCODING 49
SWIDTH 540 0
DWIDTH 9 0
BBX 6 11 1 0
BITMAP
1C
7C
08
08
08
18
18
10
10
30
FC
ENDCHAR
STARTCHAR two
ENCODING 50
SWIDTH 540 0
DWIDTH 9 0
BBX 9 11 -1 0
BITMAP
0F00
1180
3080
0080
0180
0300
0600
0800
1080
6080
FF00
ENDCHAR
STARTCHAR three
ENCODING 51
SWIDTH 540 0
DWIDTH 9 0
BBX 8 11 0 0
BITMAP
0E
31
21
01
06
1C
02
03
C2
C6
78
ENDCHAR
STARTCHAR four
ENCODING 52
SWIDTH 540 0
DWIDTH 9 0
BBX 8 12 0 -1
BITMAP
01
03
07
0A
12
22
42
FF
04
04
04
04
ENDCHAR
STARTCHAR five
ENCODING 53
SWIDTH 540 0
DWIDTH 9 0
BBX 8 11 0 0
BITMAP
1F
20
20
20
3C
06
02
02
82
CC
70
ENDCHAR
STARTCHAR six
ENCODING 54
SWIDTH 540 0
DWIDTH 9 0
BBX 7 12 1 0
BITMAP
06
18
20
40
7C
C6
82
82
82
86
C4
78
ENDCHAR
STARTCHAR seven
ENCODING 55
SWIDTH 540 0
DWIDTH 9 0
BBX 9 12 1 -1
BITMAP
7F80
4100
4200
0600
0400
0800
1800
1000
2000
2000
4000
8000
ENDCHAR
STARTCHAR eight
ENCODING 56
SWIDTH 540 0
DWIDTH 9 0
BBX 8 11 0 0
BITMAP
1E
21
61
61
72
3C
46
83
82
C6
78
ENDCHAR
STARTCHAR nine
ENCODING 57
SWIDTH 540 0
DWIDTH 9 0
BBX 8 11 1 0
BITMAP
1E
63
C1
81
81
C7
7A
06
08
70
80
ENDCHAR
STARTCHAR colon
ENCODING 58
SWIDTH 300 0
DWIDTH 5 0
BBX 3 8 1 0
BITMAP
60
60
00
00
00
00
C0
C0
ENDCHAR
STARTCHAR semicolon
ENCODING 59
SWIDTH 300 0
DWIDTH 5 0
BBX 5 11 -1 -3
BITMAP
18
18
00
00
00
00
30
70
10
20
C0
ENDCHAR
STARTCHAR less
ENCODING 60
SWIDTH 840 0
DWIDTH 14 0
BBX 10 9 2 1
BITMAP
0040
0380
0C00
7000
C000
7000
0E00
0380
0040
ENDCHAR
STARTCHAR equal
ENCODING 61
SWIDTH 840 0
DWIDTH 14 0
BBX 10 4 2 3
BITMAP
FFC0
0000
0000
FFC0
ENDCHAR
STARTCHAR greater
ENCODING 62
SWIDTH 840 0
DWIDTH 14 0
BBX 10 9 2 1
BITMAP
8000
7000
0C00
0380
00C0
0380
0C00
7000
8000
ENDCHAR
STARTCHAR question
ENCODING 63
SWIDTH 480 0
DWIDTH 8 0
BBX 6 11 1 0
BITMAP
70
CC
0C
08
18
60
40
40
00
C0
C0
ENDCHAR
STARTCHAR at
ENCODING 64
SWIDTH 960 0
DWIDTH 16 0
BBX 13 14 2 -2
BITMAP
0FC0
1020
2010
4748
8888
9888
9088
9190
93B0
CDC0
4000
6000
3060
0F80
ENDCHAR
STARTCHAR A
ENCODING 65
SWIDTH 600 0
DWIDTH 10 0
BBX 11 11 -1 0
BITMAP
0100
0300
0580
0580
0880
0880
1F80
3080
20C0
40C0
E1E0
ENDCHAR
STARTCHAR B
ENCODING 66
SWIDTH 600 0
DWIDTH 10 0
BBX 9 11 0 0
BITMAP
3F00
1880
1080
1080
3100
3F00
3180
2080
2180
6300
FE00
ENDCHAR
STARTCHAR C
ENCODING 67
SWIDTH 600 0
DWIDTH 10 0
BBX 9 11 1 0
BITMAP
0F00
3080
6080
4000
8000
8000
8000
8000
8100
4200
3C00
ENDCHAR
STARTCHAR D
ENCODING 68
SWIDTH 660 0
DWIDTH 11 0
BBX 11 11 -1 0
BITMAP
3F80
18C0
1820
1020
1020
3020
3020
3040
20C0
2380
FE00
ENDCHAR
STARTCHAR E
ENCODING 69
SWIDTH 540 0
DWIDTH 9 0
BBX 10 11 0 0
BITMAP
3FC0
1840
1040
1000
1100
3F00
3100
2000
2080
6080
FF80
ENDCHAR
STARTCHAR F
ENCODING 70
SWIDTH 480 0
DWIDTH 8 0
BBX 9 11 0 0
BITMAP
3F80
1080
1080
1000
3200
3E00
2200
2000
2000
6000
F000
ENDCHAR
STARTCHAR G
ENCODING 71
SWIDTH 660 0
DWIDTH 11 0
BBX 10 11 1 0
BITMAP
0FC0
30C0
6080
4000
8000
83C0
8180
8100
C100
6300
3E00
ENDCHAR
STARTCHAR H
ENCODING 72
SWIDTH 720 0
DWIDTH 12 0
BBX 13 11 0 0
BITMAP
3C78
1830
1020
1020
3060
3FE0
3060
2040
2040
60C0
F1E0
ENDCHAR
STARTCHAR I
ENCODING 73
SWIDTH 300 0
DWIDTH 5 0
BBX 6 11 0 0
BITMAP
3C
18
10
10
30
30
30
20
20
60
F0
ENDCHAR
STARTCHAR J
ENCODING 74
SWIDTH 480 0
DWIDTH 8 0
BBX 9 11 -1 0
BITMAP
0F80
0200
0200
0600
0600
0600
0400
0C00
8C00
9800
F000
ENDCHAR
STARTCHAR K
ENCODING 75
SWIDTH 600 0
DWIDTH 10 0
BBX 11 11 0 0
BITMAP
3DE0
1080
1100
1200
3400
3C00
2400
2600
2200
6300
F1C0
ENDCHAR
STARTCHAR L
ENCODING 76
SWIDTH 540 0
DWIDTH 9 0
BBX 8 11 0 0
BITMAP
3C
18
10
10
30
30
20
20
21
61
FF
ENDCHAR
STARTCHAR M
ENCODING 77
SWIDTH 840 0
DWIDTH 14 0
BBX 15 11 0 0
BITMAP
380E
181C
1C18
1C28
2448
2458
2498
2790
2710
4210
F278
ENDCHAR
STARTCHAR N
ENCODING 78
SWIDTH 660 0
DWIDTH 11 0
BBX 12 11 0 0
BITMAP
3870
1820
1820
1C40
2440
2640
2240
2340
4180
4180
E080
ENDCHAR
STARTCHAR O
ENCODING 79
SWIDTH 720 0
DWIDTH 12 0
BBX 10 11 1 0
BITMAP
0F00
3080
6040
4040
C040
8040
8040
80C0
8180
4300
3C00
ENDCHAR
STARTCHAR P
ENCODING 80
SWIDTH 540 0
DWIDTH 9 0
BBX 9 11 0 0
BITMAP
3F00
1980
1080
1080
3080
3300
3E00
2000
2000
6000
F000
ENDCHAR
STARTCHAR Q
ENCODING 81
SWIDTH 720 0
DWIDTH 12 0
BBX 11 14 1 -3
BITMAP
0F00
3080
6040
4040
C040
8040
8040
80C0
C180
4300
3E00
0600
0320
01C0
ENDCHAR
STARTCHAR R
ENCODING 82
SWIDTH 600 0
DWIDTH 10 0
BBX 10 11 0 0
BITMAP
3F00
1980
1080
1080
3100
3E00
3300
2100
2100
6180
F0C0
ENDCHAR
STARTCHAR S
ENCODING 83
SWIDTH 540 0
DWIDTH 9 0
BBX 9 11 0 0
BITMAP
0F00
1080
2080
2000
3000
1E00
0300
0100
4100
C200
7C00
ENDCHAR
STARTCHAR T
ENCODING 84
SWIDTH 540 0
DWIDTH 9 0
BBX 9 11 1 0
BITMAP
FF80
8880
8880
1800
1800
1000
1000
1000
3000
3000
7800
ENDCHAR
STARTCHAR U
ENCODING 85
SWIDTH 660 0
DWIDTH 11 0
BBX 11 11 1 0
BITMAP
F1E0
4040
4080
4080
C080
C080
8100
8100
8100
C200
7C00
ENDCHAR
STARTCHAR V
ENCODING 86
SWIDTH 600 0
DWIDTH 10 0
BBX 10 11 1 0
BITMAP
E1C0
4080
6100
6100
2200
2200
2400
2400
2800
3000
1000
ENDCHAR
STARTCHAR W
ENCODING 87
SWIDTH 900 0
DWIDTH 15 0
BBX 15 11 1 0
BITMAP
F10E
6104
6388
6388
6590
6490
28A0
28A0
30C0
30C0
2080
ENDCHAR
STARTCHAR X
ENCODING 88
SWIDTH 600 0
DWIDTH 10 0
BBX 12 11 -1 0
BITMAP
3C70
0840
0C80
0500
0700
0200
0700
0900
1180
2080
F3C0
ENDCHAR
STARTCHAR Y
ENCODING 89
SWIDTH 600 0
DWIDTH 10 0
BBX 10 11 1 0
BITMAP
F3C0
6180
2100
2200
3400
1800
1000
1000
1000
3000
7800
ENDCHAR
STARTCHAR Z
ENCODING 90
SWIDTH 540 0
DWIDTH 9 0
BBX 10 11 0 0
BITMAP
3FC0
2080
2100
0300
0600
0C00
1800
3000
2100
4100
FF00
ENDCHAR
STARTCHAR bracketleft
ENCODING 91
SWIDTH 420 0
DWIDTH 7 0
BBX 6 14 1 -2
BITMAP
3C
20
20
20
20
60
60
40
40
40
40
C0
80
F0
ENDCHAR
STARTCHAR backslash
ENCODING 92
SWIDTH 480 0
DWIDTH 8 0
BBX 7 13 1 -2
BITMAP
80
40
40
20
20
10
10
10
08
08
04
04
02
ENDCHAR
STARTCHAR bracketright
ENCODING 93
SWIDTH 420 0
DWIDTH 7 0
BBX 7 14 -1 -2
BITMAP
1E
06
06
04
04
04
0C
08
08
08
18
18
10
F0
ENDCHAR
STARTCHAR asciicircum
ENCODING 94
SWIDTH 1020 0
DWIDTH 17 0
BBX 10 5 3 7
BITMAP
0C00
1E00
3300
4080
8040
ENDCHAR
STARTCHAR underscore
ENCODING 95
SWIDTH 480 0
DWIDTH 8 0
BBX 8 1 0 -4
BITMAP
FF
ENDCHAR
STARTCHAR quoteleft
ENCODING 96
SWIDTH 180 0
DWIDTH 3 0
BBX 3 5 1 7
BITMAP
60
40
80
C0
C0
ENDCHAR
STARTCHAR a
ENCODING 97
SWIDTH 540 0
DWIDTH 9 0
BBX 8 8 0 0
BITMAP
1F
63
42
82
86
86
CC
77
ENDCHAR
STARTCHAR b
ENCODING 98
SWIDTH 480 0
DWIDTH 8 0
BBX 7 13 0 0
BITMAP
E0
20
60
60
60
5C
62
42
42
82
84
8C
70
ENDCHAR
STARTCHAR c
ENCODING 99
SWIDTH 420 0
DWIDTH 7 0
BBX 6 8 0 0
BITMAP
1C
6C
40
80
80
80
CC
70
ENDCHAR
STARTCHAR d
ENCODING 100
SWIDTH 540 0
DWIDTH 9 0
BBX 8 13 0 0
BITMAP
07
01
01
03
02
1E
62
42
82
86
86
8C
77
ENDCHAR
STARTCHAR e
ENCODING 101
SWIDTH 420 0
DWIDTH 7 0
BBX 6 8 0 0
BITMAP
18
64
44
98
E0
80
C4
78
ENDCHAR
STARTCHAR f
ENCODING 102
SWIDTH 300 0
DWIDTH 5 0
BBX 9 17 -2 -4
BITMAP
0380
0580
0400
0400
0C00
1F00
0800
0800
0800
0800
1800
1800
1000
1000
1000
A000
C000
ENDCHAR
STARTCHAR g
ENCODING 103
SWIDTH 480 0
DWIDTH 8 0
BBX 8 12 0 -4
BITMAP
18
67
44
4C
30
20
30
5C
84
84
CC
70
ENDCHAR
STARTCHAR h
ENCODING 104
SWIDTH 540 0
DWIDTH 9 0
BBX 8 13 0 0
BITMAP
70
30
20
20
20
2E
32
62
46
44
44
44
C7
ENDCHAR
STARTCHAR i
ENCODING 105
SWIDTH 300 0
DWIDTH 5 0
BBX 4 13 1 0
BITMAP
30
30
00
00
00
E0
60
60
40
C0
C0
C0
F0
ENDCHAR
STARTCHAR j
ENCODING 106
SWIDTH 300 0
DWIDTH 5 0
BBX 7 17 -2 -4
BITMAP
06
06
00
00
00
1C
04
04
0C
0C
08
08
08
18
10
10
E0
ENDCHAR
STARTCHAR k
ENCODING 107
SWIDTH 540 0
DWIDTH 9 0
BBX 8 13 0 0
BITMAP
70
10
30
30
20
23
25
68
78
68
4C
44
C7
ENDCHAR
STARTCHAR l
ENCODING 108
SWIDTH 300 0
DWIDTH 5 0
BBX 4 13 0 0
BITMAP
F0
30
20
20
20
60
60
40
40
C0
C0
C0
F0
ENDCHAR
STARTCHAR m
ENCODING 109
SWIDTH 840 0
DWIDTH 14 0
BBX 13 8 1 0
BITMAP
EE70
73B0
6230
4230
4220
4620
C620
C438
ENDCHAR
STARTCHAR n
ENCODING 110
SWIDTH 540 0
DWIDTH 9 0
BBX 8 8 1 0
BITMAP
EE
72
42
46
44
44
C4
87
ENDCHAR
STARTCHAR o
ENCODING 111
SWIDTH 480 0
DWIDTH 8 0
BBX 7 8 0 0
BITMAP
1C
66
C2
82
82
84
CC
70
ENDCHAR
STARTCHAR p
ENCODING 112
SWIDTH 540 0
DWIDTH 9 0
BBX 9 12 -1 -4
BITMAP
3780
1880
1080
3080
2080
2100
2300
3C00
2000
6000
4000
F000
ENDCHAR
STARTCHAR q
ENCODING 113
SWIDTH 480 0
DWIDTH 8 0
BBX 7 12 0 -4
BITMAP
1E
62
42
82
84
84
8C
74
04
0C
0C
1E
ENDCHAR
STARTCHAR r
ENCODING 114
SWIDTH 420 0
DWIDTH 7 0
BBX 7 8 0 0
BITMAP
EE
36
60
60
40
40
C0
C0
ENDCHAR
STARTCHAR s
ENCODING 115
SWIDTH 360 0
DWIDTH 6 0
BBX 5 8 0 0
BITMAP
38
48
40
60
10
98
90
60
ENDCHAR
STARTCHAR t
ENCODING 116
SWIDTH 360 0
DWIDTH 6 0
BBX 5 10 1 0
BITMAP
20
60
F8
40
40
40
C0
80
C0
F0
ENDCHAR
STARTCHAR u
ENCODING 117
SWIDTH 540 0
DWIDTH 9 0
BBX 7 8 1 0
BITMAP
C2
46
44
44
C4
84
9C
E6
ENDCHAR
STARTCHAR v
ENCODING 118
SWIDTH 480 0
DWIDTH 8 0
BBX 8 8 0 0
BITMAP
E3
23
22
22
34
38
30
30
ENDCHAR
STARTCHAR w
ENCODING 119
SWIDTH 720 0
DWIDTH 12 0
BBX 12 8 0 0
BITMAP
E230
6230
6630
6620
2B40
3340
3380
2300
ENDCHAR
STARTCHAR x
ENCODING 120
SWIDTH 480 0
DWIDTH 8 0
BBX 9 8 -1 0
BITMAP
7180
1280
1C00
0800
0800
1C00
A400
C700
ENDCHAR
STARTCHAR y
ENCODING 121
SWIDTH 480 0
DWIDTH 8 0
BBX 10 12 -2 -4
BITMAP
30C0
1880
0900
0900
0900
0A00
0E00
0400
0800
0800
9000
E000
ENDCHAR
STARTCHAR z
ENCODING 122
SWIDTH 480 0
DWIDTH 8 0
BBX 8 8 0 0
BITMAP
3D
42
64
08
10
22
52
FC
ENDCHAR
STARTCHAR braceleft
ENCODING 123
SWIDTH 480 0
DWIDTH 8 0
BBX 6 14 1 -2
BITMAP
0C
10
10
10
10
30
C0
30
10
10
10
10
10
0C
ENDCHAR
STARTCHAR bar
ENCODING 124
SWIDTH 480 0
DWIDTH 8 0
BBX 1 17 4 -4
BITMAP
80
80
80
80
80
80
80
80
80
80
80
80
80
80
80
80
80
ENDCHAR
STARTCHAR braceright
ENCODING 125
SWIDTH 480 0
DWIDTH 8 0
BBX 6 14 1 -2
BITMAP
C0
20
20
20
20
30
0C
30
20
20
20
20
20
C0
ENDCHAR
STARTCHAR asciitilde
ENCODING 126
SWIDTH 1020 0
DWIDTH 17 0
BBX 11 2 3 9
BITMAP
3C60
C780
ENDCHAR
STARTCHAR Aogonek
ENCODING 161
SWIDTH 600 0
DWIDTH 10 0
BBX 11 13 -1 -2
BITMAP
0100
0300
0580
0580
0880
0880
1F80
3080
20C0
40C0
E1E0
00C0
00E0
ENDCHAR
STARTCHAR breve
ENCODING 162
SWIDTH 420 0
DWIDTH 7 0
BBX 5 3 1 9
BITMAP
88
98
60
ENDCHAR
STARTCHAR Lslash
ENCODING 163
SWIDTH 540 0
DWIDTH 9 0
BBX 8 11 0 0
BITMAP
3C
18
10
10
34
38
30
60
21
61
FF
ENDCHAR
STARTCHAR currency
ENCODING 164
SWIDTH 600 0
DWIDTH 10 0
BBX 9 9 1 3
BITMAP
8080
5D00
2200
4100
4100
4100
2200
5D00
8080
ENDCHAR
STARTCHAR Lcaron
ENCODING 165
SWIDTH 540 0
DWIDTH 9 0
BBX 9 11 0 0
BITMAP
3D80
1980
1080
1100
3300
3000
2000
2000
2100
6100
FF00
ENDCHAR
STARTCHAR Sacute
ENCODING 166
SWIDTH 540 0
DWIDTH 9 0
BBX 9 15 0 0
BITMAP
0080
0100
0200
0000
0F00
1080
2080
2000
3000
1E00
0300
0100
4100
C200
7C00
ENDCHAR
STARTCHAR section
ENCODING 167
SWIDTH 480 0
DWIDTH 8 0
BBX 8 14 0 -2
BITMAP
0F
11
22
30
1C
26
42
42
64
38
0C
84
88
70
ENDCHAR
STARTCHAR dieresis
ENCODING 168
SWIDTH 480 0
DWIDTH 8 0
BBX 5 2 2 10
BITMAP
D8
D8
ENDCHAR
STARTCHAR Scaron
ENCODING 169
SWIDTH 540 0
DWIDTH 9 0
BBX 9 15 0 0
BITMAP
0900
0500
0600
0000
0F00
3100
2100
2000
3800
1C00
0600
0200
8200
8400
7800
ENDCHAR
STARTCHAR Scedilla
ENCODING 170
SWIDTH 540 0
DWIDTH 9 0
BBX 9 15 0 -4
BITMAP
0F00
1080
2080
2000
3000
1E00
0300
0100
4100
C200
7C00
1000
1800
0800
3000
ENDCHAR
STARTCHAR Tcaron
ENCODING 171
SWIDTH 540 0
DWIDTH 9 0
BBX 9 16 1 0
BITMAP
1200
0A00
0C00
0000
0000
FF80
8880
8880
1800
1800
1000
1000
1000
3000
3000
7800
ENDCHAR
STARTCHAR Zacute
ENCODING 172
SWIDTH 540 0
DWIDTH 9 0
BBX 10 15 0 0
BITMAP
0080
0100
0200
0000
3FC0
2080
2100
0300
0600
0C00
1800
3000
2100
4100
FF00
ENDCHAR
STARTCHAR hyphen
ENCODING 173
SWIDTH 300 0
DWIDTH 5 0
BBX 4 1 0 4
BITMAP
F0
ENDCHAR
STARTCHAR Zcaron
ENCODING 174
SWIDTH 540 0
DWIDTH 9 0
BBX 10 15 0 0
BITMAP
0900
0500
0600
0000
3FC0
2080
0100
0300
0600
0C00
1800
3000
2100
4100
FF00
ENDCHAR
STARTCHAR Zdotaccent
ENCODING 175
SWIDTH 540 0
DWIDTH 9 0
BBX 10 14 0 0
BITMAP
0600
0600
0000
3FC0
2080
2100
0300
0600
0C00
1800
3000
2100
4100
FF00
ENDCHAR
STARTCHAR degree
ENCODING 176
SWIDTH 300 0
DWIDTH 5 0
BBX 5 5 0 7
BITMAP
70
88
88
88
70
ENDCHAR
STARTCHAR aogonek
ENCODING 177
SWIDTH 540 0
DWIDTH 9 0
BBX 8 10 0 -2
BITMAP
1F
63
42
82
86
86
CC
77
02
03
ENDCHAR
STARTCHAR ogonek
ENCODING 178
SWIDTH 360 0
DWIDTH 6 0
BBX 2 4 2 -4
BITMAP
40
80
80
C0
ENDCHAR
STARTCHAR lslash
ENCODING 179
SWIDTH 300 0
DWIDTH 5 0
BBX 6 13 -1 0
BITMAP
78
18
10
10
10
34
38
30
60
E0
60
60
78
ENDCHAR
STARTCHAR acute
ENCODING 180
SWIDTH 480 0
DWIDTH 8 0
BBX 4 3 4 10
BITMAP
30
40
80
ENDCHAR
STARTCHAR lcaron
ENCODING 181
SWIDTH 240 0
DWIDTH 4 0
BBX 7 13 0 0
BITMAP
F6
36
22
24
2C
60
60
40
40
C0
C0
C0
F0
ENDCHAR
STARTCHAR sacute
ENCODING 182
SWIDTH 360 0
DWIDTH 6 0
BBX 5 12 0 0
BITMAP
00
08
10
00
38
48
40
60
10
98
90
60
ENDCHAR
STARTCHAR caron
ENCODING 183
SWIDTH 420 0
DWIDTH 7 0
BBX 5 3 1 9
BITMAP
90
50
60
ENDCHAR
STARTCHAR cedilla
ENCODING 184
SWIDTH 420 0
DWIDTH 7 0
BBX 3 4 2 -4
BITMAP
40
60
20
C0
ENDCHAR
STARTCHAR scaron
ENCODING 185
SWIDTH 360 0
DWIDTH 6 0
BBX 7 12 0 0
BITMAP
24
14
18
00
38
48
40
60
38
08
88
F0
ENDCHAR
STARTCHAR scedilla
ENCODING 186
SWIDTH 360 0
DWIDTH 6 0
BBX 5 12 0 -4
BITMAP
38
48
40
60
10
98
90
60
40
60
20
C0
ENDCHAR
STARTCHAR tcaron
ENCODING 187
SWIDTH 300 0
DWIDTH 5 0
BBX 6 11 1 0
BITMAP
0C
2C
64
F8
58
40
40
C0
80
C0
F0
ENDCHAR
STARTCHAR zacute
ENCODING 188
SWIDTH 480 0
DWIDTH 8 0
BBX 8 12 0 0
BITMAP
02
04
08
00
3D
42
64
08
10
22
52
FC
ENDCHAR
STARTCHAR hungarumlaut
ENCODING 189
SWIDTH 540 0
DWIDTH 9 0
BBX 7 3 1 9
BITMAP
24
58
50
ENDCHAR
STARTCHAR zcaron
ENCODING 190
SWIDTH 420 0
DWIDTH 7 0
BBX 7 12 0 0
BITMAP
24
14
18
00
32
4C
48
10
10
24
54
B8
ENDCHAR
STARTCHAR zdotaccent
ENCODING 191
SWIDTH 480 0
DWIDTH 8 0
BBX 8 11 0 0
BITMAP
0C
0C
00
3D
42
64
08
10
22
52
FC
ENDCHAR
STARTCHAR Racute
ENCODING 192
SWIDTH 600 0
DWIDTH 10 0
BBX 10 16 0 0
BITMAP
0180
0200
0400
0000
0000
3F00
1980
1080
1080
3100
3E00
3300
2100
2100
6180
F0C0
ENDCHAR
STARTCHAR Aacute
ENCODING 193
SWIDTH 600 0
DWIDTH 10 0
BBX 11 16 -1 0
BITMAP
00C0
0100
0200
0000
0000
0100
0300
0580
0580
0880
0880
1F80
3080
20C0
40C0
E1E0
ENDCHAR
STARTCHAR Acircumflex
ENCODING 194
SWIDTH 600 0
DWIDTH 10 0
BBX 11 16 -1 0
BITMAP
0300
0500
0880
0000
0000
0100
0300
0580
0580
0880
0880
1F80
3080
20C0
40C0
E1E0
ENDCHAR
STARTCHAR Abreve
ENCODING 195
SWIDTH 600 0
DWIDTH 10 0
BBX 11 16 -1 0
BITMAP
0220
0260
0180
0000
0000
0100
0300
0580
0580
0880
0880
1F80
3080
20C0
40C0
E1E0
ENDCHAR
STARTCHAR Adieresis
ENCODING 196
SWIDTH 600 0
DWIDTH 10 0
BBX 11 15 -1 0
BITMAP
0480
0480
0000
0000
0100
0300
0380
0580
0880
0880
1F80
1080
20C0
40C0
E1E0
ENDCHAR
STARTCHAR Lacute
ENCODING 197
SWIDTH 540 0
DWIDTH 9 0
BBX 8 16 0 0
BITMAP
03
04
08
00
00
3C
18
10
10
30
30
20
20
21
61
FF
ENDCHAR
STARTCHAR Cacute
ENCODING 198
SWIDTH 600 0
DWIDTH 10 0
BBX 9 15 1 0
BITMAP
0080
0100
0200
0000
0F00
3080
6080
4000
8000
8000
8000
8000
8100
4200
3C00
ENDCHAR
STARTCHAR Ccedilla
ENCODING 199
SWIDTH 600 0
DWIDTH 10 0
BBX 9 15 1 -4
BITMAP
0F00
3080
6080
4000
8000
8000
8000
8000
8100
4200
3C00
1000
1800
0800
3000
ENDCHAR
STARTCHAR Ccaron
ENCODING 200
SWIDTH 600 0
DWIDTH 10 0
BBX 9 16 1 0
BITMAP
0900
0500
0600
0000
0000
0F00
3080
6080
4000
8000
8000
8000
8000
8100
4200
3C00
ENDCHAR
STARTCHAR Eacute
ENCODING 201
SWIDTH 540 0
DWIDTH 9 0
BBX 10 16 0 0
BITMAP
0180
0200
0400
0000
0000
3FC0
1840
1040
1000
1100
3F00
3100
2000
2080
6080
FF80
ENDCHAR
STARTCHAR Eogonek
ENCODING 202
SWIDTH 540 0
DWIDTH 9 0
BBX 10 13 0 -2
BITMAP
3FC0
1840
1040
1000
1100
3F00
3100
2000
2080
6080
FF80
0300
0380
ENDCHAR
STARTCHAR Edieresis
ENCODING 203
SWIDTH 540 0
DWIDTH 9 0
BBX 10 15 -1 0
BITMAP
0480
0480
0000
0000
3FC0
18C0
1800
1100
3100
3F00
3200
3000
2080
6080
FF80
ENDCHAR
STARTCHAR Ecaron
ENCODING 204
SWIDTH 540 0
DWIDTH 9 0
BBX 10 16 0 0
BITMAP
0900
0500
0600
0000
0000
3FC0
1840
1040
1000
1100
3F00
3100
2000
2080
6080
FF80
ENDCHAR
STARTCHAR Iacute
ENCODING 205
SWIDTH 300 0
DWIDTH 5 0
BBX 7 16 0 0
BITMAP
06
08
10
00
00
3C
18
10
10
30
30
30
20
20
60
F0
ENDCHAR
STARTCHAR Icircumflex
ENCODING 206
SWIDTH 300 0
DWIDTH 5 0
BBX 6 16 0 0
BITMAP
18
28
44
00
00
3C
18
10
10
30
30
30
20
20
60
F0
ENDCHAR
STARTCHAR Dcaron
ENCODING 207
SWIDTH 660 0
DWIDTH 11 0
BBX 11 16 -1 0
BITMAP
0480
0280
0300
0000
0000
3F80
18C0
1820
1020
1020
3020
3020
3040
20C0
2380
FE00
ENDCHAR
STARTCHAR Eth
ENCODING 208
SWIDTH 720 0
DWIDTH 12 0
BBX 11 11 0 0
BITMAP
3F80
18C0
1820
1020
1020
7E20
3020
3060
20C0
2180
FE00
ENDCHAR
STARTCHAR Nacute
ENCODING 209
SWIDTH 660 0
DWIDTH 11 0
BBX 12 15 0 0
BITMAP
0040
0080
0100
0000
3870
1820
1820
1C40
2440
2640
2240
2340
4180
4180
E080
ENDCHAR
STARTCHAR Ncaron
ENCODING 210
SWIDTH 660 0
DWIDTH 11 0
BBX 12 16 0 0
BITMAP
0240
0140
0180
0000
0000
3870
1820
1820
1C40
2440
2640
2240
2340
4180
4180
E080
ENDCHAR
STARTCHAR Oacute
ENCODING 211
SWIDTH 720 0
DWIDTH 12 0
BBX 10 15 1 0
BITMAP
0080
0100
0200
0000
0F00
3080
6040
4040
C040
8040
8040
80C0
8180
4300
3C00
ENDCHAR
STARTCHAR Ocircumflex
ENCODING 212
SWIDTH 720 0
DWIDTH 12 0
BBX 10 16 1 0
BITMAP
0600
0A00
1100
0000
0000
0F00
3080
6040
4040
C040
8040
8040
80C0
8180
4300
3C00
ENDCHAR
STARTCHAR Ohungarumlaut
ENCODING 213
SWIDTH 720 0
DWIDTH 12 0
BBX 11 16 1 0
BITMAP
0240
0580
0500
0000
0000
0F00
3080
6040
4040
C040
8040
8040
80C0
8180
4300
3C00
ENDCHAR
STARTCHAR Odieresis
ENCODING 214
SWIDTH 720 0
DWIDTH 12 0
BBX 10 15 1 0
BITMAP
0900
0900
0000
0000
1F00
2080
4040
4040
8040
8040
80C0
8080
8180
4300
3C00
ENDCHAR
STARTCHAR multiply
ENCODING 215
SWIDTH 840 0
DWIDTH 14 0
BBX 9 9 3 1
BITMAP
8080
4100
2200
1400
0800
1400
2200
4100
8080
ENDCHAR
STARTCHAR Rcaron
ENCODING 216
SWIDTH 600 0
DWIDTH 10 0
BBX 10 16 0 0
BITMAP
0900
0500
0600
0000
0000
3F00
1980
1080
1080
3100
3E00
3300
2100
2100
6180
F0C0
ENDCHAR
STARTCHAR Uring
ENCODING 217
SWIDTH 660 0
DWIDTH 11 0
BBX 11 16 1 0
BITMAP
0600
0900
0900
0600
0000
F1E0
4040
4080
4080
C080
C080
8100
8100
8100
C200
7C00
ENDCHAR
STARTCHAR Uacute
ENCODING 218
SWIDTH 660 0
DWIDTH 11 0
BBX 11 16 1 0
BITMAP
0300
0400
0800
0000
0000
F1E0
4040
4080
4080
C080
C080
8100
8100
8100
C200
7C00
ENDCHAR
STARTCHAR Uhungarumlaut
ENCODING 219
SWIDTH 660 0
DWIDTH 11 0
BBX 11 16 1 0
BITMAP
0480
0B00
0A00
0000
0000
F1E0
4040
4080
4080
C080
C080
8100
8100
8100
C200
7C00
ENDCHAR
STARTCHAR Udieresis
ENCODING 220
SWIDTH 660 0
DWIDTH 11 0
BBX 10 15 1 0
BITMAP
0900
0900
0000
0000
F1C0
4080
4080
4080
4080
8100
8100
8100
8100
C600
7800
ENDCHAR
STARTCHAR Yacute
ENCODING 221
SWIDTH 600 0
DWIDTH 10 0
BBX 10 16 1 0
BITMAP
0300
0400
0800
0000
0000
F3C0
6180
2100
2200
3400
1800
1000
1000
1000
3000
7800
ENDCHAR
STARTCHAR Tcedilla
ENCODING 222
SWIDTH 540 0
DWIDTH 9 0
BBX 9 15 1 -4
BITMAP
FF80
8880
8880
1800
1800
1000
1000
1000
3000
3000
7800
2000
3000
1000
6000
ENDCHAR
STARTCHAR germandbls
ENCODING 223
SWIDTH 600 0
DWIDTH 10 0
BBX 11 17 -2 -4
BITMAP
01C0
0220
0420
0420
0C60
0880
0900
0980
08C0
0860
1A20
1A40
1180
1000
1000
A000
C000
ENDCHAR
STARTCHAR racute
ENCODING 224
SWIDTH 420 0
DWIDTH 7 0
BBX 8 13 0 0
BITMAP
03
04
08
00
00
EE
36
60
60
40
40
C0
C0
ENDCHAR
STARTCHAR aacute
ENCODING 225
SWIDTH 540 0
DWIDTH 9 0
BBX 8 13 0 0
BITMAP
03
04
08
00
00
1F
63
42
82
86
86
CC
77
ENDCHAR
STARTCHAR acircumflex
ENCODING 226
SWIDTH 540 0
DWIDTH 9 0
BBX 8 13 0 0
BITMAP
0C
14
22
00
00
1F
63
42
82
86
86
CC
77
ENDCHAR
STARTCHAR abreve
ENCODING 227
SWIDTH 540 0
DWIDTH 9 0
BBX 9 13 0 0
BITMAP
0880
0980
0600
0000
0000
1F00
6300
4200
8200
8600
8600
CC00
7700
ENDCHAR
STARTCHAR adieresis
ENCODING 228
SWIDTH 540 0
DWIDTH 9 0
BBX 8 12 0 0
BITMAP
12
12
00
00
1F
62
42
82
86
84
CC
77
ENDCHAR
STARTCHAR lacute
ENCODING 229
SWIDTH 300 0
DWIDTH 5 0
BBX 6 16 0 0
BITMAP
0C
10
20
F0
30
20
20
20
60
60
40
40
C0
C0
C0
F0
ENDCHAR
STARTCHAR cacute
ENCODING 230
SWIDTH 420 0
DWIDTH 7 0
BBX 6 12 0 0
BITMAP
00
04
08
00
1C
6C
40
80
80
80
CC
70
ENDCHAR
STARTCHAR ccedilla
ENCODING 231
SWIDTH 420 0
DWIDTH 7 0
BBX 6 12 0 -4
BITMAP
1C
6C
40
80
80
80
CC
70
40
60
20
C0
ENDCHAR
STARTCHAR ccaron
ENCODING 232
SWIDTH 420 0
DWIDTH 7 0
BBX 8 13 0 0
BITMAP
12
0A
0C
00
00
1C
6C
40
80
80
80
CC
70
ENDCHAR
STARTCHAR eacute
ENCODING 233
SWIDTH 420 0
DWIDTH 7 0
BBX 8 13 0 0
BITMAP
03
04
08
00
00
18
64
44
98
E0
80
C4
78
ENDCHAR
STARTCHAR eogonek
ENCODING 234
SWIDTH 420 0
DWIDTH 7 0
BBX 6 10 0 -2
BITMAP
18
64
44
98
E0
80
C4
78
10
18
ENDCHAR
STARTCHAR edieresis
ENCODING 235
SWIDTH 420 0
DWIDTH 7 0
BBX 6 12 1 0
BITMAP
24
24
00
00
38
48
88
90
E0
80
88
70
ENDCHAR
STARTCHAR ecaron
ENCODING 236
SWIDTH 420 0
DWIDTH 7 0
BBX 8 13 0 0
BITMAP
12
0A
0C
00
00
18
64
44
98
E0
80
C4
78
ENDCHAR
STARTCHAR iacute
ENCODING 237
SWIDTH 300 0
DWIDTH 5 0
BBX 5 13 1 0
BITMAP
18
20
40
00
00
E0
60
40
40
C0
C0
C0
F0
ENDCHAR
STARTCHAR icircumflex
ENCODING 238
SWIDTH 300 0
DWIDTH 5 0
BBX 5 13 0 0
BITMAP
30
50
88
00
00
70
30
20
20
60
60
60
78
ENDCHAR
STARTCHAR dcaron
ENCODING 239
SWIDTH 480 0
DWIDTH 8 0
BBX 11 13 0 0
BITMAP
0760
0160
0120
0340
02C0
1E00
6200
4200
8200
8600
8600
8C00
7700
ENDCHAR
STARTCHAR dmacron
ENCODING 240
SWIDTH 540 0
DWIDTH 9 0
BBX 10 13 0 0
BITMAP
0700
0100
1FC0
0300
0200
1E00
6200
4200
8200
8600
8600
8C00
7700
ENDCHAR
STARTCHAR nacute
ENCODING 241
SWIDTH 540 0
DWIDTH 9 0
BBX 8 12 1 0
BITMAP
02
04
08
00
EE
72
42
46
44
44
C4
87
ENDCHAR
STARTCHAR ncaron
ENCODING 242
SWIDTH 540 0
DWIDTH 9 0
BBX 8 13 1 0
BITMAP
12
0A
0C
00
00
EE
72
42
46
44
44
C4
87
ENDCHAR
STARTCHAR oacute
ENCODING 243
SWIDTH 480 0
DWIDTH 8 0
BBX 7 12 0 0
BITMAP
02
04
08
00
1C
66
C2
82
82
84
CC
70
ENDCHAR
STARTCHAR ocircumflex
ENCODING 244
SWIDTH 480 0
DWIDTH 8 0
BBX 7 13 0 0
BITMAP
0C
14
22
00
00
1C
66
C2
82
82
84
CC
70
ENDCHAR
STARTCHAR ohungarumlaut
ENCODING 245
SWIDTH 480 0
DWIDTH 8 0
BBX 10 13 0 0
BITMAP
0480
0B00
0A00
0000
0000
1C00
6600
C200
8200
8200
8400
CC00
7000
ENDCHAR
STARTCHAR odieresis
ENCODING 246
SWIDTH 480 0
DWIDTH 8 0
BBX 6 12 1 0
BITMAP
24
24
00
00
38
44
44
84
84
88
88
70
ENDCHAR
STARTCHAR divide
ENCODING 247
SWIDTH 840 0
DWIDTH 14 0
BBX 10 9 2 1
BITMAP
0C00
0C00
0000
0000
FFC0
0000
0000
0C00
0C00
ENDCHAR
STARTCHAR rcaron
ENCODING 248
SWIDTH 420 0
DWIDTH 7 0
BBX 8 13 0 0
BITMAP
12
0A
0C
00
00
EE
36
60
60
40
40
C0
C0
ENDCHAR
STARTCHAR uring
ENCODING 249
SWIDTH 540 0
DWIDTH 9 0
BBX 7 13 1 0
BITMAP
18
24
24
18
00
C2
46
44
44
C4
84
9C
E6
ENDCHAR
STARTCHAR uacute
ENCODING 250
SWIDTH 540 0
DWIDTH 9 0
BBX 7 13 1 0
BITMAP
06
08
10
00
00
C2
46
44
44
C4
84
9C
E6
ENDCHAR
STARTCHAR uhungarumlaut
ENCODING 251
SWIDTH 540 0
DWIDTH 9 0
BBX 9 13 1 0
BITMAP
0900
1600
1400
0000
0000
C200
4600
4400
4400
C400
8400
9C00
E600
ENDCHAR
STARTCHAR udieresis
ENCODING 252
SWIDTH 540 0
DWIDTH 9 0
BBX 8 12 0 0
BITMAP
12
12
00
00
E1
23
23
22
42
42
4E
73
ENDCHAR
STARTCHAR yacute
ENCODING 253
SWIDTH 480 0
DWIDTH 8 0
BBX 10 17 -2 -4
BITMAP
00C0
0100
0200
0000
0000
30C0
1880
0900
0900
0900
0A00
0E00
0400
0800
0800
9000
E000
ENDCHAR
STARTCHAR tcedilla
ENCODING 254
SWIDTH 360 0
DWIDTH 6 0
BBX 5 14 1 -4
BITMAP
20
60
F8
40
40
40
C0
80
C0
F0
40
60
20
C0
ENDCHAR
STARTCHAR dotaccent
ENCODING 255
SWIDTH 300 0
DWIDTH 5 0
BBX 1 2 2 10
BITMAP
80
80
ENDCHAR
ENDFONT
