STARTFONT 2.1
COMMENT +
COMMENT  Copyright 1984-1989, 1994 Adobe Systems Incorporated.
COMMENT  Copyright 1988, 1994 Digital Equipment Corporation.
COMMENT  Copyright 1996 BIZNET Poland, Inc.
COMMENT
COMMENT  Permission to use, copy, modify, distribute and sell this software
COMMENT  and its documentation for any purpose and without fee is hereby
COMMENT  granted, provided that the above copyright notices appear in all
COMMENT  copies and that both those copyright notices and this permission
COMMENT  notice appear in supporting documentation, and that the names of
COMMENT  Adobe Systems and Digital Equipment Corporation not be used in
COMMENT  advertising or publicity pertaining to distribution of the software
COMMENT  without specific, written prior permission.  Adobe Systems and
COMMENT  Digital Equipment Corporation make no representations about the
COMMENT  suitability of this software for any purpose.  It is provided "as
COMMENT  is" without express or implied warranty.
COMMENT -
FONT -BIZNET-Courier-Bold-O-Normal--14-100-100-100-M-90-ISO8859-2
SIZE 10 100 100
FONTBOUNDINGBOX 11 13 -1 -4
STARTPROPERTIES 25
FOUNDRY "BIZNET"
FAMILY_NAME "Courier"
WEIGHT_NAME "Bold"
SLANT "O"
SETWIDTH_NAME "Normal"
ADD_STYLE_NAME ""
PIXEL_SIZE 14
POINT_SIZE 100
RESOLUTION_X 100
RESOLUTION_Y 100
SPACING "M"
AVERAGE_WIDTH 90
CHARSET_REGISTRY "ISO8859"
CHARSET_ENCODING "2"
CAP_HEIGHT 9
X_HEIGHT 7
FONT_ASCENT 11
FONT_DESCENT 4
FACE_NAME "Courier Bold Oblique"
DEFAULT_CHAR 32
RELATIVE_SETWIDTH 50
RELATIVE_WEIGHT 70
CHARSET_COLLECTIONS "ASCII ISO8859-2"
COPYRIGHT "Copyright (c) 1984, 1987 Adobe Systems Incorporated. All Rights Reserved. Copyright (c) 1988, 1991 Digital Equipment Corporation. All Rights Reserved. Copyright (c) 1996 BIZNET Poland, Inc. All Rights Reserved."
NOTICE "The name "BIZNET" is a registered trademark of BIZNET Poland, Inc."
ENDPROPERTIES
CHARS 190
STARTCHAR space
ENCODING 32
SWIDTH 600 0
DWIDTH 9 0
BBX 1 1 0 0
BITMAP
00
ENDCHAR
STARTCHAR exclam
ENCODING 33
SWIDTH 600 0
DWIDTH 9 0
BBX 5 10 3 0
BITMAP
18
18
30
30
60
60
40
00
C0
C0
ENDCHAR
STARTCHAR quotedbl
ENCODING 34
SWIDTH 600 0
DWIDTH 9 0
BBX 6 4 3 5
BITMAP
6C
6C
D8
90
ENDCHAR
STARTCHAR numbersign
ENCODING 35
SWIDTH 600 0
DWIDTH 9 0
BBX 7 12 2 -1
BITMAP
0A
0A
14
14
7E
28
28
FC
50
D0
B0
A0
ENDCHAR
STARTCHAR dollar
ENCODING 36
SWIDTH 600 0
DWIDTH 9 0
BBX 9 12 1 -1
BITMAP
0600
0600
1E80
3300
3300
1800
0C00
C600
C600
BC00
3000
3000
ENDCHAR
STARTCHAR percent
ENCODING 37
SWIDTH 600 0
DWIDTH 9 0
BBX 6 10 2 0
BITMAP
60
90
90
64
18
60
98
24
24
18
ENDCHAR
STARTCHAR ampersand
ENCODING 38
SWIDTH 600 0
DWIDTH 9 0
BBX 8 8 1 0
BITMAP
1E
30
30
18
7B
CC
CC
73
ENDCHAR
STARTCHAR quoteright
ENCODING 39
SWIDTH 600 0
DWIDTH 9 0
BBX 3 4 5 5
BITMAP
60
60
C0
80
ENDCHAR
STARTCHAR parenleft
ENCODING 40
SWIDTH 600 0
DWIDTH 9 0
BBX 6 11 3 -2
BITMAP
0C
18
30
60
60
C0
C0
C0
C0
C0
60
ENDCHAR
STARTCHAR parenright
ENCODING 41
SWIDTH 600 0
DWIDTH 9 0
BBX 6 11 1 -2
BITMAP
18
0C
0C
0C
0C
0C
18
18
30
60
C0
ENDCHAR
STARTCHAR asterisk
ENCODING 42
SWIDTH 600 0
DWIDTH 9 0
BBX 6 5 3 5
BITMAP
10
54
7C
30
D8
ENDCHAR
STARTCHAR plus
ENCODING 43
SWIDTH 600 0
DWIDTH 9 0
BBX 7 7 2 1
BITMAP
08
08
10
FE
10
20
20
ENDCHAR
STARTCHAR comma
ENCODING 44
SWIDTH 600 0
DWIDTH 9 0
BBX 3 4 2 -2
BITMAP
60
60
C0
80
ENDCHAR
STARTCHAR minus
ENCODING 45
SWIDTH 600 0
DWIDTH 9 0
BBX 7 1 2 4
BITMAP
FE
ENDCHAR
STARTCHAR period
ENCODING 46
SWIDTH 600 0
DWIDTH 9 0
BBX 2 2 3 0
BITMAP
C0
C0
ENDCHAR
STARTCHAR slash
ENCODING 47
SWIDTH 600 0
DWIDTH 9 0
BBX 11 12 -1 -2
BITMAP
0060
00C0
0180
0300
0300
0600
0C00
1800
1800
3000
6000
C000
ENDCHAR
STARTCHAR zero
ENCODING 48
SWIDTH 600 0
DWIDTH 9 0
BBX 7 10 2 0
BITMAP
1C
3E
66
46
C6
C6
C4
CC
F8
70
ENDCHAR
STARTCHAR one
ENCODING 49
SWIDTH 600 0
DWIDTH 9 0
BBX 6 10 2 0
BITMAP
0C
3C
0C
0C
18
18
18
30
30
FC
ENDCHAR
STARTCHAR two
ENCODING 50
SWIDTH 600 0
DWIDTH 9 0
BBX 8 10 1 0
BITMAP
1E
33
33
07
0E
1C
38
70
E0
FE
ENDCHAR
STARTCHAR three
ENCODING 51
SWIDTH 600 0
DWIDTH 9 0
BBX 8 10 1 0
BITMAP
1E
33
03
06
1C
06
06
06
CC
78
ENDCHAR
STARTCHAR four
ENCODING 52
SWIDTH 600 0
DWIDTH 9 0
BBX 8 10 1 0
BITMAP
03
07
0F
1B
32
66
C6
FF
0C
1E
ENDCHAR
STARTCHAR five
ENCODING 53
SWIDTH 600 0
DWIDTH 9 0
BBX 8 10 2 0
BITMAP
3F
30
30
7C
66
06
06
06
CC
78
ENDCHAR
STARTCHAR six
ENCODING 54
SWIDTH 600 0
DWIDTH 9 0
BBX 8 10 2 0
BITMAP
0F
18
30
7C
66
C6
C6
C6
CC
78
ENDCHAR
STARTCHAR seven
ENCODING 55
SWIDTH 600 0
DWIDTH 9 0
BBX 6 10 3 0
BITMAP
FC
8C
0C
18
18
30
30
60
C0
C0
ENDCHAR
STARTCHAR eight
ENCODING 56
SWIDTH 600 0
DWIDTH 9 0
BBX 8 10 2 0
BITMAP
1E
33
63
66
3C
66
C6
C6
CC
78
ENDCHAR
STARTCHAR nine
ENCODING 57
SWIDTH 600 0
DWIDTH 9 0
BBX 8 10 1 0
BITMAP
1E
33
63
63
63
66
3E
0C
18
F0
ENDCHAR
STARTCHAR colon
ENCODING 58
SWIDTH 600 0
DWIDTH 9 0
BBX 3 7 3 0
BITMAP
60
60
00
00
00
C0
C0
ENDCHAR
STARTCHAR semicolon
ENCODING 59
SWIDTH 600 0
DWIDTH 9 0
BBX 4 9 2 -2
BITMAP
30
30
00
00
00
60
60
C0
80
ENDCHAR
STARTCHAR less
ENCODING 60
SWIDTH 600 0
DWIDTH 9 0
BBX 8 7 1 1
BITMAP
07
1C
70
C0
70
1C
06
ENDCHAR
STARTCHAR equal
ENCODING 61
SWIDTH 600 0
DWIDTH 9 0
BBX 8 4 1 2
BITMAP
7F
00
00
FE
ENDCHAR
STARTCHAR greater
ENCODING 62
SWIDTH 600 0
DWIDTH 9 0
BBX 8 7 2 1
BITMAP
60
38
0E
03
0E
38
E0
ENDCHAR
STARTCHAR question
ENCODING 63
SWIDTH 600 0
DWIDTH 9 0
BBX 6 9 3 0
BITMAP
78
CC
8C
18
30
60
00
C0
C0
ENDCHAR
STARTCHAR at
ENCODING 64
SWIDTH 600 0
DWIDTH 9 0
BBX 8 9 1 0
BITMAP
0E
11
27
4A
52
94
9E
C0
78
ENDCHAR
STARTCHAR A
ENCODING 65
SWIDTH 600 0
DWIDTH 9 0
BBX 9 9 0 0
BITMAP
0F00
0700
0F00
1B00
1B00
3300
7F00
6300
F780
ENDCHAR
STARTCHAR B
ENCODING 66
SWIDTH 600 0
DWIDTH 9 0
BBX 10 9 0 0
BITMAP
3F80
18C0
18C0
3180
3F00
3180
6180
6300
FE00
ENDCHAR
STARTCHAR C
ENCODING 67
SWIDTH 600 0
DWIDTH 9 0
BBX 8 9 1 0
BITMAP
1D
37
63
60
C0
C0
C0
C6
7C
ENDCHAR
STARTCHAR D
ENCODING 68
SWIDTH 600 0
DWIDTH 9 0
BBX 10 9 0 0
BITMAP
3F80
18C0
18C0
30C0
30C0
3180
6180
6700
FE00
ENDCHAR
STARTCHAR E
ENCODING 69
SWIDTH 600 0
DWIDTH 9 0
BBX 9 9 0 0
BITMAP
3F80
1980
1180
3400
3C00
3400
6300
6300
FF00
ENDCHAR
STARTCHAR F
ENCODING 70
SWIDTH 600 0
DWIDTH 9 0
BBX 10 9 0 0
BITMAP
3FC0
18C0
10C0
3400
3C00
3400
6000
6000
F800
ENDCHAR
STARTCHAR G
ENCODING 71
SWIDTH 600 0
DWIDTH 9 0
BBX 9 9 1 0
BITMAP
1E80
3380
6180
6000
C000
CF80
C600
CC00
7C00
ENDCHAR
STARTCHAR H
ENCODING 72
SWIDTH 600 0
DWIDTH 9 0
BBX 11 9 0 0
BITMAP
3DE0
18C0
18C0
3180
3F80
3180
6300
6300
F780
ENDCHAR
STARTCHAR I
ENCODING 73
SWIDTH 600 0
DWIDTH 9 0
BBX 8 9 1 0
BITMAP
3F
0C
0C
18
18
18
30
30
FC
ENDCHAR
STARTCHAR J
ENCODING 74
SWIDTH 600 0
DWIDTH 9 0
BBX 11 9 0 0
BITMAP
07E0
0180
0180
0300
0300
6300
C600
C600
7C00
ENDCHAR
STARTCHAR K
ENCODING 75
SWIDTH 600 0
DWIDTH 9 0
BBX 10 9 0 0
BITMAP
3DC0
1980
1B00
3600
3C00
3600
6600
6300
F380
ENDCHAR
STARTCHAR L
ENCODING 76
SWIDTH 600 0
DWIDTH 9 0
BBX 9 9 0 0
BITMAP
3E00
1800
1800
3000
3000
3180
6180
6300
FF00
ENDCHAR
STARTCHAR M
ENCODING 77
SWIDTH 600 0
DWIDTH 9 0
BBX 11 9 0 0
BITMAP
38E0
18C0
19C0
3B80
3580
3580
6300
6300
F780
ENDCHAR
STARTCHAR N
ENCODING 78
SWIDTH 600 0
DWIDTH 9 0
BBX 11 9 0 0
BITMAP
39E0
18C0
18C0
3580
3580
3580
6300
6300
F300
ENDCHAR
STARTCHAR O
ENCODING 79
SWIDTH 600 0
DWIDTH 9 0
BBX 9 9 1 0
BITMAP
0F00
3180
6180
6180
C180
C300
C300
C600
7800
ENDCHAR
STARTCHAR P
ENCODING 80
SWIDTH 600 0
DWIDTH 9 0
BBX 10 9 0 0
BITMAP
3F80
18C0
18C0
30C0
3180
3F00
6000
6000
F800
ENDCHAR
STARTCHAR Q
ENCODING 81
SWIDTH 600 0
DWIDTH 9 0
BBX 10 11 0 -2
BITMAP
0780
18C0
30C0
30C0
60C0
6180
6180
6300
3C00
7300
DE00
ENDCHAR
STARTCHAR R
ENCODING 82
SWIDTH 600 0
DWIDTH 9 0
BBX 10 9 0 0
BITMAP
3F80
18C0
18C0
30C0
3180
3F00
6600
6300
FB80
ENDCHAR
STARTCHAR S
ENCODING 83
SWIDTH 600 0
DWIDTH 9 0
BBX 9 9 1 0
BITMAP
1E80
3380
6180
7000
3C00
0E00
C600
E600
BC00
ENDCHAR
STARTCHAR T
ENCODING 84
SWIDTH 600 0
DWIDTH 9 0
BBX 9 9 2 0
BITMAP
FF80
DB00
DB00
3000
3000
3000
6000
6000
F000
ENDCHAR
STARTCHAR U
ENCODING 85
SWIDTH 600 0
DWIDTH 9 0
BBX 10 9 1 0
BITMAP
7BC0
3180
3180
6300
6300
6300
C600
C600
7C00
ENDCHAR
STARTCHAR V
ENCODING 86
SWIDTH 600 0
DWIDTH 9 0
BBX 9 9 2 0
BITMAP
F780
6300
6600
6600
6C00
6C00
3800
3000
3000
ENDCHAR
STARTCHAR W
ENCODING 87
SWIDTH 600 0
DWIDTH 9 0
BBX 10 9 1 0
BITMAP
7BC0
3180
3580
6B00
6B00
7700
E600
C600
C600
ENDCHAR
STARTCHAR X
ENCODING 88
SWIDTH 600 0
DWIDTH 9 0
BBX 10 9 0 0
BITMAP
39C0
1980
1B00
0E00
0C00
1C00
3600
6600
E700
ENDCHAR
STARTCHAR Y
ENCODING 89
SWIDTH 600 0
DWIDTH 9 0
BBX 10 9 1 0
BITMAP
F3C0
6180
6300
3600
3C00
1800
3000
3000
FC00
ENDCHAR
STARTCHAR Z
ENCODING 90
SWIDTH 600 0
DWIDTH 9 0
BBX 9 9 0 0
BITMAP
3F80
3180
3300
0600
0C00
1800
3300
6300
FF00
ENDCHAR
STARTCHAR bracketleft
ENCODING 91
SWIDTH 600 0
DWIDTH 9 0
BBX 7 11 2 -2
BITMAP
1E
18
18
30
30
30
60
60
60
C0
F0
ENDCHAR
STARTCHAR backslash
ENCODING 92
SWIDTH 600 0
DWIDTH 9 0
BBX 5 12 4 -2
BITMAP
C0
C0
C0
60
60
60
30
30
30
18
18
18
ENDCHAR
STARTCHAR bracketright
ENCODING 93
SWIDTH 600 0
DWIDTH 9 0
BBX 7 11 1 -2
BITMAP
1E
06
06
0C
0C
0C
18
18
18
30
F0
ENDCHAR
STARTCHAR asciicircum
ENCODING 94
SWIDTH 600 0
DWIDTH 9 0
BBX 5 4 3 5
BITMAP
18
38
68
C8
ENDCHAR
STARTCHAR underscore
ENCODING 95
SWIDTH 600 0
DWIDTH 9 0
BBX 9 1 0 -3
BITMAP
FF80
ENDCHAR
STARTCHAR quoteleft
ENCODING 96
SWIDTH 600 0
DWIDTH 9 0
BBX 3 4 5 5
BITMAP
C0
C0
60
20
ENDCHAR
STARTCHAR a
ENCODING 97
SWIDTH 600 0
DWIDTH 9 0
BBX 8 7 0 0
BITMAP
3E
03
03
7F
C6
CE
77
ENDCHAR
STARTCHAR b
ENCODING 98
SWIDTH 600 0
DWIDTH 9 0
BBX 9 10 0 0
BITMAP
3800
1800
1800
1F00
3980
3180
3180
6300
7300
EE00
ENDCHAR
STARTCHAR c
ENCODING 99
SWIDTH 600 0
DWIDTH 9 0
BBX 9 7 1 0
BITMAP
1E80
7300
6300
C000
C000
C600
7C00
ENDCHAR
STARTCHAR d
ENCODING 100
SWIDTH 600 0
DWIDTH 9 0
BBX 9 10 1 0
BITMAP
0380
0180
0180
1D80
7700
6300
C300
C600
CE00
7700
ENDCHAR
STARTCHAR e
ENCODING 101
SWIDTH 600 0
DWIDTH 9 0
BBX 8 7 1 0
BITMAP
1E
73
63
FF
C0
C6
7C
ENDCHAR
STARTCHAR f
ENCODING 102
SWIDTH 600 0
DWIDTH 9 0
BBX 9 10 1 0
BITMAP
0780
0E00
0C00
7F00
1800
1800
1800
3000
3000
FC00
ENDCHAR
STARTCHAR g
ENCODING 103
SWIDTH 600 0
DWIDTH 9 0
BBX 10 10 1 -3
BITMAP
1DC0
7700
6300
C300
C600
CE00
7600
0C00
0C00
7800
ENDCHAR
STARTCHAR h
ENCODING 104
SWIDTH 600 0
DWIDTH 9 0
BBX 9 10 0 0
BITMAP
3800
1800
1800
1F00
3980
3180
3180
6300
6300
F780
ENDCHAR
STARTCHAR i
ENCODING 105
SWIDTH 600 0
DWIDTH 9 0
BBX 6 10 1 0
BITMAP
0C
0C
00
7C
18
18
18
30
30
FC
ENDCHAR
STARTCHAR j
ENCODING 106
SWIDTH 600 0
DWIDTH 9 0
BBX 8 13 0 -3
BITMAP
03
03
00
1F
06
06
06
0C
0C
0C
18
18
F0
ENDCHAR
STARTCHAR k
ENCODING 107
SWIDTH 600 0
DWIDTH 9 0
BBX 9 10 0 0
BITMAP
3800
1800
1800
3380
3600
3C00
3800
6C00
6600
E700
ENDCHAR
STARTCHAR l
ENCODING 108
SWIDTH 600 0
DWIDTH 9 0
BBX 6 10 1 0
BITMAP
3C
0C
0C
18
18
18
18
30
30
FC
ENDCHAR
STARTCHAR m
ENCODING 109
SWIDTH 600 0
DWIDTH 9 0
BBX 10 7 0 0
BITMAP
76C0
3FC0
36C0
36C0
6D80
6D80
EDC0
ENDCHAR
STARTCHAR n
ENCODING 110
SWIDTH 600 0
DWIDTH 9 0
BBX 9 7 0 0
BITMAP
7700
3980
3180
3180
6300
6300
F780
ENDCHAR
STARTCHAR o
ENCODING 111
SWIDTH 600 0
DWIDTH 9 0
BBX 8 7 1 0
BITMAP
1E
63
63
C3
C6
C6
78
ENDCHAR
STARTCHAR p
ENCODING 112
SWIDTH 600 0
DWIDTH 9 0
BBX 10 10 -1 -3
BITMAP
3B80
1CC0
18C0
18C0
3180
3980
3700
6000
6000
F000
ENDCHAR
STARTCHAR q
ENCODING 113
SWIDTH 600 0
DWIDTH 9 0
BBX 10 10 1 -3
BITMAP
1DC0
7700
6300
C300
C600
CE00
7600
0C00
0C00
1E00
ENDCHAR
STARTCHAR r
ENCODING 114
SWIDTH 600 0
DWIDTH 9 0
BBX 8 7 1 0
BITMAP
77
38
30
30
60
60
F8
ENDCHAR
STARTCHAR s
ENCODING 115
SWIDTH 600 0
DWIDTH 9 0
BBX 9 7 1 0
BITMAP
3E80
6300
6300
3800
0E00
C600
FC00
ENDCHAR
STARTCHAR t
ENCODING 116
SWIDTH 600 0
DWIDTH 9 0
BBX 7 9 2 0
BITMAP
30
30
FE
60
60
60
C0
CC
78
ENDCHAR
STARTCHAR u
ENCODING 117
SWIDTH 600 0
DWIDTH 9 0
BBX 9 7 1 0
BITMAP
7380
6300
6300
6300
C600
CE00
7700
ENDCHAR
STARTCHAR v
ENCODING 118
SWIDTH 600 0
DWIDTH 9 0
BBX 10 7 0 0
BITMAP
F3C0
6180
6300
3600
3400
1C00
1800
ENDCHAR
STARTCHAR w
ENCODING 119
SWIDTH 600 0
DWIDTH 9 0
BBX 11 7 0 0
BITMAP
F1E0
6CC0
6D80
6D80
7700
6600
6600
ENDCHAR
STARTCHAR x
ENCODING 120
SWIDTH 600 0
DWIDTH 9 0
BBX 10 7 0 0
BITMAP
79C0
3300
1E00
1C00
3400
6600
E700
ENDCHAR
STARTCHAR y
ENCODING 121
SWIDTH 600 0
DWIDTH 9 0
BBX 10 10 0 -3
BITMAP
79C0
3180
3300
3600
1C00
1800
1800
3000
3000
F800
ENDCHAR
STARTCHAR z
ENCODING 122
SWIDTH 600 0
DWIDTH 9 0
BBX 8 7 1 0
BITMAP
3F
46
0C
18
30
64
FC
ENDCHAR
STARTCHAR braceleft
ENCODING 123
SWIDTH 600 0
DWIDTH 9 0
BBX 6 11 3 -2
BITMAP
0C
18
30
30
C0
60
60
C0
C0
C0
60
ENDCHAR
STARTCHAR bar
ENCODING 124
SWIDTH 600 0
DWIDTH 9 0
BBX 6 11 2 -2
BITMAP
0C
0C
18
18
30
30
60
60
60
C0
C0
ENDCHAR
STARTCHAR braceright
ENCODING 125
SWIDTH 600 0
DWIDTH 9 0
BBX 6 11 1 -2
BITMAP
18
0C
0C
18
18
0C
30
30
30
60
C0
ENDCHAR
STARTCHAR asciitilde
ENCODING 126
SWIDTH 600 0
DWIDTH 9 0
BBX 6 3 2 3
BITMAP
64
FC
98
ENDCHAR
STARTCHAR Aogonek
ENCODING 161
SWIDTH 600 0
DWIDTH 9 0
BBX 9 12 0 -3
BITMAP
0F00
0700
0F00
1B00
1B00
3300
7F00
6300
F780
0300
0400
0700
ENDCHAR
STARTCHAR breve
ENCODING 162
SWIDTH 600 0
DWIDTH 9 0
BBX 6 2 1 7
BITMAP
CC
78
ENDCHAR
STARTCHAR Lslash
ENCODING 163
SWIDTH 600 0
DWIDTH 9 0
BBX 9 9 0 0
BITMAP
3E00
1800
1800
3600
3C00
7180
E180
6300
FF00
ENDCHAR
STARTCHAR currency
ENCODING 164
SWIDTH 600 0
DWIDTH 9 0
BBX 9 6 1 1
BITMAP
3180
3F00
6300
6300
7E00
C600
ENDCHAR
STARTCHAR Lcaron
ENCODING 165
SWIDTH 600 0
DWIDTH 9 0
BBX 9 9 0 0
BITMAP
3E80
1880
1900
3100
3000
3180
6180
6300
FF00
ENDCHAR
STARTCHAR Sacute
ENCODING 166
SWIDTH 600 0
DWIDTH 9 0
BBX 9 12 1 0
BITMAP
0300
0600
0000
1E80
3380
6180
7000
3C00
0E00
C600
E600
BC00
ENDCHAR
STARTCHAR section
ENCODING 167
SWIDTH 600 0
DWIDTH 9 0
BBX 10 11 0 -1
BITMAP
0FC0
1880
3800
6C00
6600
3300
1980
0D80
0700
4600
FC00
ENDCHAR
STARTCHAR dieresis
ENCODING 168
SWIDTH 600 0
DWIDTH 9 0
BBX 4 2 4 8
BITMAP
90
90
ENDCHAR
STARTCHAR Scaron
ENCODING 169
SWIDTH 600 0
DWIDTH 9 0
BBX 9 12 1 0
BITMAP
0D80
0700
0000
1E80
3380
6180
7000
3C00
0E00
C600
E600
BC00
ENDCHAR
STARTCHAR Scedilla
ENCODING 170
SWIDTH 600 0
DWIDTH 9 0
BBX 9 13 1 -4
BITMAP
1E80
3380
6180
7000
3C00
0E00
C600
E600
BC00
1000
1800
0800
3800
ENDCHAR
STARTCHAR Tcaron
ENCODING 171
SWIDTH 600 0
DWIDTH 9 0
BBX 9 12 2 0
BITMAP
3600
1C00
0000
FF80
DB00
DB00
3000
3000
3000
6000
6000
F000
ENDCHAR
STARTCHAR Zacute
ENCODING 172
SWIDTH 600 0
DWIDTH 9 0
BBX 9 12 0 0
BITMAP
0300
0600
0000
3F80
3180
3300
0600
0C00
1800
3300
6300
FF00
ENDCHAR
STARTCHAR hyphen
ENCODING 173
SWIDTH 600 0
DWIDTH 9 0
BBX 6 1 2 4
BITMAP
FC
ENDCHAR
STARTCHAR Zcaron
ENCODING 174
SWIDTH 600 0
DWIDTH 9 0
BBX 9 12 0 0
BITMAP
1B00
0E00
0000
3F80
3180
3300
0600
0C00
1800
3300
6300
FF00
ENDCHAR
STARTCHAR Zdotaccent
ENCODING 175
SWIDTH 600 0
DWIDTH 9 0
BBX 9 12 0 0
BITMAP
0600
0600
0000
3F80
3180
3300
0600
0C00
1800
3300
6300
FF00
ENDCHAR
STARTCHAR degree
ENCODING 176
SWIDTH 600 0
DWIDTH 9 0
BBX 4 4 4 6
BITMAP
70
90
90
E0
ENDCHAR
STARTCHAR aogonek
ENCODING 177
SWIDTH 600 0
DWIDTH 9 0
BBX 8 10 0 -3
BITMAP
3E
03
03
7F
C6
CE
77
03
04
07
ENDCHAR
STARTCHAR ogonek
ENCODING 178
SWIDTH 600 0
DWIDTH 9 0
BBX 3 3 3 -3
BITMAP
60
80
E0
ENDCHAR
STARTCHAR lslash
ENCODING 179
SWIDTH 600 0
DWIDTH 9 0
BBX 8 9 1 0
BITMAP
3C
0C
0F
1C
78
18
30
30
FC
ENDCHAR
STARTCHAR acute
ENCODING 180
SWIDTH 600 0
DWIDTH 9 0
BBX 3 2 5 8
BITMAP
60
C0
ENDCHAR
STARTCHAR lcaron
ENCODING 181
SWIDTH 600 0
DWIDTH 9 0
BBX 8 10 1 0
BITMAP
3D
0D
0E
1A
18
18
18
30
30
FC
ENDCHAR
STARTCHAR sacute
ENCODING 182
SWIDTH 600 0
DWIDTH 9 0
BBX 9 10 1 0
BITMAP
0300
0600
0000
3E80
6300
6300
3800
0E00
C600
FC00
ENDCHAR
STARTCHAR caron
ENCODING 183
SWIDTH 600 0
DWIDTH 9 0
BBX 5 2 2 7
BITMAP
D8
70
ENDCHAR
STARTCHAR cedilla
ENCODING 184
SWIDTH 600 0
DWIDTH 9 0
BBX 3 4 3 -3
BITMAP
20
60
20
E0
ENDCHAR
STARTCHAR scaron
ENCODING 185
SWIDTH 600 0
DWIDTH 9 0
BBX 9 10 1 0
BITMAP
1B00
0E00
0000
3E80
6300
6300
3800
0E00
C600
FC00
ENDCHAR
STARTCHAR scedilla
ENCODING 186
SWIDTH 600 0
DWIDTH 9 0
BBX 9 11 1 -4
BITMAP
3E80
6300
6300
3800
0E00
C600
FC00
1000
1800
0800
3800
ENDCHAR
STARTCHAR tcaron
ENCODING 187
SWIDTH 600 0
DWIDTH 9 0
BBX 7 9 2 0
BITMAP
32
32
FE
64
60
60
C0
CC
78
ENDCHAR
STARTCHAR zacute
ENCODING 188
SWIDTH 600 0
DWIDTH 9 0
BBX 8 10 1 0
BITMAP
06
0C
00
3F
46
0C
18
30
64
FC
ENDCHAR
STARTCHAR hungarumlaut
ENCODING 189
SWIDTH 600 0
DWIDTH 9 0
BBX 6 2 1 7
BITMAP
6C
D8
ENDCHAR
STARTCHAR zcaron
ENCODING 190
SWIDTH 600 0
DWIDTH 9 0
BBX 8 10 1 0
BITMAP
1B
0E
00
3F
46
0C
18
30
64
FC
ENDCHAR
STARTCHAR zdotaccent
ENCODING 191
SWIDTH 600 0
DWIDTH 9 0
BBX 8 10 1 0
BITMAP
0C
0C
00
3F
46
0C
18
30
64
FC
ENDCHAR
STARTCHAR Racute
ENCODING 192
SWIDTH 600 0
DWIDTH 9 0
BBX 10 12 0 0
BITMAP
0300
0600
0000
3F80
18C0
18C0
30C0
3180
3F00
6600
6300
FB80
ENDCHAR
STARTCHAR Aacute
ENCODING 193
SWIDTH 600 0
DWIDTH 9 0
BBX 9 12 0 0
BITMAP
0180
0300
0000
0F00
0700
0F00
1B00
1B00
3300
7F00
6300
F780
ENDCHAR
STARTCHAR Acircumflex
ENCODING 194
SWIDTH 600 0
DWIDTH 9 0
BBX 9 12 0 0
BITMAP
0300
0D00
0000
0F00
0700
0F00
1B00
1B00
3300
7F00
6300
F780
ENDCHAR
STARTCHAR Abreve
ENCODING 195
SWIDTH 600 0
DWIDTH 9 0
BBX 9 12 0 0
BITMAP
1980
0F00
0000
0F00
0700
0F00
1B00
1B00
3300
7F00
6300
F780
ENDCHAR
STARTCHAR Adieresis
ENCODING 196
SWIDTH 600 0
DWIDTH 9 0
BBX 9 12 0 0
BITMAP
0900
0900
0000
0F00
0700
0F00
1B00
1B00
3300
7F00
6300
F780
ENDCHAR
STARTCHAR Lacute
ENCODING 197
SWIDTH 600 0
DWIDTH 9 0
BBX 9 12 0 0
BITMAP
0300
0600
0000
3E00
1800
1800
3000
3000
3180
6180
6300
FF00
ENDCHAR
STARTCHAR Cacute
ENCODING 198
SWIDTH 600 0
DWIDTH 9 0
BBX 8 12 1 0
BITMAP
03
06
00
1D
37
63
60
C0
C0
C0
C6
7C
ENDCHAR
STARTCHAR Ccedilla
ENCODING 199
SWIDTH 600 0
DWIDTH 9 0
BBX 8 13 1 -4
BITMAP
1D
37
63
60
C0
C0
C0
CC
78
40
60
20
E0
ENDCHAR
STARTCHAR Ccaron
ENCODING 200
SWIDTH 600 0
DWIDTH 9 0
BBX 8 12 1 0
BITMAP
1B
0E
00
1D
37
63
60
C0
C0
C0
C6
7C
ENDCHAR
STARTCHAR Eacute
ENCODING 201
SWIDTH 600 0
DWIDTH 9 0
BBX 9 12 0 0
BITMAP
0300
0600
0000
3F80
1980
1180
3400
3C00
3400
6300
6300
FF00
ENDCHAR
STARTCHAR Eogonek
ENCODING 202
SWIDTH 600 0
DWIDTH 9 0
BBX 9 12 0 -3
BITMAP
3F80
1980
1180
3400
3C00
3400
6300
6300
FF00
0600
0800
0E00
ENDCHAR
STARTCHAR Edieresis
ENCODING 203
SWIDTH 600 0
DWIDTH 9 0
BBX 9 12 0 0
BITMAP
0900
0900
0000
3F80
1980
1180
3400
3C00
3400
6300
6300
FF00
ENDCHAR
STARTCHAR Ecaron
ENCODING 204
SWIDTH 600 0
DWIDTH 9 0
BBX 9 12 0 0
BITMAP
1B00
0E00
0000
3F80
1980
1180
3400
3C00
3400
6300
6300
FF00
ENDCHAR
STARTCHAR Iacute
ENCODING 205
SWIDTH 600 0
DWIDTH 9 0
BBX 8 12 1 0
BITMAP
03
06
00
3F
0C
0C
18
18
18
30
30
FC
ENDCHAR
STARTCHAR Icircumflex
ENCODING 206
SWIDTH 600 0
DWIDTH 9 0
BBX 8 12 1 0
BITMAP
06
1A
00
3F
0C
0C
18
18
18
30
30
FC
ENDCHAR
STARTCHAR Dcaron
ENCODING 207
SWIDTH 600 0
DWIDTH 9 0
BBX 10 12 0 0
BITMAP
0D80
0700
0000
3F80
18C0
18C0
30C0
30C0
3180
6180
6700
FE00
ENDCHAR
STARTCHAR Eth
ENCODING 208
SWIDTH 600 0
DWIDTH 9 0
BBX 10 9 0 0
BITMAP
3F80
18C0
18C0
30C0
7CC0
3180
6180
6700
FE00
ENDCHAR
STARTCHAR Nacute
ENCODING 209
SWIDTH 600 0
DWIDTH 9 0
BBX 11 12 0 0
BITMAP
0180
0300
0000
39E0
18C0
18C0
3580
3580
3580
6300
6300
F300
ENDCHAR
STARTCHAR Ncaron
ENCODING 210
SWIDTH 600 0
DWIDTH 9 0
BBX 11 12 0 0
BITMAP
06C0
0380
0000
39E0
18C0
18C0
3580
3580
3580
6300
6300
F300
ENDCHAR
STARTCHAR Oacute
ENCODING 211
SWIDTH 600 0
DWIDTH 9 0
BBX 9 12 1 0
BITMAP
0300
0600
0000
0F00
3180
6180
6180
C180
C300
C300
C600
7800
ENDCHAR
STARTCHAR Ocircumflex
ENCODING 212
SWIDTH 600 0
DWIDTH 9 0
BBX 9 12 1 0
BITMAP
0300
0D00
0000
0F00
3180
6180
6180
C180
C300
C300
C600
7800
ENDCHAR
STARTCHAR Ohungarumlaut
ENCODING 213
SWIDTH 600 0
DWIDTH 9 0
BBX 10 12 1 0
BITMAP
06C0
0D80
0000
0F00
3180
6180
6180
C180
C300
C300
C600
7800
ENDCHAR
STARTCHAR Odieresis
ENCODING 214
SWIDTH 600 0
DWIDTH 9 0
BBX 9 12 1 0
BITMAP
0900
0900
0000
0F00
3180
6180
6180
C180
C300
C300
C600
7800
ENDCHAR
STARTCHAR multiply
ENCODING 215
SWIDTH 600 0
DWIDTH 9 0
BBX 7 7 2 1
BITMAP
42
66
3C
38
78
CC
84
ENDCHAR
STARTCHAR Rcaron
ENCODING 216
SWIDTH 600 0
DWIDTH 9 0
BBX 10 12 0 0
BITMAP
0D80
0700
0000
3F80
18C0
18C0
30C0
3180
3F00
6600
6300
FB80
ENDCHAR
STARTCHAR Uring
ENCODING 217
SWIDTH 600 0
DWIDTH 9 0
BBX 10 12 1 0
BITMAP
0600
0900
0600
7BC0
3180
3180
6300
6300
6300
C600
C600
7C00
ENDCHAR
STARTCHAR Uacute
ENCODING 218
SWIDTH 600 0
DWIDTH 9 0
BBX 10 12 1 0
BITMAP
0300
0600
0000
7BC0
3180
3180
6300
6300
6300
C600
C600
7C00
ENDCHAR
STARTCHAR Uhungarumlaut
ENCODING 219
SWIDTH 600 0
DWIDTH 9 0
BBX 10 12 1 0
BITMAP
0D80
1B00
0000
7BC0
3180
3180
6300
6300
6300
C600
C600
7C00
ENDCHAR
STARTCHAR Udieresis
ENCODING 220
SWIDTH 600 0
DWIDTH 9 0
BBX 10 12 1 0
BITMAP
0900
0900
0000
7BC0
3180
3180
6300
6300
6300
C600
C600
7C00
ENDCHAR
STARTCHAR Yacute
ENCODING 221
SWIDTH 600 0
DWIDTH 9 0
BBX 10 12 1 0
BITMAP
0600
0C00
0000
F3C0
6180
6300
3600
3C00
1800
3000
3000
FC00
ENDCHAR
STARTCHAR Tcedilla
ENCODING 222
SWIDTH 600 0
DWIDTH 9 0
BBX 9 13 2 -4
BITMAP
FF80
DB00
DB00
3000
3000
3000
6000
6000
F000
2000
3000
1000
7000
ENDCHAR
STARTCHAR germandbls
ENCODING 223
SWIDTH 600 0
DWIDTH 9 0
BBX 9 9 0 0
BITMAP
0F00
1980
1980
3700
3300
3180
6180
6B00
EE00
ENDCHAR
STARTCHAR racute
ENCODING 224
SWIDTH 600 0
DWIDTH 9 0
BBX 8 10 1 0
BITMAP
06
0C
00
77
38
30
30
60
60
F8
ENDCHAR
STARTCHAR aacute
ENCODING 225
SWIDTH 600 0
DWIDTH 9 0
BBX 8 10 0 0
BITMAP
03
06
00
3E
03
03
7F
C6
CE
77
ENDCHAR
STARTCHAR acircumflex
ENCODING 226
SWIDTH 600 0
DWIDTH 9 0
BBX 8 10 0 0
BITMAP
03
0D
00
3E
03
03
7F
C6
CE
77
ENDCHAR
STARTCHAR abreve
ENCODING 227
SWIDTH 600 0
DWIDTH 9 0
BBX 9 10 0 0
BITMAP
1980
0F00
0000
3E00
0300
0300
7F00
C600
CE00
7700
ENDCHAR
STARTCHAR adieresis
ENCODING 228
SWIDTH 600 0
DWIDTH 9 0
BBX 8 10 0 0
BITMAP
09
09
00
3E
03
03
7F
C6
CE
77
ENDCHAR
STARTCHAR lacute
ENCODING 229
SWIDTH 600 0
DWIDTH 9 0
BBX 7 12 1 0
BITMAP
06
0C
3C
0C
0C
18
18
18
18
30
30
FC
ENDCHAR
STARTCHAR cacute
ENCODING 230
SWIDTH 600 0
DWIDTH 9 0
BBX 9 10 1 0
BITMAP
0300
0600
0000
1E80
7300
6300
C000
C000
C600
7C00
ENDCHAR
STARTCHAR ccedilla
ENCODING 231
SWIDTH 600 0
DWIDTH 9 0
BBX 9 11 1 -4
BITMAP
1E80
7300
6300
C000
C000
C600
7C00
2000
3000
1000
7000
ENDCHAR
STARTCHAR ccaron
ENCODING 232
SWIDTH 600 0
DWIDTH 9 0
BBX 9 10 1 0
BITMAP
0D80
0700
0000
1E80
7300
6300
C000
C000
C600
7C00
ENDCHAR
STARTCHAR eacute
ENCODING 233
SWIDTH 600 0
DWIDTH 9 0
BBX 8 10 1 0
BITMAP
06
0C
00
1E
73
63
FF
C0
C6
7C
ENDCHAR
STARTCHAR eogonek
ENCODING 234
SWIDTH 600 0
DWIDTH 9 0
BBX 8 10 1 -3
BITMAP
1E
73
63
FF
C0
C6
7C
30
40
70
ENDCHAR
STARTCHAR edieresis
ENCODING 235
SWIDTH 600 0
DWIDTH 9 0
BBX 8 10 1 0
BITMAP
12
12
00
1E
73
63
FF
C0
C6
7C
ENDCHAR
STARTCHAR ecaron
ENCODING 236
SWIDTH 600 0
DWIDTH 9 0
BBX 8 10 1 0
BITMAP
1B
0E
00
1E
73
63
FF
C0
C6
7C
ENDCHAR
STARTCHAR iacute
ENCODING 237
SWIDTH 600 0
DWIDTH 9 0
BBX 7 10 1 0
BITMAP
06
0C
00
3C
18
18
18
30
30
FC
ENDCHAR
STARTCHAR icircumflex
ENCODING 238
SWIDTH 600 0
DWIDTH 9 0
BBX 6 10 1 0
BITMAP
0C
34
00
3C
18
18
18
30
30
FC
ENDCHAR
STARTCHAR dcaron
ENCODING 239
SWIDTH 600 0
DWIDTH 9 0
BBX 11 10 1 0
BITMAP
03A0
01A0
01C0
1DC0
7700
6300
C300
C600
CE00
7700
ENDCHAR
STARTCHAR dmacron
ENCODING 240
SWIDTH 600 0
DWIDTH 9 0
BBX 10 10 1 0
BITMAP
0180
0FC0
0180
1D80
7700
6300
C300
C600
CE00
7700
ENDCHAR
STARTCHAR nacute
ENCODING 241
SWIDTH 600 0
DWIDTH 9 0
BBX 9 10 0 0
BITMAP
0300
0600
0000
7700
3980
3180
3180
6300
6300
F780
ENDCHAR
STARTCHAR ncaron
ENCODING 242
SWIDTH 600 0
DWIDTH 9 0
BBX 9 10 0 0
BITMAP
0D80
0700
0000
7700
3980
3180
3180
6300
6300
F780
ENDCHAR
STARTCHAR oacute
ENCODING 243
SWIDTH 600 0
DWIDTH 9 0
BBX 8 10 1 0
BITMAP
06
0C
00
1E
63
63
C3
C6
C6
78
ENDCHAR
STARTCHAR ocircumflex
ENCODING 244
SWIDTH 600 0
DWIDTH 9 0
BBX 8 10 1 0
BITMAP
06
1A
00
1E
63
63
C3
C6
C6
78
ENDCHAR
STARTCHAR ohungarumlaut
ENCODING 245
SWIDTH 600 0
DWIDTH 9 0
BBX 8 10 1 0
BITMAP
09
12
00
1E
63
63
C3
C6
C6
78
ENDCHAR
STARTCHAR odieresis
ENCODING 246
SWIDTH 600 0
DWIDTH 9 0
BBX 8 10 1 0
BITMAP
12
12
00
1E
63
63
C3
C6
C6
78
ENDCHAR
STARTCHAR divide
ENCODING 247
SWIDTH 600 0
DWIDTH 9 0
BBX 7 7 2 1
BITMAP
18
18
00
FE
00
30
30
ENDCHAR
STARTCHAR rcaron
ENCODING 248
SWIDTH 600 0
DWIDTH 9 0
BBX 8 10 1 0
BITMAP
1B
0E
00
77
38
30
30
60
60
F8
ENDCHAR
STARTCHAR uring
ENCODING 249
SWIDTH 600 0
DWIDTH 9 0
BBX 9 10 1 0
BITMAP
0C00
1200
0C00
7380
6300
6300
6300
C600
CE00
7700
ENDCHAR
STARTCHAR uacute
ENCODING 250
SWIDTH 600 0
DWIDTH 9 0
BBX 9 10 1 0
BITMAP
0600
0C00
0000
7380
6300
6300
6300
C600
CE00
7700
ENDCHAR
STARTCHAR uhungarumlaut
ENCODING 251
SWIDTH 600 0
DWIDTH 9 0
BBX 9 10 1 0
BITMAP
0900
1200
0000
7380
6300
6300
6300
C600
CE00
7700
ENDCHAR
STARTCHAR udieresis
ENCODING 252
SWIDTH 600 0
DWIDTH 9 0
BBX 9 10 1 0
BITMAP
1200
1200
0000
7380
6300
6300
6300
C600
CE00
7700
ENDCHAR
STARTCHAR yacute
ENCODING 253
SWIDTH 600 0
DWIDTH 9 0
BBX 10 13 0 -3
BITMAP
0300
0600
0000
79C0
3180
3300
3600
1C00
1800
1800
3000
3000
F800
ENDCHAR
STARTCHAR tcedilla
ENCODING 254
SWIDTH 600 0
DWIDTH 9 0
BBX 7 13 2 -4
BITMAP
30
30
FE
60
60
60
C0
CC
78
10
18
08
38
ENDCHAR
STARTCHAR dotaccent
ENCODING 255
SWIDTH 600 0
DWIDTH 9 0
BBX 2 2 3 7
BITMAP
C0
C0
ENDCHAR
ENDFONT
