STARTFONT 2.1
COMMENT +
COMMENT  Copyright 1988 Bitstream, Inc., Cambridge, Massachusetts, USA
COMMENT  Copyright 1996 BIZNET Poland, Inc.
COMMENT
COMMENT  Permission to use, copy, modify, and distribute this software and
COMMENT  its documentation for any purpose and without fee is hereby
COMMENT  granted, provided that the above copyright notice appear in all
COMMENT  copies and that both that copyright notice and this permission
COMMENT  notice appear in supporting documentation, and that the name of
COMMENT  Bitstream not be used in advertising or publicity pertaining to
COMMENT  distribution of the software without specific, written prior
COMMENT  permission.  Bitstream makes no representations about the
COMMENT  suitability of this software for any purpose.  It is provided "as
COMMENT  is" without express or implied warranty.
COMMENT
COMMENT  BITSTREAM DISCLAIMS ALL WARRANTIES WITH REGARD TO THIS SOFTWARE,
COMMENT  INCLUDING ALL IMPLIED WARRANTIES OF MERCHANTABILITY AND FITNESS, IN
COMMENT  NO EVENT SHALL BITSTREAM BE LIABLE FOR ANY SPECIAL, INDIRECT OR
COMMENT  CONSEQUENTIAL DAMAGES OR ANY DAMAGES WHATSOEVER RESULTING FROM LOSS
COMMENT  OF USE, DATA OR PROFITS, WHETHER IN AN ACTION OF CONTRACT,
COMMENT  NEGLIGENCE OR OTHER TORTIOUS ACTION, ARISING OUT OF OR IN
COMMENT  CONNECTION WITH THE USE OR PERFORMANCE OF THIS SOFTWARE.
COMMENT -
FONT -BIZNET-Chartis-Medium-I-Normal--12-120-75-75-P-65-ISO8859-2
SIZE 12 75 75
FONTBOUNDINGBOX 11 12 -2 -3
STARTPROPERTIES 23
FOUNDRY "BIZNET"
FAMILY_NAME "BIZNET Chartis"
WEIGHT_NAME "Medium"
SLANT "I"
SETWIDTH_NAME "Normal"
ADD_STYLE_NAME ""
PIXEL_SIZE 12
POINT_SIZE 120
RESOLUTION_X 75
RESOLUTION_Y 75
SPACING "P"
AVERAGE_WIDTH 65
CHARSET_REGISTRY "ISO8859"
CHARSET_ENCODING "2"
CAP_HEIGHT 9
X_HEIGHT 6
FONT_ASCENT 12
FONT_DESCENT 3
FACE_NAME "BIZNET Chartis Italic"
DEFAULT_CHAR 1
CHARSET_COLLECTIONS "ASCII ISO8859-2"

STARTCHAR space
ENCODING 32
SWIDTH 240 0
DWIDTH 3 0
BBX 1 1 0 0
BITMAP
00
ENDCHAR
STARTCHAR exclam
ENCODING 33
SWIDTH 320 0
DWIDTH 4 0
BBX 3 9 1 0
BITMAP
20
60
60
40
40
40
40
00
C0
ENDCHAR
STARTCHAR quotedbl
ENCODING 34
SWIDTH 400 0
DWIDTH 5 0
BBX 3 4 1 4
BITMAP
A0
A0
A0
A0
ENDCHAR
STARTCHAR numbersign
ENCODING 35
SWIDTH 720 0
DWIDTH 9 0
BBX 7 9 1 -1
BITMAP
14
14
14
7E
28
FE
48
50
50
ENDCHAR
STARTCHAR dollar
ENCODING 36
SWIDTH 560 0
DWIDTH 7 0
BBX 6 10 0 -1
BITMAP
1C
34
54
70
30
28
A8
A8
70
20
ENDCHAR
STARTCHAR percent
ENCODING 37
SWIDTH 880 0
DWIDTH 11 0
BBX 9 9 1 0
BITMAP
2100
5200
9200
9500
AA80
5480
2480
2500
4200
ENDCHAR
STARTCHAR ampersand
ENCODING 38
SWIDTH 720 0
DWIDTH 9 0
BBX 8 9 0 0
BITMAP
38
44
44
78
73
92
8C
8C
73
ENDCHAR
STARTCHAR quoteright
ENCODING 39
SWIDTH 240 0
DWIDTH 3 0
BBX 2 3 1 5
BITMAP
C0
40
80
ENDCHAR
STARTCHAR parenleft
ENCODING 40
SWIDTH 400 0
DWIDTH 5 0
BBX 5 10 1 -2
BITMAP
18
20
40
40
80
80
80
80
80
60
ENDCHAR
STARTCHAR parenright
ENCODING 41
SWIDTH 400 0
DWIDTH 5 0
BBX 5 10 -1 -2
BITMAP
30
08
08
08
08
08
10
10
20
C0
ENDCHAR
STARTCHAR asterisk
ENCODING 42
SWIDTH 480 0
DWIDTH 6 0
BBX 5 4 1 4
BITMAP
20
F8
20
D0
ENDCHAR
STARTCHAR plus
ENCODING 43
SWIDTH 800 0
DWIDTH 10 0
BBX 7 7 2 0
BITMAP
10
10
10
FE
10
10
10
ENDCHAR
STARTCHAR comma
ENCODING 44
SWIDTH 240 0
DWIDTH 3 0
BBX 2 3 -1 -2
BITMAP
40
40
C0
ENDCHAR
STARTCHAR minus
ENCODING 45
SWIDTH 320 0
DWIDTH 4 0
BBX 3 1 0 2
BITMAP
E0
ENDCHAR
STARTCHAR period
ENCODING 46
SWIDTH 240 0
DWIDTH 3 0
BBX 1 1 0 0
BITMAP
80
ENDCHAR
STARTCHAR slash
ENCODING 47
SWIDTH 480 0
DWIDTH 6 0
BBX 8 10 -1 -1
BITMAP
01
02
04
04
08
10
20
20
40
80
ENDCHAR
STARTCHAR zero
ENCODING 48
SWIDTH 560 0
DWIDTH 7 0
BBX 6 9 1 0
BITMAP
18
64
44
84
84
84
88
98
60
ENDCHAR
STARTCHAR one
ENCODING 49
SWIDTH 560 0
DWIDTH 7 0
BBX 4 9 1 0
BITMAP
30
70
10
20
20
20
20
20
F0
ENDCHAR
STARTCHAR two
ENCODING 50
SWIDTH 560 0
DWIDTH 7 0
BBX 6 9 0 0
BITMAP
38
44
44
04
08
10
20
44
F8
ENDCHAR
STARTCHAR three
ENCODING 51
SWIDTH 560 0
DWIDTH 7 0
BBX 6 9 0 0
BITMAP
18
24
44
0C
30
08
0C
88
70
ENDCHAR
STARTCHAR four
ENCODING 52
SWIDTH 560 0
DWIDTH 7 0
BBX 7 9 0 0
BITMAP
04
0C
14
24
48
FE
08
08
08
ENDCHAR
STARTCHAR five
ENCODING 53
SWIDTH 560 0
DWIDTH 7 0
BBX 7 9 0 0
BITMAP
3E
20
20
78
04
04
04
88
70
ENDCHAR
STARTCHAR six
ENCODING 54
SWIDTH 560 0
DWIDTH 7 0
BBX 6 8 0 0
BITMAP
0C
30
40
F8
C4
84
88
70
ENDCHAR
STARTCHAR seven
ENCODING 55
SWIDTH 560 0
DWIDTH 7 0
BBX 7 9 0 0
BITMAP
7E
42
04
08
08
10
20
40
C0
ENDCHAR
STARTCHAR eight
ENCODING 56
SWIDTH 560 0
DWIDTH 7 0
BBX 6 9 0 0
BITMAP
18
24
44
68
70
8C
84
88
70
ENDCHAR
STARTCHAR nine
ENCODING 57
SWIDTH 560 0
DWIDTH 7 0
BBX 6 9 1 0
BITMAP
38
44
84
84
8C
78
18
20
C0
ENDCHAR
STARTCHAR colon
ENCODING 58
SWIDTH 320 0
DWIDTH 4 0
BBX 2 6 1 0
BITMAP
40
00
00
00
00
80
ENDCHAR
STARTCHAR semicolon
ENCODING 59
SWIDTH 320 0
DWIDTH 4 0
BBX 3 8 0 -2
BITMAP
60
00
00
00
00
40
40
80
ENDCHAR
STARTCHAR less
ENCODING 60
SWIDTH 800 0
DWIDTH 10 0
BBX 7 6 1 0
BITMAP
06
18
E0
60
18
06
ENDCHAR
STARTCHAR equal
ENCODING 61
SWIDTH 800 0
DWIDTH 10 0
BBX 7 3 2 2
BITMAP
FE
00
FE
ENDCHAR
STARTCHAR greater
ENCODING 62
SWIDTH 800 0
DWIDTH 10 0
BBX 7 6 2 0
BITMAP
C0
30
0E
0C
30
C0
ENDCHAR
STARTCHAR question
ENCODING 63
SWIDTH 480 0
DWIDTH 6 0
BBX 4 9 1 0
BITMAP
60
90
10
10
20
40
80
00
80
ENDCHAR
STARTCHAR at
ENCODING 64
SWIDTH 960 0
DWIDTH 12 0
BBX 10 10 1 -2
BITMAP
0F00
3080
4740
8A40
9240
9280
CF00
4000
3180
0E00
ENDCHAR
STARTCHAR A
ENCODING 65
SWIDTH 640 0
DWIDTH 8 0
BBX 9 9 -1 0
BITMAP
0600
0600
0A00
1200
1200
3F00
2100
4100
E380
ENDCHAR
STARTCHAR B
ENCODING 66
SWIDTH 640 0
DWIDTH 8 0
BBX 7 9 0 0
BITMAP
7C
22
22
24
3C
22
42
44
F8
ENDCHAR
STARTCHAR C
ENCODING 67
SWIDTH 640 0
DWIDTH 8 0
BBX 7 9 1 0
BITMAP
1E
22
42
80
80
80
84
44
38
ENDCHAR
STARTCHAR D
ENCODING 68
SWIDTH 720 0
DWIDTH 9 0
BBX 8 9 0 0
BITMAP
7C
22
21
21
21
61
42
44
F8
ENDCHAR
STARTCHAR E
ENCODING 69
SWIDTH 560 0
DWIDTH 7 0
BBX 7 9 0 0
BITMAP
7E
22
20
24
38
68
40
44
FC
ENDCHAR
STARTCHAR F
ENCODING 70
SWIDTH 480 0
DWIDTH 6 0
BBX 7 9 0 0
BITMAP
7E
22
20
24
38
68
40
40
E0
ENDCHAR
STARTCHAR G
ENCODING 71
SWIDTH 640 0
DWIDTH 8 0
BBX 8 9 0 0
BITMAP
1F
61
40
80
87
82
86
44
3C
ENDCHAR
STARTCHAR H
ENCODING 72
SWIDTH 720 0
DWIDTH 9 0
BBX 10 9 0 0
BITMAP
79C0
3080
2080
2100
3F00
2100
4100
4300
E780
ENDCHAR
STARTCHAR I
ENCODING 73
SWIDTH 320 0
DWIDTH 4 0
BBX 4 9 0 0
BITMAP
70
20
20
20
20
40
40
40
E0
ENDCHAR
STARTCHAR J
ENCODING 74
SWIDTH 400 0
DWIDTH 5 0
BBX 6 9 -1 0
BITMAP
1C
08
08
08
10
10
90
B0
E0
ENDCHAR
STARTCHAR K
ENCODING 75
SWIDTH 640 0
DWIDTH 8 0
BBX 9 9 0 0
BITMAP
7B80
3300
2400
2800
3800
2800
4400
4400
E300
ENDCHAR
STARTCHAR L
ENCODING 76
SWIDTH 560 0
DWIDTH 7 0
BBX 6 9 0 0
BITMAP
70
20
20
20
20
60
44
44
FC
ENDCHAR
STARTCHAR M
ENCODING 77
SWIDTH 800 0
DWIDTH 10 0
BBX 11 9 0 0
BITMAP
70E0
30C0
3140
3140
5A80
4A80
4C80
4C80
E9C0
ENDCHAR
STARTCHAR N
ENCODING 78
SWIDTH 640 0
DWIDTH 8 0
BBX 9 9 0 0
BITMAP
6380
3100
3100
2900
4900
4E00
4600
4600
E200
ENDCHAR
STARTCHAR O
ENCODING 79
SWIDTH 720 0
DWIDTH 9 0
BBX 8 9 1 0
BITMAP
1C
22
41
81
81
81
82
44
38
ENDCHAR
STARTCHAR P
ENCODING 80
SWIDTH 560 0
DWIDTH 7 0
BBX 7 9 0 0
BITMAP
7C
22
22
22
24
78
40
40
E0
ENDCHAR
STARTCHAR Q
ENCODING 81
SWIDTH 720 0
DWIDTH 9 0
BBX 8 11 1 -2
BITMAP
18
24
42
82
82
82
84
4C
38
08
07
ENDCHAR
STARTCHAR R
ENCODING 82
SWIDTH 640 0
DWIDTH 8 0
BBX 8 9 0 0
BITMAP
7C
22
22
24
38
24
44
44
E3
ENDCHAR
STARTCHAR S
ENCODING 83
SWIDTH 560 0
DWIDTH 7 0
BBX 7 9 0 0
BITMAP
1E
22
44
60
38
04
84
88
70
ENDCHAR
STARTCHAR T
ENCODING 84
SWIDTH 560 0
DWIDTH 7 0
BBX 7 9 1 0
BITMAP
FE
92
10
10
20
20
20
20
70
ENDCHAR
STARTCHAR U
ENCODING 85
SWIDTH 640 0
DWIDTH 8 0
BBX 8 9 1 0
BITMAP
E7
42
42
42
84
84
84
88
70
ENDCHAR
STARTCHAR V
ENCODING 86
SWIDTH 560 0
DWIDTH 7 0
BBX 8 9 0 0
BITMAP
E3
42
42
44
44
28
30
30
20
ENDCHAR
STARTCHAR W
ENCODING 87
SWIDTH 880 0
DWIDTH 11 0
BBX 11 9 1 0
BITMAP
E460
4440
4C40
4C80
5280
5300
6300
6200
4200
ENDCHAR
STARTCHAR X
ENCODING 88
SWIDTH 560 0
DWIDTH 7 0
BBX 9 9 -1 0
BITMAP
3B80
1100
1200
0C00
0800
1400
2400
4200
E700
ENDCHAR
STARTCHAR Y
ENCODING 89
SWIDTH 560 0
DWIDTH 7 0
BBX 8 9 0 0
BITMAP
E7
42
64
28
30
30
20
20
70
ENDCHAR
STARTCHAR Z
ENCODING 90
SWIDTH 560 0
DWIDTH 7 0
BBX 7 9 0 0
BITMAP
3E
44
4C
08
10
20
64
44
FC
ENDCHAR
STARTCHAR bracketleft
ENCODING 91
SWIDTH 480 0
DWIDTH 6 0
BBX 5 10 1 -2
BITMAP
38
20
20
40
40
40
40
80
80
E0
ENDCHAR
STARTCHAR backslash
ENCODING 92
SWIDTH 480 0
DWIDTH 6 0
BBX 6 10 0 -1
BITMAP
80
40
40
20
20
10
10
08
08
04
ENDCHAR
STARTCHAR bracketright
ENCODING 93
SWIDTH 400 0
DWIDTH 5 0
BBX 5 10 -1 -2
BITMAP
38
08
08
10
10
10
10
20
20
E0
ENDCHAR
STARTCHAR asciicircum
ENCODING 94
SWIDTH 960 0
DWIDTH 12 0
BBX 7 3 2 5
BITMAP
38
44
82
ENDCHAR
STARTCHAR underscore
ENCODING 95
SWIDTH 480 0
DWIDTH 6 0
BBX 6 1 0 -3
BITMAP
FC
ENDCHAR
STARTCHAR quoteleft
ENCODING 96
SWIDTH 240 0
DWIDTH 3 0
BBX 2 3 1 5
BITMAP
40
80
C0
ENDCHAR
STARTCHAR a
ENCODING 97
SWIDTH 560 0
DWIDTH 7 0
BBX 6 6 0 0
BITMAP
3C
4C
88
88
90
7C
ENDCHAR
STARTCHAR b
ENCODING 98
SWIDTH 480 0
DWIDTH 6 0
BBX 5 9 0 0
BITMAP
C0
40
40
70
48
88
88
90
60
ENDCHAR
STARTCHAR c
ENCODING 99
SWIDTH 400 0
DWIDTH 5 0
BBX 4 6 0 0
BITMAP
30
50
80
80
90
60
ENDCHAR
STARTCHAR d
ENCODING 100
SWIDTH 560 0
DWIDTH 7 0
BBX 6 9 0 0
BITMAP
0C
04
08
38
48
88
88
90
6C
ENDCHAR
STARTCHAR e
ENCODING 101
SWIDTH 400 0
DWIDTH 5 0
BBX 4 6 0 0
BITMAP
20
50
A0
C0
90
60
ENDCHAR
STARTCHAR f
ENCODING 102
SWIDTH 320 0
DWIDTH 4 0
BBX 7 12 -2 -3
BITMAP
06
0A
10
3C
10
10
10
10
20
20
20
C0
ENDCHAR
STARTCHAR g
ENCODING 103
SWIDTH 480 0
DWIDTH 6 0
BBX 6 9 0 -3
BITMAP
34
48
48
30
20
20
D8
88
70
ENDCHAR
STARTCHAR h
ENCODING 104
SWIDTH 560 0
DWIDTH 7 0
BBX 7 9 0 0
BITMAP
60
20
20
3C
64
44
48
48
CE
ENDCHAR
STARTCHAR i
ENCODING 105
SWIDTH 320 0
DWIDTH 4 0
BBX 3 9 1 0
BITMAP
60
00
00
C0
40
40
80
80
E0
ENDCHAR
STARTCHAR j
ENCODING 106
SWIDTH 240 0
DWIDTH 3 0
BBX 5 12 -2 -3
BITMAP
08
00
00
38
10
10
10
10
10
20
20
C0
ENDCHAR
STARTCHAR k
ENCODING 107
SWIDTH 480 0
DWIDTH 6 0
BBX 6 9 0 0
BITMAP
60
20
20
4C
50
60
50
58
8C
ENDCHAR
STARTCHAR l
ENCODING 108
SWIDTH 240 0
DWIDTH 3 0
BBX 2 9 0 0
BITMAP
C0
40
40
40
80
80
80
80
C0
ENDCHAR
STARTCHAR m
ENCODING 109
SWIDTH 800 0
DWIDTH 10 0
BBX 9 6 1 0
BITMAP
DB00
6D00
4900
8900
9200
9380
ENDCHAR
STARTCHAR n
ENCODING 110
SWIDTH 560 0
DWIDTH 7 0
BBX 6 6 1 0
BITMAP
D8
68
48
88
90
9C
ENDCHAR
STARTCHAR o
ENCODING 111
SWIDTH 480 0
DWIDTH 6 0
BBX 5 6 0 0
BITMAP
30
48
88
88
90
60
ENDCHAR
STARTCHAR p
ENCODING 112
SWIDTH 480 0
DWIDTH 6 0
BBX 6 9 -1 -3
BITMAP
7C
24
24
44
48
70
40
40
E0
ENDCHAR
STARTCHAR q
ENCODING 113
SWIDTH 480 0
DWIDTH 6 0
BBX 5 9 0 -3
BITMAP
38
48
88
88
90
70
10
10
38
ENDCHAR
STARTCHAR r
ENCODING 114
SWIDTH 400 0
DWIDTH 5 0
BBX 5 6 0 0
BITMAP
D8
68
40
40
80
80
ENDCHAR
STARTCHAR s
ENCODING 115
SWIDTH 400 0
DWIDTH 5 0
BBX 4 6 0 0
BITMAP
30
50
40
30
90
60
ENDCHAR
STARTCHAR t
ENCODING 116
SWIDTH 320 0
DWIDTH 4 0
BBX 3 7 1 0
BITMAP
40
E0
80
80
80
80
C0
ENDCHAR
STARTCHAR u
ENCODING 117
SWIDTH 560 0
DWIDTH 7 0
BBX 6 6 0 0
BITMAP
C4
44
48
88
98
EC
ENDCHAR
STARTCHAR v
ENCODING 118
SWIDTH 480 0
DWIDTH 6 0
BBX 6 6 0 0
BITMAP
C4
44
28
28
30
20
ENDCHAR
STARTCHAR w
ENCODING 119
SWIDTH 720 0
DWIDTH 9 0
BBX 9 6 0 0
BITMAP
C880
4C80
5480
5500
6600
4400
ENDCHAR
STARTCHAR x
ENCODING 120
SWIDTH 480 0
DWIDTH 6 0
BBX 7 6 -1 0
BITMAP
66
2A
10
30
A8
CC
ENDCHAR
STARTCHAR y
ENCODING 121
SWIDTH 480 0
DWIDTH 6 0
BBX 7 9 -1 -3
BITMAP
62
24
14
18
18
10
10
A0
C0
ENDCHAR
STARTCHAR z
ENCODING 122
SWIDTH 480 0
DWIDTH 6 0
BBX 6 6 0 0
BITMAP
7C
48
10
28
44
F8
ENDCHAR
STARTCHAR braceleft
ENCODING 123
SWIDTH 480 0
DWIDTH 6 0
BBX 5 10 0 -2
BITMAP
18
20
20
20
C0
20
20
20
20
18
ENDCHAR
STARTCHAR bar
ENCODING 124
SWIDTH 480 0
DWIDTH 6 0
BBX 1 12 3 -3
BITMAP
80
80
80
80
80
80
80
80
80
80
80
80
ENDCHAR
STARTCHAR braceright
ENCODING 125
SWIDTH 480 0
DWIDTH 6 0
BBX 5 10 0 -2
BITMAP
C0
20
20
20
18
20
20
20
20
C0
ENDCHAR
STARTCHAR asciitilde
ENCODING 126
SWIDTH 960 0
DWIDTH 12 0
BBX 8 2 2 5
BITMAP
71
8E
ENDCHAR
STARTCHAR Aogonek
ENCODING 161
SWIDTH 640 0
DWIDTH 8 0
BBX 9 11 -1 -2
BITMAP
0600
0600
0A00
1200
1200
3F00
2100
4100
E380
0100
0180
ENDCHAR
STARTCHAR breve
ENCODING 162
SWIDTH 480 0
DWIDTH 6 0
BBX 4 2 1 7
BITMAP
90
60
ENDCHAR
STARTCHAR Lslash
ENCODING 163
SWIDTH 560 0
DWIDTH 7 0
BBX 6 9 0 0
BITMAP
70
20
20
30
60
E0
44
44
FC
ENDCHAR
STARTCHAR currency
ENCODING 164
SWIDTH 640 0
DWIDTH 8 0
BBX 7 7 1 1
BITMAP
82
54
28
44
2C
54
82
ENDCHAR
STARTCHAR Lcaron
ENCODING 165
SWIDTH 560 0
DWIDTH 7 0
BBX 6 9 0 0
BITMAP
7C
24
28
20
20
60
44
44
FC
ENDCHAR
STARTCHAR Sacute
ENCODING 166
SWIDTH 560 0
DWIDTH 7 0
BBX 7 12 0 0
BITMAP
02
04
00
1E
22
44
60
38
04
84
88
70
ENDCHAR
STARTCHAR section
ENCODING 167
SWIDTH 480 0
DWIDTH 6 0
BBX 6 10 0 -2
BITMAP
3C
44
40
70
88
88
70
10
90
E0
ENDCHAR
STARTCHAR dieresis
ENCODING 168
SWIDTH 480 0
DWIDTH 6 0
BBX 3 1 2 7
BITMAP
A0
ENDCHAR
STARTCHAR Scaron
ENCODING 169
SWIDTH 560 0
DWIDTH 7 0
BBX 7 11 0 0
BITMAP
14
1C
00
3E
42
40
30
0C
04
84
78
ENDCHAR
STARTCHAR Scedilla
ENCODING 170
SWIDTH 560 0
DWIDTH 7 0
BBX 7 12 0 -3
BITMAP
1E
22
44
60
38
04
84
88
70
30
10
60
ENDCHAR
STARTCHAR Tcaron
ENCODING 171
SWIDTH 560 0
DWIDTH 7 0
BBX 7 11 1 0
BITMAP
28
38
FE
92
10
10
20
20
20
20
70
ENDCHAR
STARTCHAR Zacute
ENCODING 172
SWIDTH 560 0
DWIDTH 7 0
BBX 7 12 0 0
BITMAP
04
08
00
3E
44
4C
08
10
20
64
44
FC
ENDCHAR
STARTCHAR hyphen
ENCODING 173
SWIDTH 320 0
DWIDTH 4 0
BBX 3 1 0 2
BITMAP
E0
ENDCHAR
STARTCHAR Zcaron
ENCODING 174
SWIDTH 560 0
DWIDTH 7 0
BBX 7 11 0 0
BITMAP
14
1C
00
3E
24
08
18
30
20
44
FC
ENDCHAR
STARTCHAR Zdotaccent
ENCODING 175
SWIDTH 560 0
DWIDTH 7 0
BBX 7 11 0 0
BITMAP
08
00
3E
44
4C
08
10
20
64
44
FC
ENDCHAR
STARTCHAR degree
ENCODING 176
SWIDTH 320 0
DWIDTH 4 0
BBX 3 3 1 5
BITMAP
40
A0
40
ENDCHAR
STARTCHAR aogonek
ENCODING 177
SWIDTH 560 0
DWIDTH 7 0
BBX 6 8 0 -2
BITMAP
3C
4C
88
88
90
7C
08
0C
ENDCHAR
STARTCHAR ogonek
ENCODING 178
SWIDTH 480 0
DWIDTH 6 0
BBX 2 3 2 -3
BITMAP
40
80
C0
ENDCHAR
STARTCHAR lslash
ENCODING 179
SWIDTH 240 0
DWIDTH 3 0
BBX 4 9 -1 0
BITMAP
60
20
20
30
60
40
C0
40
60
ENDCHAR
STARTCHAR acute
ENCODING 180
SWIDTH 480 0
DWIDTH 6 0
BBX 3 2 3 7
BITMAP
60
80
ENDCHAR
STARTCHAR lcaron
ENCODING 181
SWIDTH 320 0
DWIDTH 4 0
BBX 5 9 0 0
BITMAP
D8
48
50
40
80
80
80
80
C0
ENDCHAR
STARTCHAR sacute
ENCODING 182
SWIDTH 400 0
DWIDTH 5 0
BBX 4 9 0 0
BITMAP
00
10
00
30
50
40
30
90
60
ENDCHAR
STARTCHAR caron
ENCODING 183
SWIDTH 480 0
DWIDTH 6 0
BBX 4 2 1 7
BITMAP
A0
E0
ENDCHAR
STARTCHAR cedilla
ENCODING 184
SWIDTH 560 0
DWIDTH 7 0
BBX 3 3 2 -3
BITMAP
60
20
C0
ENDCHAR
STARTCHAR scaron
ENCODING 185
SWIDTH 400 0
DWIDTH 5 0
BBX 5 9 0 0
BITMAP
50
70
00
30
40
40
30
90
E0
ENDCHAR
STARTCHAR scedilla
ENCODING 186
SWIDTH 400 0
DWIDTH 5 0
BBX 4 9 0 -3
BITMAP
30
50
40
30
90
60
30
10
60
ENDCHAR
STARTCHAR tcaron
ENCODING 187
SWIDTH 400 0
DWIDTH 5 0
BBX 5 8 1 0
BITMAP
18
48
F0
80
80
80
80
C0
ENDCHAR
STARTCHAR zacute
ENCODING 188
SWIDTH 480 0
DWIDTH 6 0
BBX 6 9 0 0
BITMAP
08
10
00
7C
48
10
28
44
F8
ENDCHAR
STARTCHAR hungarumlaut
ENCODING 189
SWIDTH 560 0
DWIDTH 7 0
BBX 5 2 1 7
BITMAP
70
60
ENDCHAR
STARTCHAR zcaron
ENCODING 190
SWIDTH 480 0
DWIDTH 6 0
BBX 6 9 0 0
BITMAP
28
38
00
74
48
10
20
48
B8
ENDCHAR
STARTCHAR zdotaccent
ENCODING 191
SWIDTH 480 0
DWIDTH 6 0
BBX 6 8 0 0
BITMAP
10
00
7C
48
10
28
44
F8
ENDCHAR
STARTCHAR Racute
ENCODING 192
SWIDTH 640 0
DWIDTH 8 0
BBX 8 11 0 0
BITMAP
0C
10
7C
22
22
24
38
24
44
44
E3
ENDCHAR
STARTCHAR Aacute
ENCODING 193
SWIDTH 640 0
DWIDTH 8 0
BBX 9 11 -1 0
BITMAP
0300
0400
0600
0600
0A00
1200
1200
3F00
2100
4100
E380
ENDCHAR
STARTCHAR Acircumflex
ENCODING 194
SWIDTH 640 0
DWIDTH 8 0
BBX 9 11 -1 0
BITMAP
0400
0A00
0600
0600
0A00
1200
1200
3F00
2100
4100
E380
ENDCHAR
STARTCHAR Abreve
ENCODING 195
SWIDTH 640 0
DWIDTH 8 0
BBX 9 11 -1 0
BITMAP
0900
0600
0600
0600
0A00
1200
1200
3F00
2100
4100
E380
ENDCHAR
STARTCHAR Adieresis
ENCODING 196
SWIDTH 640 0
DWIDTH 8 0
BBX 8 11 -1 0
BITMAP
0A
00
00
04
0C
0C
14
3E
42
42
C3
ENDCHAR
STARTCHAR Lacute
ENCODING 197
SWIDTH 560 0
DWIDTH 7 0
BBX 6 11 0 0
BITMAP
0C
10
70
20
20
20
20
60
44
44
FC
ENDCHAR
STARTCHAR Cacute
ENCODING 198
SWIDTH 640 0
DWIDTH 8 0
BBX 7 12 1 0
BITMAP
02
04
00
1E
22
42
80
80
80
84
44
38
ENDCHAR
STARTCHAR Ccedilla
ENCODING 199
SWIDTH 640 0
DWIDTH 8 0
BBX 7 12 1 -3
BITMAP
1E
22
42
80
80
80
84
44
38
18
08
30
ENDCHAR
STARTCHAR Ccaron
ENCODING 200
SWIDTH 640 0
DWIDTH 8 0
BBX 8 11 1 0
BITMAP
0A
0E
1E
22
42
80
80
80
84
44
38
ENDCHAR
STARTCHAR Eacute
ENCODING 201
SWIDTH 560 0
DWIDTH 7 0
BBX 7 11 0 0
BITMAP
06
08
7E
22
20
24
38
68
40
44
FC
ENDCHAR
STARTCHAR Eogonek
ENCODING 202
SWIDTH 560 0
DWIDTH 7 0
BBX 7 11 0 -2
BITMAP
7E
22
20
24
38
68
40
44
FC
08
0C
ENDCHAR
STARTCHAR Edieresis
ENCODING 203
SWIDTH 560 0
DWIDTH 7 0
BBX 7 11 0 0
BITMAP
14
00
00
7E
20
24
38
44
40
42
FC
ENDCHAR
STARTCHAR Ecaron
ENCODING 204
SWIDTH 560 0
DWIDTH 7 0
BBX 7 11 0 0
BITMAP
14
1C
7E
22
20
24
38
68
40
44
FC
ENDCHAR
STARTCHAR Iacute
ENCODING 205
SWIDTH 320 0
DWIDTH 4 0
BBX 5 11 0 0
BITMAP
18
20
70
20
20
20
20
40
40
40
E0
ENDCHAR
STARTCHAR Icircumflex
ENCODING 206
SWIDTH 320 0
DWIDTH 4 0
BBX 4 11 0 0
BITMAP
20
50
70
20
20
20
20
40
40
40
E0
ENDCHAR
STARTCHAR Dcaron
ENCODING 207
SWIDTH 720 0
DWIDTH 9 0
BBX 8 11 0 0
BITMAP
14
1C
7C
22
21
21
21
61
42
44
F8
ENDCHAR
STARTCHAR Eth
ENCODING 208
SWIDTH 720 0
DWIDTH 9 0
BBX 8 9 0 0
BITMAP
7C
22
21
21
79
21
42
44
F8
ENDCHAR
STARTCHAR Nacute
ENCODING 209
SWIDTH 640 0
DWIDTH 8 0
BBX 9 12 0 0
BITMAP
0200
0400
0000
6380
3100
3100
2900
4900
4E00
4600
4600
E200
ENDCHAR
STARTCHAR Ncaron
ENCODING 210
SWIDTH 640 0
DWIDTH 8 0
BBX 9 11 0 0
BITMAP
0A00
0E00
6380
3100
3100
2900
4900
4E00
4600
4600
E200
ENDCHAR
STARTCHAR Oacute
ENCODING 211
SWIDTH 720 0
DWIDTH 9 0
BBX 8 12 1 0
BITMAP
04
08
00
1C
22
41
81
81
81
82
44
38
ENDCHAR
STARTCHAR Ocircumflex
ENCODING 212
SWIDTH 720 0
DWIDTH 9 0
BBX 8 11 1 0
BITMAP
08
14
1C
22
41
81
81
81
82
44
38
ENDCHAR
STARTCHAR Ohungarumlaut
ENCODING 213
SWIDTH 720 0
DWIDTH 9 0
BBX 8 11 1 0
BITMAP
0E
0C
1C
22
41
81
81
81
82
44
38
ENDCHAR
STARTCHAR Odieresis
ENCODING 214
SWIDTH 720 0
DWIDTH 9 0
BBX 7 11 1 0
BITMAP
14
00
00
3C
42
82
82
82
84
84
78
ENDCHAR
STARTCHAR multiply
ENCODING 215
SWIDTH 800 0
DWIDTH 10 0
BBX 7 7 2 0
BITMAP
82
44
28
10
28
44
82
ENDCHAR
STARTCHAR Rcaron
ENCODING 216
SWIDTH 640 0
DWIDTH 8 0
BBX 8 11 0 0
BITMAP
14
1C
7C
22
22
24
38
24
44
44
E3
ENDCHAR
STARTCHAR Uring
ENCODING 217
SWIDTH 640 0
DWIDTH 8 0
BBX 8 12 1 0
BITMAP
08
14
08
E7
42
42
42
84
84
84
88
70
ENDCHAR
STARTCHAR Uacute
ENCODING 218
SWIDTH 640 0
DWIDTH 8 0
BBX 8 11 1 0
BITMAP
0C
10
E7
42
42
42
84
84
84
88
70
ENDCHAR
STARTCHAR Uhungarumlaut
ENCODING 219
SWIDTH 640 0
DWIDTH 8 0
BBX 8 11 1 0
BITMAP
1C
18
E7
42
42
42
84
84
84
88
70
ENDCHAR
STARTCHAR Udieresis
ENCODING 220
SWIDTH 640 0
DWIDTH 8 0
BBX 9 11 1 0
BITMAP
1400
0000
0000
F780
4200
4200
C200
8400
8400
8400
F800
ENDCHAR
STARTCHAR Yacute
ENCODING 221
SWIDTH 560 0
DWIDTH 7 0
BBX 8 11 0 0
BITMAP
0C
10
E7
42
64
28
30
30
20
20
70
ENDCHAR
STARTCHAR Tcedilla
ENCODING 222
SWIDTH 560 0
DWIDTH 7 0
BBX 7 12 1 -3
BITMAP
FE
92
10
10
20
20
20
20
70
60
20
C0
ENDCHAR
STARTCHAR germandbls
ENCODING 223
SWIDTH 560 0
DWIDTH 7 0
BBX 8 12 -2 -3
BITMAP
06
09
11
13
14
16
23
29
26
20
20
C0
ENDCHAR
STARTCHAR racute
ENCODING 224
SWIDTH 400 0
DWIDTH 5 0
BBX 6 9 0 0
BITMAP
0C
10
00
D8
68
40
40
80
80
ENDCHAR
STARTCHAR aacute
ENCODING 225
SWIDTH 560 0
DWIDTH 7 0
BBX 6 9 0 0
BITMAP
0C
10
00
3C
4C
88
88
90
7C
ENDCHAR
STARTCHAR acircumflex
ENCODING 226
SWIDTH 560 0
DWIDTH 7 0
BBX 6 9 0 0
BITMAP
10
28
00
3C
4C
88
88
90
7C
ENDCHAR
STARTCHAR abreve
ENCODING 227
SWIDTH 560 0
DWIDTH 7 0
BBX 6 9 0 0
BITMAP
24
18
00
3C
4C
88
88
90
7C
ENDCHAR
STARTCHAR adieresis
ENCODING 228
SWIDTH 560 0
DWIDTH 7 0
BBX 6 9 0 0
BITMAP
24
00
00
3C
48
88
88
98
6C
ENDCHAR
STARTCHAR lacute
ENCODING 229
SWIDTH 240 0
DWIDTH 3 0
BBX 4 11 0 0
BITMAP
30
40
C0
40
40
40
80
80
80
80
C0
ENDCHAR
STARTCHAR cacute
ENCODING 230
SWIDTH 400 0
DWIDTH 5 0
BBX 4 9 0 0
BITMAP
00
10
00
30
50
80
80
90
60
ENDCHAR
STARTCHAR ccedilla
ENCODING 231
SWIDTH 400 0
DWIDTH 5 0
BBX 4 9 0 -3
BITMAP
30
50
80
80
90
60
60
20
C0
ENDCHAR
STARTCHAR ccaron
ENCODING 232
SWIDTH 400 0
DWIDTH 5 0
BBX 6 9 0 0
BITMAP
28
38
00
30
50
80
80
90
60
ENDCHAR
STARTCHAR eacute
ENCODING 233
SWIDTH 400 0
DWIDTH 5 0
BBX 6 9 0 0
BITMAP
0C
10
00
20
50
A0
C0
90
60
ENDCHAR
STARTCHAR eogonek
ENCODING 234
SWIDTH 400 0
DWIDTH 5 0
BBX 4 8 0 -2
BITMAP
20
50
A0
C0
90
60
20
30
ENDCHAR
STARTCHAR edieresis
ENCODING 235
SWIDTH 400 0
DWIDTH 5 0
BBX 6 9 0 0
BITMAP
28
00
00
38
48
D0
E0
8C
70
ENDCHAR
STARTCHAR ecaron
ENCODING 236
SWIDTH 400 0
DWIDTH 5 0
BBX 6 9 0 0
BITMAP
28
38
00
20
50
A0
C0
90
60
ENDCHAR
STARTCHAR iacute
ENCODING 237
SWIDTH 320 0
DWIDTH 4 0
BBX 4 9 1 0
BITMAP
30
40
00
C0
40
40
80
80
E0
ENDCHAR
STARTCHAR icircumflex
ENCODING 238
SWIDTH 320 0
DWIDTH 4 0
BBX 3 9 1 0
BITMAP
40
A0
00
C0
40
40
80
80
E0
ENDCHAR
STARTCHAR dcaron
ENCODING 239
SWIDTH 560 0
DWIDTH 7 0
BBX 8 9 0 0
BITMAP
0F
05
0A
38
48
88
88
90
6C
ENDCHAR
STARTCHAR dmacron
ENCODING 240
SWIDTH 560 0
DWIDTH 7 0
BBX 7 9 0 0
BITMAP
04
3E
08
38
48
88
88
90
6C
ENDCHAR
STARTCHAR nacute
ENCODING 241
SWIDTH 560 0
DWIDTH 7 0
BBX 6 9 1 0
BITMAP
10
20
00
D8
68
48
88
90
9C
ENDCHAR
STARTCHAR ncaron
ENCODING 242
SWIDTH 560 0
DWIDTH 7 0
BBX 6 9 1 0
BITMAP
28
38
00
D8
68
48
88
90
9C
ENDCHAR
STARTCHAR oacute
ENCODING 243
SWIDTH 480 0
DWIDTH 6 0
BBX 5 9 0 0
BITMAP
08
10
00
30
48
88
88
90
60
ENDCHAR
STARTCHAR ocircumflex
ENCODING 244
SWIDTH 480 0
DWIDTH 6 0
BBX 5 9 0 0
BITMAP
10
28
00
30
48
88
88
90
60
ENDCHAR
STARTCHAR ohungarumlaut
ENCODING 245
SWIDTH 480 0
DWIDTH 6 0
BBX 7 9 0 0
BITMAP
1C
18
00
30
48
88
88
90
60
ENDCHAR
STARTCHAR odieresis
ENCODING 246
SWIDTH 480 0
DWIDTH 6 0
BBX 6 9 0 0
BITMAP
24
00
00
38
44
84
84
88
70
ENDCHAR
STARTCHAR divide
ENCODING 247
SWIDTH 800 0
DWIDTH 10 0
BBX 7 5 2 1
BITMAP
10
00
FE
00
10
ENDCHAR
STARTCHAR rcaron
ENCODING 248
SWIDTH 400 0
DWIDTH 5 0
BBX 6 9 0 0
BITMAP
28
38
00
D8
68
40
40
80
80
ENDCHAR
STARTCHAR uring
ENCODING 249
SWIDTH 560 0
DWIDTH 7 0
BBX 6 9 0 0
BITMAP
10
28
10
C4
44
48
88
98
EC
ENDCHAR
STARTCHAR uacute
ENCODING 250
SWIDTH 560 0
DWIDTH 7 0
BBX 6 9 0 0
BITMAP
0C
10
00
C4
44
48
88
98
EC
ENDCHAR
STARTCHAR uhungarumlaut
ENCODING 251
SWIDTH 560 0
DWIDTH 7 0
BBX 7 9 0 0
BITMAP
1C
18
00
C4
44
48
88
98
EC
ENDCHAR
STARTCHAR udieresis
ENCODING 252
SWIDTH 560 0
DWIDTH 7 0
BBX 6 9 0 0
BITMAP
24
00
00
C4
44
44
48
58
6C
ENDCHAR
STARTCHAR yacute
ENCODING 253
SWIDTH 480 0
DWIDTH 6 0
BBX 7 12 -1 -3
BITMAP
06
08
00
62
24
14
18
18
10
10
A0
C0
ENDCHAR
STARTCHAR tcedilla
ENCODING 254
SWIDTH 320 0
DWIDTH 4 0
BBX 3 10 1 -3
BITMAP
40
E0
80
80
80
80
C0
60
20
C0
ENDCHAR
STARTCHAR dotaccent
ENCODING 255
SWIDTH 400 0
DWIDTH 5 0
BBX 1 1 2 8
BITMAP
80
ENDCHAR
ENDFONT
