STARTFONT 2.1
COMMENT +
COMMENT  Copyright 1988 Bitstream, Inc., Cambridge, Massachusetts, USA
COMMENT  Copyright 1996 BIZNET Poland, Inc.
COMMENT
COMMENT  Permission to use, copy, modify, and distribute this software and
COMMENT  its documentation for any purpose and without fee is hereby
COMMENT  granted, provided that the above copyright notice appear in all
COMMENT  copies and that both that copyright notice and this permission
COMMENT  notice appear in supporting documentation, and that the name of
COMMENT  Bitstream not be used in advertising or publicity pertaining to
COMMENT  distribution of the software without specific, written prior
COMMENT  permission.  Bitstream makes no representations about the
COMMENT  suitability of this software for any purpose.  It is provided "as
COMMENT  is" without express or implied warranty.
COMMENT
COMMENT  BITSTREAM DISCLAIMS ALL WARRANTIES WITH REGARD TO THIS SOFTWARE,
COMMENT  INCLUDING ALL IMPLIED WARRANTIES OF MERCHANTABILITY AND FITNESS, IN
COMMENT  NO EVENT SHALL BITSTREAM BE LIABLE FOR ANY SPECIAL, INDIRECT OR
COMMENT  CONSEQUENTIAL DAMAGES OR ANY DAMAGES WHATSOEVER RESULTING FROM LOSS
COMMENT  OF USE, DATA OR PROFITS, WHETHER IN AN ACTION OF CONTRACT,
COMMENT  NEGLIGENCE OR OTHER TORTIOUS ACTION, ARISING OUT OF OR IN
COMMENT  CONNECTION WITH THE USE OR PERFORMANCE OF THIS SOFTWARE.
COMMENT -
FONT -BIZNET-Chartis-Medium-I-Normal--19-180-75-75-P-103-ISO8859-2
SIZE 18 75 75
FONTBOUNDINGBOX 17 19 -3 -4
STARTPROPERTIES 23
FOUNDRY "BIZNET"
FAMILY_NAME "BIZNET Chartis"
WEIGHT_NAME "Medium"
SLANT "I"
SETWIDTH_NAME "Normal"
ADD_STYLE_NAME ""
PIXEL_SIZE 19
POINT_SIZE 180
RESOLUTION_X 75
RESOLUTION_Y 75
SPACING "P"
AVERAGE_WIDTH 103
CHARSET_REGISTRY "ISO8859"
CHARSET_ENCODING "2"
CAP_HEIGHT 13
X_HEIGHT 8
FONT_ASCENT 19
FONT_DESCENT 4
FACE_NAME "BIZNET Chartis Italic"
DEFAULT_CHAR 1
CHARSET_COLLECTIONS "ASCII ISO8859-2"

STARTCHAR space
ENCODING 32
SWIDTH 266 0
DWIDTH 5 0
BBX 1 1 0 0
BITMAP
00
ENDCHAR
STARTCHAR exclam
ENCODING 33
SWIDTH 320 0
DWIDTH 6 0
BBX 4 13 1 0
BITMAP
30
30
30
20
20
60
60
40
40
40
00
C0
C0
ENDCHAR
STARTCHAR quotedbl
ENCODING 34
SWIDTH 373 0
DWIDTH 7 0
BBX 5 5 1 9
BITMAP
D8
D8
D8
48
48
ENDCHAR
STARTCHAR numbersign
ENCODING 35
SWIDTH 746 0
DWIDTH 14 0
BBX 12 14 1 0
BITMAP
0220
0440
0440
0440
7FF0
0880
0880
1100
FFE0
1100
2200
2200
2200
4400
ENDCHAR
STARTCHAR dollar
ENCODING 36
SWIDTH 533 0
DWIDTH 10 0
BBX 9 17 0 -2
BITMAP
0200
0200
0F80
1480
2480
2400
2400
3800
1E00
0F00
0B00
4900
8B00
D600
7C00
1000
1000
ENDCHAR
STARTCHAR percent
ENCODING 37
SWIDTH 853 0
DWIDTH 16 0
BBX 15 13 1 0
BITMAP
3804
6408
4410
8420
8440
8C9C
8922
7222
0442
0842
1046
204C
6038
ENDCHAR
STARTCHAR ampersand
ENCODING 38
SWIDTH 693 0
DWIDTH 13 0
BBX 12 13 0 0
BITMAP
0700
1980
3080
3180
3100
1E00
3CF0
6420
C640
C380
C180
E2C0
7CE0
ENDCHAR
STARTCHAR quoteright
ENCODING 39
SWIDTH 213 0
DWIDTH 4 0
BBX 3 5 1 9
BITMAP
60
60
20
40
C0
ENDCHAR
STARTCHAR parenleft
ENCODING 40
SWIDTH 426 0
DWIDTH 8 0
BBX 8 16 1 -2
BITMAP
03
0C
18
30
30
60
60
60
C0
C0
C0
C0
C0
60
20
18
ENDCHAR
STARTCHAR parenright
ENCODING 41
SWIDTH 426 0
DWIDTH 8 0
BBX 7 16 -1 -2
BITMAP
10
08
04
06
06
06
06
06
04
0C
0C
08
18
10
20
C0
ENDCHAR
STARTCHAR asterisk
ENCODING 42
SWIDTH 480 0
DWIDTH 9 0
BBX 7 7 2 7
BITMAP
10
10
56
EC
30
48
48
ENDCHAR
STARTCHAR plus
ENCODING 43
SWIDTH 853 0
DWIDTH 16 0
BBX 11 11 3 0
BITMAP
0400
0400
0400
0400
0400
FFE0
0400
0400
0400
0400
0400
ENDCHAR
STARTCHAR comma
ENCODING 44
SWIDTH 266 0
DWIDTH 5 0
BBX 3 5 -1 -3
BITMAP
60
60
20
40
80
ENDCHAR
STARTCHAR minus
ENCODING 45
SWIDTH 320 0
DWIDTH 6 0
BBX 4 1 1 5
BITMAP
F0
ENDCHAR
STARTCHAR period
ENCODING 46
SWIDTH 266 0
DWIDTH 5 0
BBX 2 2 0 0
BITMAP
C0
C0
ENDCHAR
STARTCHAR slash
ENCODING 47
SWIDTH 480 0
DWIDTH 9 0
BBX 12 14 -2 -1
BITMAP
0030
0020
0040
0080
0180
0100
0200
0400
0800
0800
1000
2000
4000
C000
ENDCHAR
STARTCHAR zero
ENCODING 48
SWIDTH 533 0
DWIDTH 10 0
BBX 9 13 1 0
BITMAP
0E00
1300
2180
6180
6180
4180
C180
C100
C300
C300
C200
6400
3800
ENDCHAR
STARTCHAR one
ENCODING 49
SWIDTH 533 0
DWIDTH 10 0
BBX 6 13 1 0
BITMAP
1C
7C
0C
08
08
08
18
18
10
10
10
30
FC
ENDCHAR
STARTCHAR two
ENCODING 50
SWIDTH 533 0
DWIDTH 10 0
BBX 10 13 -1 0
BITMAP
0F80
11C0
30C0
30C0
00C0
0180
0180
0200
0400
0800
3080
6080
FF80
ENDCHAR
STARTCHAR three
ENCODING 51
SWIDTH 533 0
DWIDTH 10 0
BBX 9 13 0 0
BITMAP
0F00
3380
2180
2180
0100
0600
1C00
0300
0300
0300
C300
C600
7800
ENDCHAR
STARTCHAR four
ENCODING 52
SWIDTH 533 0
DWIDTH 10 0
BBX 9 14 0 -1
BITMAP
0180
0380
0700
0D00
0900
1300
2300
4300
FF80
0200
0200
0600
0600
0400
ENDCHAR
STARTCHAR five
ENCODING 53
SWIDTH 533 0
DWIDTH 10 0
BBX 9 13 0 0
BITMAP
1F80
2000
2000
2000
2000
3C00
0600
0300
0300
0300
8600
CC00
7000
ENDCHAR
STARTCHAR six
ENCODING 54
SWIDTH 533 0
DWIDTH 10 0
BBX 9 14 0 0
BITMAP
0380
0C00
1800
3000
2000
7E00
6380
C180
C180
C180
C180
C300
6600
3C00
ENDCHAR
STARTCHAR seven
ENCODING 55
SWIDTH 533 0
DWIDTH 10 0
BBX 10 14 1 -1
BITMAP
7FC0
4080
4180
0300
0200
0600
0400
0800
1800
1000
2000
6000
4000
8000
ENDCHAR
STARTCHAR eight
ENCODING 56
SWIDTH 533 0
DWIDTH 10 0
BBX 9 13 0 0
BITMAP
0F00
1980
3080
3080
3080
1900
1E00
2300
4180
C180
C100
6300
3C00
ENDCHAR
STARTCHAR nine
ENCODING 57
SWIDTH 533 0
DWIDTH 10 0
BBX 9 13 1 0
BITMAP
1E00
3300
6180
C180
C180
C180
6300
3F00
0600
0C00
1800
3000
C000
ENDCHAR
STARTCHAR colon
ENCODING 58
SWIDTH 320 0
DWIDTH 6 0
BBX 4 8 1 0
BITMAP
70
30
00
00
00
00
E0
C0
ENDCHAR
STARTCHAR semicolon
ENCODING 59
SWIDTH 320 0
DWIDTH 6 0
BBX 5 11 -1 -3
BITMAP
18
18
00
00
00
00
30
70
10
20
C0
ENDCHAR
STARTCHAR less
ENCODING 60
SWIDTH 853 0
DWIDTH 16 0
BBX 11 10 2 1
BITMAP
0020
01C0
0700
3800
E000
E000
3800
0700
01C0
0020
ENDCHAR
STARTCHAR equal
ENCODING 61
SWIDTH 853 0
DWIDTH 16 0
BBX 11 5 3 4
BITMAP
FFE0
0000
0000
0000
FFE0
ENDCHAR
STARTCHAR greater
ENCODING 62
SWIDTH 853 0
DWIDTH 16 0
BBX 11 10 3 1
BITMAP
8000
7000
1C00
0380
00E0
00E0
0380
1C00
7000
8000
ENDCHAR
STARTCHAR question
ENCODING 63
SWIDTH 480 0
DWIDTH 9 0
BBX 7 13 1 0
BITMAP
78
CE
C6
06
06
0C
18
60
40
40
00
C0
C0
ENDCHAR
STARTCHAR at
ENCODING 64
SWIDTH 960 0
DWIDTH 18 0
BBX 15 16 2 -2
BITMAP
03E0
0C18
1004
6004
41D2
4332
8622
8C22
8C22
8C64
8CE8
C770
6000
3000
1C18
07E0
ENDCHAR
STARTCHAR A
ENCODING 65
SWIDTH 586 0
DWIDTH 11 0
BBX 13 13 -2 0
BITMAP
00C0
01C0
01C0
0240
0240
0460
0860
0FE0
1060
1020
2020
6030
F078
ENDCHAR
STARTCHAR B
ENCODING 66
SWIDTH 586 0
DWIDTH 11 0
BBX 11 13 -1 0
BITMAP
3FC0
08E0
1860
1860
1840
1180
1F80
30C0
3060
3060
20C0
2180
FF00
ENDCHAR
STARTCHAR C
ENCODING 67
SWIDTH 640 0
DWIDTH 12 0
BBX 11 13 1 0
BITMAP
07C0
1C20
3020
2020
6000
C000
C000
C000
C000
C080
6080
3080
1F00
ENDCHAR
STARTCHAR D
ENCODING 68
SWIDTH 640 0
DWIDTH 12 0
BBX 12 13 -1 0
BITMAP
3F80
18C0
1860
1830
1030
1030
3030
3030
3060
2060
20C0
6300
FE00
ENDCHAR
STARTCHAR E
ENCODING 69
SWIDTH 533 0
DWIDTH 10 0
BBX 11 13 0 0
BITMAP
3FE0
0820
1820
1800
1880
1080
1F00
3100
3100
3000
2040
20C0
FF80
ENDCHAR
STARTCHAR F
ENCODING 70
SWIDTH 533 0
DWIDTH 10 0
BBX 11 13 -1 0
BITMAP
3FE0
0860
1860
1800
1880
1080
1F00
3100
3100
3000
2000
2000
F800
ENDCHAR
STARTCHAR G
ENCODING 71
SWIDTH 640 0
DWIDTH 12 0
BBX 11 13 1 0
BITMAP
07E0
0C60
1060
3040
6000
6000
C000
C1E0
C0C0
C080
6080
3180
1F00
ENDCHAR
STARTCHAR H
ENCODING 72
SWIDTH 693 0
DWIDTH 13 0
BBX 14 13 -1 0
BITMAP
3C3C
1818
1810
1810
1030
1030
3FF0
3020
3020
3060
2060
2060
F0F0
ENDCHAR
STARTCHAR I
ENCODING 73
SWIDTH 320 0
DWIDTH 6 0
BBX 7 13 0 0
BITMAP
3E
08
18
18
18
18
10
30
30
30
30
20
F8
ENDCHAR
STARTCHAR J
ENCODING 74
SWIDTH 480 0
DWIDTH 9 0
BBX 10 13 -1 0
BITMAP
07C0
0100
0100
0300
0300
0300
0200
0200
0600
4600
C400
CC00
F800
ENDCHAR
STARTCHAR K
ENCODING 75
SWIDTH 640 0
DWIDTH 12 0
BBX 13 13 -1 0
BITMAP
3EF8
0820
1840
1880
1900
1200
1E00
3600
3300
3300
2180
2080
F8E0
ENDCHAR
STARTCHAR L
ENCODING 76
SWIDTH 480 0
DWIDTH 9 0
BBX 9 13 -1 0
BITMAP
3E00
1800
1800
1800
1800
1000
1000
3000
3000
3080
2080
2180
FF00
ENDCHAR
STARTCHAR M
ENCODING 77
SWIDTH 853 0
DWIDTH 16 0
BBX 17 13 -1 0
BITMAP
3C0780
0C0600
140A00
160A00
161600
163600
162600
226400
224400
238C00
238C00
230C00
F13E00
ENDCHAR
STARTCHAR N
ENCODING 78
SWIDTH 693 0
DWIDTH 13 0
BBX 14 13 -1 0
BITMAP
383C
1C18
1C10
1610
1610
1310
1330
21A0
21A0
20A0
20E0
2060
F040
ENDCHAR
STARTCHAR O
ENCODING 79
SWIDTH 693 0
DWIDTH 13 0
BBX 11 13 1 0
BITMAP
0700
1880
30C0
6060
6060
C060
C060
C060
C0C0
C0C0
6180
2300
1E00
ENDCHAR
STARTCHAR P
ENCODING 80
SWIDTH 533 0
DWIDTH 10 0
BBX 11 13 -1 0
BITMAP
3F80
08C0
1860
1860
1860
10C0
1180
3F00
3000
3000
2000
2000
F000
ENDCHAR
STARTCHAR Q
ENCODING 81
SWIDTH 693 0
DWIDTH 13 0
BBX 12 16 1 -3
BITMAP
0700
1880
30C0
6060
6060
C060
C060
C060
C0C0
C0C0
6180
2300
1E00
0300
0310
01E0
ENDCHAR
STARTCHAR R
ENCODING 82
SWIDTH 586 0
DWIDTH 11 0
BBX 12 13 -1 0
BITMAP
3F80
08E0
1860
1860
1840
1180
1E00
3100
3180
3080
20C0
20C0
F870
ENDCHAR
STARTCHAR S
ENCODING 83
SWIDTH 533 0
DWIDTH 10 0
BBX 10 13 0 0
BITMAP
0780
18C0
1080
3000
3000
1800
0E00
0300
0180
4180
4180
C300
7C00
ENDCHAR
STARTCHAR T
ENCODING 84
SWIDTH 533 0
DWIDTH 10 0
BBX 10 13 1 0
BITMAP
FFC0
8C40
8C40
0800
0800
0800
1800
1800
1800
1000
1000
3000
7800
ENDCHAR
STARTCHAR U
ENCODING 85
SWIDTH 640 0
DWIDTH 12 0
BBX 12 13 1 0
BITMAP
F8F0
2020
2040
6040
6040
6040
6040
C080
C080
C080
C080
E300
3E00
ENDCHAR
STARTCHAR V
ENCODING 86
SWIDTH 586 0
DWIDTH 11 0
BBX 11 13 1 0
BITMAP
F0E0
6040
6080
6080
2100
2100
2200
2200
3400
3400
3800
1800
1000
ENDCHAR
STARTCHAR W
ENCODING 87
SWIDTH 906 0
DWIDTH 17 0
BBX 17 13 1 0
BITMAP
F08780
60C100
61C200
61C200
62C400
22C400
244800
244800
285000
285000
387000
306000
306000
ENDCHAR
STARTCHAR X
ENCODING 88
SWIDTH 533 0
DWIDTH 10 0
BBX 13 13 -2 0
BITMAP
1E78
0820
0C60
0440
0680
0300
0300
0500
0D80
1980
3080
20C0
F1E0
ENDCHAR
STARTCHAR Y
ENCODING 89
SWIDTH 586 0
DWIDTH 11 0
BBX 11 13 1 0
BITMAP
F1E0
6080
2080
3100
3200
1400
1C00
1800
1800
1800
1000
1000
7C00
ENDCHAR
STARTCHAR Z
ENCODING 90
SWIDTH 533 0
DWIDTH 10 0
BBX 11 13 0 0
BITMAP
1FE0
10C0
20C0
0180
0300
0600
0400
0C00
1800
3080
6080
6080
FF80
ENDCHAR
STARTCHAR bracketleft
ENCODING 91
SWIDTH 426 0
DWIDTH 8 0
BBX 7 16 1 -2
BITMAP
1E
10
30
30
20
20
20
20
60
60
40
40
40
C0
C0
F0
ENDCHAR
STARTCHAR backslash
ENCODING 92
SWIDTH 480 0
DWIDTH 9 0
BBX 8 14 1 -1
BITMAP
80
40
40
20
20
10
10
08
08
04
04
02
02
01
ENDCHAR
STARTCHAR bracketright
ENCODING 93
SWIDTH 426 0
DWIDTH 8 0
BBX 8 16 -1 -2
BITMAP
1F
03
03
02
02
06
06
04
04
04
0C
0C
08
08
18
F8
ENDCHAR
STARTCHAR asciicircum
ENCODING 94
SWIDTH 1013 0
DWIDTH 19 0
BBX 11 5 4 9
BITMAP
0E00
1B00
3180
60C0
8020
ENDCHAR
STARTCHAR underscore
ENCODING 95
SWIDTH 480 0
DWIDTH 9 0
BBX 9 1 0 -4
BITMAP
FF80
ENDCHAR
STARTCHAR quoteleft
ENCODING 96
SWIDTH 213 0
DWIDTH 4 0
BBX 4 5 1 9
BITMAP
30
40
C0
E0
E0
ENDCHAR
STARTCHAR a
ENCODING 97
SWIDTH 533 0
DWIDTH 10 0
BBX 9 8 0 0
BITMAP
0F80
3180
6100
C100
C300
C300
E600
7B80
ENDCHAR
STARTCHAR b
ENCODING 98
SWIDTH 480 0
DWIDTH 9 0
BBX 8 14 0 0
BITMAP
E0
20
60
60
60
60
5E
63
43
C3
82
86
8C
70
ENDCHAR
STARTCHAR c
ENCODING 99
SWIDTH 373 0
DWIDTH 7 0
BBX 6 8 0 0
BITMAP
1C
2C
40
C0
C0
C0
CC
30
ENDCHAR
STARTCHAR d
ENCODING 100
SWIDTH 533 0
DWIDTH 10 0
BBX 9 14 0 0
BITMAP
0380
0080
0080
0080
0100
0100
0F00
3100
6100
C100
C300
C300
C600
7B80
ENDCHAR
STARTCHAR e
ENCODING 101
SWIDTH 426 0
DWIDTH 8 0
BBX 7 8 0 0
BITMAP
1C
26
66
48
F0
C0
C6
38
ENDCHAR
STARTCHAR f
ENCODING 102
SWIDTH 266 0
DWIDTH 5 0
BBX 10 18 -3 -4
BITMAP
01C0
02C0
0200
0600
0400
0400
1F80
0C00
0C00
0C00
0800
0800
0800
1800
1000
1000
A000
C000
ENDCHAR
STARTCHAR g
ENCODING 103
SWIDTH 533 0
DWIDTH 10 0
BBX 10 12 0 -4
BITMAP
0C00
33C0
6300
6600
1800
1000
3800
4E00
8300
8300
C600
7800
ENDCHAR
STARTCHAR h
ENCODING 104
SWIDTH 533 0
DWIDTH 10 0
BBX 9 14 0 0
BITMAP
7000
1000
1000
3000
3000
3000
2700
3B00
6300
6300
6200
4200
4600
C380
ENDCHAR
STARTCHAR i
ENCODING 105
SWIDTH 266 0
DWIDTH 5 0
BBX 4 14 1 0
BITMAP
30
30
30
00
00
00
E0
60
60
40
C0
C0
C0
F0
ENDCHAR
STARTCHAR j
ENCODING 106
SWIDTH 266 0
DWIDTH 5 0
BBX 7 18 -2 -4
BITMAP
06
06
06
00
00
00
1C
04
04
0C
0C
08
08
08
18
10
10
E0
ENDCHAR
STARTCHAR k
ENCODING 107
SWIDTH 533 0
DWIDTH 10 0
BBX 9 14 0 0
BITMAP
7800
1000
1000
1000
3000
3000
2180
2680
2800
7800
6C00
4400
4600
C380
ENDCHAR
STARTCHAR l
ENCODING 108
SWIDTH 266 0
DWIDTH 5 0
BBX 4 14 0 0
BITMAP
F0
30
30
20
20
60
60
40
40
40
C0
C0
C0
F0
ENDCHAR
STARTCHAR m
ENCODING 109
SWIDTH 800 0
DWIDTH 15 0
BBX 14 8 1 0
BITMAP
EF78
3398
6318
6318
4310
4210
C230
C63C
ENDCHAR
STARTCHAR n
ENCODING 110
SWIDTH 533 0
DWIDTH 10 0
BBX 9 8 1 0
BITMAP
EF00
7300
6300
4300
4200
4200
C600
C780
ENDCHAR
STARTCHAR o
ENCODING 111
SWIDTH 480 0
DWIDTH 9 0
BBX 8 8 0 0
BITMAP
1C
26
63
C3
C3
C6
44
38
ENDCHAR
STARTCHAR p
ENCODING 112
SWIDTH 533 0
DWIDTH 10 0
BBX 10 12 -1 -4
BITMAP
3780
18C0
10C0
30C0
20C0
2180
2300
3C00
2000
6000
4000
F000
ENDCHAR
STARTCHAR q
ENCODING 113
SWIDTH 533 0
DWIDTH 10 0
BBX 9 12 0 -4
BITMAP
0E80
3180
6100
C100
C300
C300
C700
7A00
0200
0600
0600
0F80
ENDCHAR
STARTCHAR r
ENCODING 114
SWIDTH 373 0
DWIDTH 7 0
BBX 7 8 0 0
BITMAP
EE
36
60
60
40
40
C0
C0
ENDCHAR
STARTCHAR s
ENCODING 115
SWIDTH 373 0
DWIDTH 7 0
BBX 6 8 0 0
BITMAP
1C
24
60
30
18
CC
88
70
ENDCHAR
STARTCHAR t
ENCODING 116
SWIDTH 320 0
DWIDTH 6 0
BBX 5 11 1 0
BITMAP
20
20
60
F8
40
40
40
C0
80
C0
F0
ENDCHAR
STARTCHAR u
ENCODING 117
SWIDTH 533 0
DWIDTH 10 0
BBX 8 8 1 0
BITMAP
E3
63
42
42
C6
C6
CE
F7
ENDCHAR
STARTCHAR v
ENCODING 118
SWIDTH 480 0
DWIDTH 9 0
BBX 9 8 0 0
BITMAP
E180
3180
3100
3100
3200
1400
1800
3000
ENDCHAR
STARTCHAR w
ENCODING 119
SWIDTH 693 0
DWIDTH 13 0
BBX 13 8 0 0
BITMAP
E118
6318
6310
2510
2920
2940
3180
2180
ENDCHAR
STARTCHAR x
ENCODING 120
SWIDTH 480 0
DWIDTH 9 0
BBX 10 8 -1 0
BITMAP
78C0
1940
0A00
0C00
0C00
1400
A600
C380
ENDCHAR
STARTCHAR y
ENCODING 121
SWIDTH 480 0
DWIDTH 9 0
BBX 11 12 -2 -4
BITMAP
3860
0840
0880
0C80
0D00
0500
0600
0600
0400
0800
D000
E000
ENDCHAR
STARTCHAR z
ENCODING 122
SWIDTH 426 0
DWIDTH 8 0
BBX 9 8 -1 0
BITMAP
3F80
4100
6600
0C00
1800
3300
6900
FE00
ENDCHAR
STARTCHAR braceleft
ENCODING 123
SWIDTH 480 0
DWIDTH 9 0
BBX 7 16 1 -2
BITMAP
0E
18
10
10
10
10
30
C0
30
10
10
10
10
10
18
0E
ENDCHAR
STARTCHAR bar
ENCODING 124
SWIDTH 480 0
DWIDTH 9 0
BBX 1 19 4 -4
BITMAP
80
80
80
80
80
80
80
80
80
80
80
80
80
80
80
80
80
80
80
ENDCHAR
STARTCHAR braceright
ENCODING -1 125
SWIDTH 480 0
DWIDTH 9 0
BBX 7 16 1 -2
BITMAP
E0
30
10
10
10
10
18
06
18
10
10
10
10
10
30
E0
ENDCHAR
STARTCHAR asciitilde
ENCODING 126
SWIDTH 1013 0
DWIDTH 19 0
BBX 11 2 4 11
BITMAP
3C60
C780
ENDCHAR
STARTCHAR Aogonek
ENCODING 161
SWIDTH 586 0
DWIDTH 11 0
BBX 13 16 -2 -3
BITMAP
00C0
01C0
01C0
0240
0240
0460
0860
0FE0
1060
1020
2020
6030
F078
0020
0020
0030
ENDCHAR
STARTCHAR breve
ENCODING 162
SWIDTH 426 0
DWIDTH 8 0
BBX 6 2 1 11
BITMAP
CC
78
ENDCHAR
STARTCHAR Lslash
ENCODING 163
SWIDTH 480 0
DWIDTH 9 0
BBX 9 13 -1 0
BITMAP
3E00
1800
1800
1C00
1C00
1800
3000
7000
7000
3080
2080
2180
FF00
ENDCHAR
STARTCHAR currency
ENCODING 164
SWIDTH 586 0
DWIDTH 11 0
BBX 10 10 1 4
BITMAP
8040
5E80
2100
4080
4080
4080
4080
2100
5E80
8040
ENDCHAR
STARTCHAR Lcaron
ENCODING 165
SWIDTH 480 0
DWIDTH 9 0
BBX 10 13 -1 0
BITMAP
3EC0
18C0
1840
1880
1980
1000
1000
3000
3000
3080
2080
2180
FF00
ENDCHAR
STARTCHAR Sacute
ENCODING 166
SWIDTH 533 0
DWIDTH 10 0
BBX 10 16 0 0
BITMAP
0180
0300
0000
0780
18C0
1080
3000
3000
1800
0E00
0300
0180
4180
4180
C300
7C00
ENDCHAR
STARTCHAR section
ENCODING 167
SWIDTH 480 0
DWIDTH 9 0
BBX 9 16 0 -2
BITMAP
0F80
1080
3100
3000
3C00
1E00
2300
4100
4100
6200
3C00
1E00
0600
8600
8400
7800
ENDCHAR
STARTCHAR dieresis
ENCODING 168
SWIDTH 480 0
DWIDTH 9 0
BBX 5 2 3 12
BITMAP
D8
D8
ENDCHAR
STARTCHAR Scaron
ENCODING 169
SWIDTH 533 0
DWIDTH 10 0
BBX 10 18 0 0
BITMAP
0880
0500
0700
0600
0000
0F80
1880
3080
3080
3000
3800
1E00
0700
0180
4180
4180
C300
7C00
ENDCHAR
STARTCHAR Scedilla
ENCODING 170
SWIDTH 533 0
DWIDTH 10 0
BBX 10 17 0 -4
BITMAP
0780
18C0
1080
3000
3000
1800
0E00
0300
0180
4180
4180
C300
7C00
1000
1800
0800
7000
ENDCHAR
STARTCHAR Tcaron
ENCODING 171
SWIDTH 533 0
DWIDTH 10 0
BBX 10 17 1 0
BITMAP
1100
0A00
0E00
0C00
FFC0
8C40
8C40
0800
0800
0800
1800
1800
1800
1000
1000
3000
7800
ENDCHAR
STARTCHAR Zacute
ENCODING 172
SWIDTH 533 0
DWIDTH 10 0
BBX 11 16 0 0
BITMAP
0180
0300
0000
1FE0
10C0
20C0
0180
0300
0600
0400
0C00
1800
3080
6080
6080
FF80
ENDCHAR
STARTCHAR hyphen
ENCODING 173
SWIDTH 320 0
DWIDTH 6 0
BBX 4 1 1 5
BITMAP
F0
ENDCHAR
STARTCHAR Zcaron
ENCODING 174
SWIDTH 533 0
DWIDTH 10 0
BBX 11 18 0 0
BITMAP
0440
0280
0380
0300
0000
1FE0
10C0
20C0
0180
0300
0600
0400
0C00
1800
3000
6080
6080
FF80
ENDCHAR
STARTCHAR Zdotaccent
ENCODING 175
SWIDTH 533 0
DWIDTH 10 0
BBX 11 16 0 0
BITMAP
0300
0300
0000
1FE0
10C0
20C0
0180
0300
0600
0400
0C00
1800
3080
6080
6080
FF80
ENDCHAR
STARTCHAR degree
ENCODING 176
SWIDTH 320 0
DWIDTH 6 0
BBX 5 5 1 9
BITMAP
70
88
88
88
70
ENDCHAR
STARTCHAR aogonek
ENCODING 177
SWIDTH 533 0
DWIDTH 10 0
BBX 9 11 0 -3
BITMAP
0F80
3180
6100
C100
C300
C300
E600
7B80
0200
0200
0300
ENDCHAR
STARTCHAR ogonek
ENCODING 178
SWIDTH 373 0
DWIDTH 7 0
BBX 3 4 2 -4
BITMAP
20
40
C0
60
ENDCHAR
STARTCHAR lslash
ENCODING 179
SWIDTH 266 0
DWIDTH 5 0
BBX 6 14 -1 0
BITMAP
78
18
18
14
1C
38
30
60
E0
A0
60
60
60
78
ENDCHAR
STARTCHAR acute
ENCODING 180
SWIDTH 480 0
DWIDTH 9 0
BBX 4 4 5 10
BITMAP
30
60
40
80
ENDCHAR
STARTCHAR lcaron
ENCODING 181
SWIDTH 212 0
DWIDTH 4 0
BBX 7 14 0 0
BITMAP
F6
36
32
24
2C
60
60
40
40
40
C0
C0
C0
F0
ENDCHAR
STARTCHAR sacute
ENCODING 182
SWIDTH 373 0
DWIDTH 7 0
BBX 7 11 -1 0
BITMAP
06
0C
00
1C
24
60
30
18
CC
88
70
ENDCHAR
STARTCHAR caron
ENCODING 183
SWIDTH 373 0
DWIDTH 7 0
BBX 5 4 1 10
BITMAP
88
50
70
60
ENDCHAR
STARTCHAR cedilla
ENCODING 184
SWIDTH 426 0
DWIDTH 8 0
BBX 4 4 2 -4
BITMAP
20
30
10
E0
ENDCHAR
STARTCHAR scaron
ENCODING 185
SWIDTH 373 0
DWIDTH 7 0
BBX 7 14 0 0
BITMAP
22
14
1C
18
00
3C
64
60
60
38
1C
0C
CC
F8
ENDCHAR
STARTCHAR scedilla
ENCODING 186
SWIDTH 373 0
DWIDTH 7 0
BBX 6 12 0 -4
BITMAP
1C
24
60
30
18
CC
88
70
20
30
10
E0
ENDCHAR
STARTCHAR tcaron
ENCODING 187
SWIDTH 320 0
DWIDTH 6 0
BBX 7 12 1 0
BITMAP
06
26
22
64
FC
40
40
40
C0
80
C0
F0
ENDCHAR
STARTCHAR zacute
ENCODING 188
SWIDTH 426 0
DWIDTH 8 0
BBX 10 14 -1 0
BITMAP
00C0
0180
0100
0200
0000
0000
3F80
4100
6600
0C00
1800
3300
6900
FE00
ENDCHAR
STARTCHAR hungarumlaut
ENCODING 189
SWIDTH 479 0
DWIDTH 9 0
BBX 7 4 1 10
BITMAP
36
6C
58
A0
ENDCHAR
STARTCHAR zcaron
ENCODING 190
SWIDTH 426 0
DWIDTH 8 0
BBX 8 14 0 0
BITMAP
11
0A
0E
0C
00
39
4E
44
48
08
12
22
72
9C
ENDCHAR
STARTCHAR zdotaccent
ENCODING 191
SWIDTH 426 0
DWIDTH 8 0
BBX 9 11 -1 0
BITMAP
0C00
0C00
0000
3F80
4100
6600
0C00
1800
3300
6900
FE00
ENDCHAR
STARTCHAR Racute
ENCODING 192
SWIDTH 586 0
DWIDTH 11 0
BBX 12 17 -1 0
BITMAP
00C0
0180
0100
0200
3F80
08E0
1860
1860
1840
1180
1E00
3100
3180
3080
20C0
20C0
F870
ENDCHAR
STARTCHAR Aacute
ENCODING 193
SWIDTH 586 0
DWIDTH 11 0
BBX 13 17 -2 0
BITMAP
0018
0030
0020
0040
00C0
01C0
01C0
0240
0240
0460
0860
0FE0
1060
1020
2020
6030
F078
ENDCHAR
STARTCHAR Acircumflex
ENCODING 194
SWIDTH 586 0
DWIDTH 11 0
BBX 13 17 -2 0
BITMAP
0060
0060
0090
0110
00C0
01C0
01C0
0240
0240
0460
0860
0FE0
1060
1020
2020
6030
F078
ENDCHAR
STARTCHAR Abreve
ENCODING 195
SWIDTH 586 0
DWIDTH 11 0
BBX 13 17 -2 0
BITMAP
0330
01E0
0000
0000
00C0
01C0
01C0
0240
0240
0460
0860
0FE0
1060
1020
2020
6030
F078
ENDCHAR
STARTCHAR Adieresis
ENCODING 196
SWIDTH 586 0
DWIDTH 11 0
BBX 12 17 -1 0
BITMAP
0660
0660
0000
0000
0180
0180
0280
0280
04C0
04C0
0840
0FC0
1040
2040
2060
4060
F0F0
ENDCHAR
STARTCHAR Lacute
ENCODING 197
SWIDTH 480 0
DWIDTH 9 0
BBX 9 17 -1 0
BITMAP
0180
0300
0200
0400
3E00
1800
1800
1800
1800
1000
1000
3000
3000
3080
2080
2180
FF00
ENDCHAR
STARTCHAR Cacute
ENCODING 198
SWIDTH 640 0
DWIDTH 12 0
BBX 11 16 1 0
BITMAP
00C0
0180
0000
07C0
1C20
3020
2020
6000
C000
C000
C000
C000
C080
6080
3080
1F00
ENDCHAR
STARTCHAR Ccedilla
ENCODING 199
SWIDTH 640 0
DWIDTH 12 0
BBX 11 17 1 -4
BITMAP
07C0
1C20
3020
2020
6000
C000
C000
C000
C000
C080
6080
3080
1F00
0400
0600
0200
1C00
ENDCHAR
STARTCHAR Ccaron
ENCODING 200
SWIDTH 640 0
DWIDTH 12 0
BBX 11 17 1 0
BITMAP
0220
0140
01C0
0180
07C0
1C20
3020
2020
6000
C000
C000
C000
C000
C080
6080
3080
1F00
ENDCHAR
STARTCHAR Eacute
ENCODING 201
SWIDTH 533 0
DWIDTH 10 0
BBX 11 17 0 0
BITMAP
00C0
0180
0100
0200
3FE0
0820
1820
1800
1880
1080
1F00
3100
3100
3000
2040
20C0
FF80
ENDCHAR
STARTCHAR Eogonek
ENCODING 202
SWIDTH 533 0
DWIDTH 10 0
BBX 11 16 0 -3
BITMAP
3FE0
0820
1820
1800
1880
1080
1F00
3100
3100
3000
2040
20C0
FF80
0200
0200
0300
ENDCHAR
STARTCHAR Edieresis
ENCODING 203
SWIDTH 533 0
DWIDTH 10 0
BBX 11 17 -1 0
BITMAP
06C0
06C0
0000
0000
3FE0
1860
1860
1800
1880
1080
1F00
3100
3100
3000
2040
20C0
FF80
ENDCHAR
STARTCHAR Ecaron
ENCODING 204
SWIDTH 533 0
DWIDTH 10 0
BBX 11 17 0 0
BITMAP
0440
0280
0380
0300
3FE0
0820
1820
1800
1880
1080
1F00
3100
3100
3000
2040
20C0
FF80
ENDCHAR
STARTCHAR Iacute
ENCODING 205
SWIDTH 320 0
DWIDTH 6 0
BBX 8 17 0 0
BITMAP
03
06
04
08
3E
08
18
18
18
18
10
30
30
30
30
20
F8
ENDCHAR
STARTCHAR Icircumflex
ENCODING 206
SWIDTH 320 0
DWIDTH 6 0
BBX 7 17 0 0
BITMAP
0C
0C
12
22
3E
08
18
18
18
18
10
30
30
30
30
20
F8
ENDCHAR
STARTCHAR Dcaron
ENCODING 207
SWIDTH 640 0
DWIDTH 12 0
BBX 12 17 -1 0
BITMAP
0440
0280
0380
0300
3F80
18C0
1860
1830
1030
1030
3030
3030
3060
2060
20C0
6300
FE00
ENDCHAR
STARTCHAR Eth
ENCODING 208
SWIDTH 693 0
DWIDTH 13 0
BBX 12 13 0 0
BITMAP
3F80
18C0
1860
1830
1030
1030
7E30
3030
3060
3060
20C0
2300
FE00
ENDCHAR
STARTCHAR Nacute
ENCODING 209
SWIDTH 693 0
DWIDTH 13 0
BBX 14 16 -1 0
BITMAP
00C0
0180
0000
383C
1C18
1C10
1610
1610
1310
1330
21A0
21A0
20A0
20E0
2060
F040
ENDCHAR
STARTCHAR Ncaron
ENCODING 210
SWIDTH 693 0
DWIDTH 13 0
BBX 14 17 -1 0
BITMAP
0110
00A0
00E0
00C0
383C
1C18
1C10
1610
1610
1310
1330
21A0
21A0
20A0
20E0
2060
F040
ENDCHAR
STARTCHAR Oacute
ENCODING 211
SWIDTH 693 0
DWIDTH 13 0
BBX 11 16 1 0
BITMAP
0180
0300
0000
0700
1880
30C0
6060
6060
C060
C060
C060
C0C0
C0C0
6180
2300
1E00
ENDCHAR
STARTCHAR Ocircumflex
ENCODING 212
SWIDTH 693 0
DWIDTH 13 0
BBX 11 17 1 0
BITMAP
0180
0180
0240
0440
0700
1880
30C0
6060
6060
C060
C060
C060
C0C0
C0C0
6180
2300
1E00
ENDCHAR
STARTCHAR Ohungarumlaut
ENCODING 213
SWIDTH 693 0
DWIDTH 13 0
BBX 12 17 1 0
BITMAP
01B0
0360
02C0
0500
0700
1880
30C0
6060
6060
C060
C060
C060
C0C0
C0C0
6180
2300
1E00
ENDCHAR
STARTCHAR Odieresis
ENCODING 214
SWIDTH 693 0
DWIDTH 13 0
BBX 12 17 1 0
BITMAP
0CC0
0CC0
0000
0000
0780
18C0
3060
6030
4030
C030
C030
C030
C060
C060
C0C0
6180
3F00
ENDCHAR
STARTCHAR multiply
ENCODING 215
SWIDTH 853 0
DWIDTH 16 0
BBX 10 10 3 1
BITMAP
8040
4080
2100
1200
0C00
0C00
1200
2100
4080
8040
ENDCHAR
STARTCHAR Rcaron
ENCODING 216
SWIDTH 586 0
DWIDTH 11 0
BBX 12 17 -1 0
BITMAP
0440
0280
0380
0300
3F80
08E0
1860
1860
1840
1180
1E00
3100
3180
3080
20C0
20C0
F870
ENDCHAR
STARTCHAR Uring
ENCODING 217
SWIDTH 640 0
DWIDTH 12 0
BBX 12 19 1 0
BITMAP
0600
0900
0900
0900
0600
0000
F8F0
2020
2040
6040
6040
6040
6040
C080
C080
C080
C080
E300
3E00
ENDCHAR
STARTCHAR Uacute
ENCODING 218
SWIDTH 640 0
DWIDTH 12 0
BBX 12 17 1 0
BITMAP
00C0
0180
0100
0200
F8F0
2020
2040
6040
6040
6040
6040
C080
C080
C080
C080
E300
3E00
ENDCHAR
STARTCHAR Uhungarumlaut
ENCODING 219
SWIDTH 640 0
DWIDTH 12 0
BBX 12 17 1 0
BITMAP
01B0
0360
02C0
0500
F8F0
2020
2040
6040
6040
6040
6040
C080
C080
C080
C080
E300
3E00
ENDCHAR
STARTCHAR Udieresis
ENCODING 220
SWIDTH 640 0
DWIDTH 12 0
BBX 12 17 1 0
BITMAP
0CC0
0CC0
0000
0000
F8F0
6060
6040
6040
6040
4040
C0C0
C080
C080
C080
C180
C300
7E00
ENDCHAR
STARTCHAR Yacute
ENCODING 221
SWIDTH 586 0
DWIDTH 11 0
BBX 11 17 1 0
BITMAP
0180
0300
0200
0400
F1E0
6080
2080
3100
3200
1400
1C00
1800
1800
1800
1000
1000
7C00
ENDCHAR
STARTCHAR Tcedilla
ENCODING 222
SWIDTH 533 0
DWIDTH 10 0
BBX 10 17 1 -4
BITMAP
FFC0
8C40
8C40
0800
0800
0800
1800
1800
1800
1000
1000
3000
7800
2000
3000
1000
E000
ENDCHAR
STARTCHAR germandbls
ENCODING 223
SWIDTH 586 0
DWIDTH 11 0
BBX 13 18 -3 -4
BITMAP
00E0
0318
0218
0618
0410
0470
0480
0C80
0CC0
0870
0838
0B10
0B30
19C0
1000
1000
A000
C000
ENDCHAR
STARTCHAR racute
ENCODING 224
SWIDTH 373 0
DWIDTH 7 0
BBX 8 14 0 0
BITMAP
03
06
04
08
00
00
EE
36
60
60
40
40
C0
C0
ENDCHAR
STARTCHAR aacute
ENCODING 225
SWIDTH 533 0
DWIDTH 10 0
BBX 9 14 0 0
BITMAP
0180
0300
0200
0400
0000
0000
0F80
3180
6100
C100
C300
C300
E600
7B80
ENDCHAR
STARTCHAR acircumflex
ENCODING 226
SWIDTH 533 0
DWIDTH 10 0
BBX 9 14 0 0
BITMAP
0600
0600
0900
1100
0000
0000
0F80
3180
6100
C100
C300
C300
E600
7B80
ENDCHAR
STARTCHAR abreve
ENCODING 227
SWIDTH 533 0
DWIDTH 10 0
BBX 10 14 0 0
BITMAP
0CC0
0780
0000
0000
0000
0000
0F80
3180
6100
C100
C300
C300
E600
7B80
ENDCHAR
STARTCHAR adieresis
ENCODING 228
SWIDTH 533 0
DWIDTH 10 0
BBX 9 13 0 0
BITMAP
1980
1980
0000
0000
1F80
3300
6100
C300
C300
C200
C200
C600
7B80
ENDCHAR
STARTCHAR lacute
ENCODING 229
SWIDTH 266 0
DWIDTH 5 0
BBX 6 18 0 0
BITMAP
0C
18
10
20
F0
30
30
20
20
60
60
40
40
40
C0
C0
C0
F0
ENDCHAR
STARTCHAR cacute
ENCODING 230
SWIDTH 373 0
DWIDTH 7 0
BBX 7 11 -1 0
BITMAP
06
0C
00
1C
2C
40
C0
C0
C0
CC
30
ENDCHAR
STARTCHAR ccedilla
ENCODING 231
SWIDTH 373 0
DWIDTH 7 0
BBX 6 12 0 -4
BITMAP
1C
2C
40
C0
C0
C0
CC
30
20
30
10
E0
ENDCHAR
STARTCHAR ccaron
ENCODING 232
SWIDTH 373 0
DWIDTH 7 0
BBX 9 14 0 0
BITMAP
0880
0500
0700
0600
0000
0000
1C00
2C00
4000
C000
C000
C000
CC00
3000
ENDCHAR
STARTCHAR eacute
ENCODING 233
SWIDTH 426 0
DWIDTH 8 0
BBX 9 14 0 0
BITMAP
0180
0300
0200
0400
0000
0000
1C00
2600
6600
4800
F000
C000
C600
3800
ENDCHAR
STARTCHAR eogonek
ENCODING 234
SWIDTH 426 0
DWIDTH 8 0
BBX 7 11 0 -3
BITMAP
1C
26
66
48
F0
C0
C6
38
10
10
18
ENDCHAR
STARTCHAR edieresis
ENCODING 235
SWIDTH 426 0
DWIDTH 8 0
BBX 8 13 0 0
BITMAP
1B
1B
00
00
1E
26
66
4C
F8
C0
C0
E6
78
ENDCHAR
STARTCHAR ecaron
ENCODING 236
SWIDTH 426 0
DWIDTH 8 0
BBX 9 14 0 0
BITMAP
0880
0500
0700
0600
0000
0000
1C00
2600
6600
4800
F000
C000
C600
3800
ENDCHAR
STARTCHAR iacute
ENCODING 237
SWIDTH 266 0
DWIDTH 5 0
BBX 6 14 1 0
BITMAP
0C
18
10
20
00
00
E0
60
40
40
C0
C0
C0
F0
ENDCHAR
STARTCHAR icircumflex
ENCODING 238
SWIDTH 266 0
DWIDTH 5 0
BBX 5 14 1 0
BITMAP
30
30
48
88
00
00
E0
60
40
40
C0
C0
C0
F0
ENDCHAR
STARTCHAR dcaron
ENCODING 239
SWIDTH 479 0
DWIDTH 9 0
BBX 12 14 0 0
BITMAP
03B0
00B0
0090
00A0
0160
0100
0F00
3100
6100
C100
C300
C300
C600
7B80
ENDCHAR
STARTCHAR dmacron
ENCODING 240
SWIDTH 533 0
DWIDTH 10 0
BBX 11 14 0 0
BITMAP
0380
0080
0080
3FE0
0100
0100
0F00
3100
6100
C100
C300
C300
C600
7B80
ENDCHAR
STARTCHAR nacute
ENCODING 241
SWIDTH 533 0
DWIDTH 10 0
BBX 9 11 1 0
BITMAP
0C00
1800
0000
EF00
7300
6300
4300
4200
4200
C600
C780
ENDCHAR
STARTCHAR ncaron
ENCODING 242
SWIDTH 533 0
DWIDTH 10 0
BBX 9 14 1 0
BITMAP
0880
0500
0700
0600
0000
0000
EF00
7300
6300
4300
4200
4200
C600
C780
ENDCHAR
STARTCHAR oacute
ENCODING 243
SWIDTH 480 0
DWIDTH 9 0
BBX 8 11 0 0
BITMAP
06
0C
00
1C
26
63
C3
C3
C6
44
38
ENDCHAR
STARTCHAR ocircumflex
ENCODING 244
SWIDTH 480 0
DWIDTH 9 0
BBX 8 14 0 0
BITMAP
06
06
09
11
00
00
1C
26
63
C3
C3
C6
44
38
ENDCHAR
STARTCHAR ohungarumlaut
ENCODING 245
SWIDTH 480 0
DWIDTH 9 0
BBX 10 14 0 0
BITMAP
06C0
0D80
0B00
1400
0000
0000
1C00
2600
6300
C300
C300
C600
4400
3800
ENDCHAR
STARTCHAR odieresis
ENCODING 246
SWIDTH 480 0
DWIDTH 9 0
BBX 9 13 0 0
BITMAP
1B00
1B00
0000
0000
1E00
3300
6180
C180
C180
C180
C300
6700
3C00
ENDCHAR
STARTCHAR divide
ENCODING 247
SWIDTH 853 0
DWIDTH 16 0
BBX 12 9 2 2
BITMAP
0600
0600
0000
0000
FFF0
0000
0000
0600
0600
ENDCHAR
STARTCHAR rcaron
ENCODING 248
SWIDTH 373 0
DWIDTH 7 0
BBX 8 14 0 0
BITMAP
11
0A
0E
0C
00
00
EE
36
60
60
40
40
C0
C0
ENDCHAR
STARTCHAR uring
ENCODING 249
SWIDTH 533 0
DWIDTH 10 0
BBX 8 15 1 0
BITMAP
18
24
24
24
18
00
00
E3
63
42
42
C6
C6
CE
F7
ENDCHAR
STARTCHAR uacute
ENCODING 250
SWIDTH 533 0
DWIDTH 10 0
BBX 8 14 1 0
BITMAP
03
06
04
08
00
00
E3
63
42
42
C6
C6
CE
F7
ENDCHAR
STARTCHAR uhungarumlaut
ENCODING 251
SWIDTH 533 0
DWIDTH 10 0
BBX 10 14 1 0
BITMAP
06C0
0D80
0B00
1400
0000
0000
E300
6300
4200
4200
C600
C600
CE00
F700
ENDCHAR
STARTCHAR udieresis
ENCODING 252
SWIDTH 533 0
DWIDTH 10 0
BBX 9 13 1 0
BITMAP
3300
3300
0000
0000
E300
6300
4300
4200
4200
C600
C600
CE00
F700
ENDCHAR
STARTCHAR yacute
ENCODING 253
SWIDTH 480 0
DWIDTH 9 0
BBX 11 18 -2 -4
BITMAP
0060
00C0
0080
0100
0000
0000
3860
0840
0880
0C80
0D00
0500
0600
0600
0400
0800
D000
E000
ENDCHAR
STARTCHAR tcedilla
ENCODING 254
SWIDTH 320 0
DWIDTH 6 0
BBX 5 15 1 -4
BITMAP
20
20
60
F8
40
40
40
C0
80
C0
F0
20
30
10
E0
ENDCHAR
STARTCHAR dotaccent
ENCODING 255
SWIDTH 319 0
DWIDTH 6 0
BBX 2 2 2 11
BITMAP
C0
C0
ENDCHAR
ENDFONT
