STARTFONT 2.1
COMMENT +
COMMENT  Copyright 1986, 1985 Bigelow & Holmes. 
COMMENT  Copyright 1996 BIZNET Poland, Inc.
COMMENT -
FONT -BIZNET-Fotinos-Medium-R-Normal-Sans-14-140-75-75-P-81-ISO8859-2
SIZE 14 72 72
FONTBOUNDINGBOX 11 13 0 -2
STARTPROPERTIES 21
FOUNDRY "BIZNET"
FAMILY_NAME "BIZNET Fotinos"
WEIGHT_NAME "Medium"
SLANT "R"
SETWIDTH_NAME "Normal"
ADD_STYLE_NAME "Sans"
PIXEL_SIZE 14
POINT_SIZE 140
RESOLUTION_X 75
RESOLUTION_Y 75
SPACING "P"
AVERAGE_WIDTH 81
CHARSET_REGISTRY "ISO8859"
CHARSET_ENCODING "2"
FONT_ASCENT 13
FONT_DESCENT 2
FACE_NAME "BIZNET Fotinos Sans"
DEFAULT_CHAR 0
CHARSET_COLLECTIONS "ASCII ISO8859-2"
COPYRIGHT "Copyright Bigelow & Holmes 1986, 1985. Copyright (c) 1996 BIZNET Poland, Inc. All Rights Reserved."
NOTICE "The name "BIZNET" is a registered trademark of BIZNET Poland, Inc."
ENDPROPERTIES
CHARS 190
STARTCHAR space
ENCODING 32
SWIDTH 316 0
DWIDTH 4 0
BBX 1 1 0 0
BITMAP
00
ENDCHAR
STARTCHAR exclam
ENCODING 33
SWIDTH 205 0
DWIDTH 3 0
BBX 1 10 1 0
BITMAP
80
80
80
80
80
80
80
00
80
80
ENDCHAR
STARTCHAR quotedbl
ENCODING 34
SWIDTH 373 0
DWIDTH 6 0
BBX 4 4 1 7
BITMAP
90
90
90
90
ENDCHAR
STARTCHAR numbersign
ENCODING 35
SWIDTH 633 0
DWIDTH 9 0
BBX 8 10 1 0
BITMAP
24
24
24
FF
24
24
FF
24
24
24
ENDCHAR
STARTCHAR dollar
ENCODING 36
SWIDTH 633 0
DWIDTH 9 0
BBX 7 12 1 -1
BITMAP
10
7C
92
90
90
70
1C
12
12
92
7C
10
ENDCHAR
STARTCHAR percent
ENCODING 37
SWIDTH 669 0
DWIDTH 10 0
BBX 8 10 1 0
BITMAP
60
91
92
64
08
10
26
49
89
06
ENDCHAR
STARTCHAR ampersand
ENCODING 38
SWIDTH 697 0
DWIDTH 10 0
BBX 9 10 1 0
BITMAP
3C00
4200
4200
4400
3980
4900
8500
8200
8700
7880
ENDCHAR
STARTCHAR quoteright
ENCODING 39
SWIDTH 229 0
DWIDTH 3 0
BBX 2 4 1 7
BITMAP
40
40
40
80
ENDCHAR
STARTCHAR parenleft
ENCODING 40
SWIDTH 325 0
DWIDTH 5 0
BBX 4 12 1 -1
BITMAP
30
40
40
80
80
80
80
80
80
40
40
30
ENDCHAR
STARTCHAR parenright
ENCODING 41
SWIDTH 325 0
DWIDTH 5 0
BBX 4 12 0 -1
BITMAP
C0
20
20
10
10
10
10
10
10
20
20
C0
ENDCHAR
STARTCHAR asterisk
ENCODING 42
SWIDTH 482 0
DWIDTH 7 0
BBX 5 5 1 5
BITMAP
20
A8
50
A8
20
ENDCHAR
STARTCHAR plus
ENCODING 43
SWIDTH 633 0
DWIDTH 9 0
BBX 7 7 1 1
BITMAP
10
10
10
FE
10
10
10
ENDCHAR
STARTCHAR comma
ENCODING 44
SWIDTH 316 0
DWIDTH 4 0
BBX 3 4 0 -2
BITMAP
20
20
40
80
ENDCHAR
STARTCHAR minus
ENCODING 45
SWIDTH 633 0
DWIDTH 9 0
BBX 7 1 1 4
BITMAP
FE
ENDCHAR
STARTCHAR period
ENCODING 46
SWIDTH 316 0
DWIDTH 3 0
BBX 1 2 1 0
BITMAP
80
80
ENDCHAR
STARTCHAR slash
ENCODING 47
SWIDTH 494 0
DWIDTH 7 0
BBX 7 12 0 -1
BITMAP
02
04
04
08
08
10
10
20
20
40
40
80
ENDCHAR
STARTCHAR zero
ENCODING 48
SWIDTH 633 0
DWIDTH 9 0
BBX 7 10 1 0
BITMAP
38
44
82
82
82
82
82
82
44
38
ENDCHAR
STARTCHAR one
ENCODING 49
SWIDTH 633 0
DWIDTH 9 0
BBX 3 10 2 0
BITMAP
20
E0
20
20
20
20
20
20
20
20
ENDCHAR
STARTCHAR two
ENCODING 50
SWIDTH 633 0
DWIDTH 9 0
BBX 7 10 1 0
BITMAP
7C
82
02
02
04
08
10
20
40
FE
ENDCHAR
STARTCHAR three
ENCODING 51
SWIDTH 633 0
DWIDTH 9 0
BBX 7 10 1 0
BITMAP
78
84
02
04
38
04
02
02
84
78
ENDCHAR
STARTCHAR four
ENCODING 52
SWIDTH 633 0
DWIDTH 9 0
BBX 7 10 1 0
BITMAP
04
0C
14
24
44
84
FE
04
04
04
ENDCHAR
STARTCHAR five
ENCODING 53
SWIDTH 633 0
DWIDTH 9 0
BBX 7 10 1 0
BITMAP
FE
80
80
80
F8
04
02
02
84
78
ENDCHAR
STARTCHAR six
ENCODING 54
SWIDTH 633 0
DWIDTH 9 0
BBX 7 10 1 0
BITMAP
3C
42
80
B8
C4
82
82
82
44
38
ENDCHAR
STARTCHAR seven
ENCODING 55
SWIDTH 633 0
DWIDTH 9 0
BBX 7 10 1 0
BITMAP
FE
02
02
04
08
10
10
20
20
20
ENDCHAR
STARTCHAR eight
ENCODING 56
SWIDTH 633 0
DWIDTH 9 0
BBX 7 10 1 0
BITMAP
38
44
82
44
38
44
82
82
44
38
ENDCHAR
STARTCHAR nine
ENCODING 57
SWIDTH 633 0
DWIDTH 9 0
BBX 7 10 1 0
BITMAP
38
44
82
82
82
46
3A
02
84
78
ENDCHAR
STARTCHAR colon
ENCODING 58
SWIDTH 316 0
DWIDTH 3 0
BBX 1 7 1 0
BITMAP
80
80
00
00
00
80
80
ENDCHAR
STARTCHAR semicolon
ENCODING 59
SWIDTH 316 0
DWIDTH 4 0
BBX 3 9 0 -2
BITMAP
20
20
00
00
00
20
20
40
80
ENDCHAR
STARTCHAR less
ENCODING 60
SWIDTH 633 0
DWIDTH 9 0
BBX 6 7 1 1
BITMAP
04
18
20
C0
20
18
04
ENDCHAR
STARTCHAR equal
ENCODING 61
SWIDTH 633 0
DWIDTH 9 0
BBX 7 3 1 3
BITMAP
FE
00
FE
ENDCHAR
STARTCHAR greater
ENCODING 62
SWIDTH 633 0
DWIDTH 9 0
BBX 6 7 2 1
BITMAP
80
60
10
0C
10
60
80
ENDCHAR
STARTCHAR question
ENCODING 63
SWIDTH 422 0
DWIDTH 6 0
BBX 5 10 1 0
BITMAP
70
88
08
08
10
20
20
00
20
20
ENDCHAR
STARTCHAR at
ENCODING 64
SWIDTH 858 0
DWIDTH 12 0
BBX 10 10 1 0
BITMAP
1E00
6100
4080
8F80
9080
9080
9180
4EC0
6000
1F00
ENDCHAR
STARTCHAR A
ENCODING 65
SWIDTH 690 0
DWIDTH 10 0
BBX 8 10 1 0
BITMAP
18
18
24
24
42
42
7E
81
81
81
ENDCHAR
STARTCHAR B
ENCODING 66
SWIDTH 575 0
DWIDTH 8 0
BBX 5 10 2 0
BITMAP
F0
88
88
90
E0
90
88
88
98
F0
ENDCHAR
STARTCHAR C
ENCODING 67
SWIDTH 692 0
DWIDTH 10 0
BBX 8 10 1 0
BITMAP
3E
43
C0
80
80
80
80
C0
41
3E
ENDCHAR
STARTCHAR D
ENCODING 68
SWIDTH 749 0
DWIDTH 11 0
BBX 8 10 2 0
BITMAP
FC
82
83
81
81
81
81
83
82
FC
ENDCHAR
STARTCHAR E
ENCODING 69
SWIDTH 542 0
DWIDTH 8 0
BBX 5 10 2 0
BITMAP
F8
80
80
80
F8
80
80
80
80
F8
ENDCHAR
STARTCHAR F
ENCODING 70
SWIDTH 536 0
DWIDTH 8 0
BBX 5 10 2 0
BITMAP
F8
80
80
80
F8
80
80
80
80
80
ENDCHAR
STARTCHAR G
ENCODING 71
SWIDTH 723 0
DWIDTH 10 0
BBX 8 10 1 0
BITMAP
3E
43
C0
80
80
81
81
C1
41
3F
ENDCHAR
STARTCHAR H
ENCODING 72
SWIDTH 735 0
DWIDTH 11 0
BBX 7 10 2 0
BITMAP
82
82
82
82
FE
82
82
82
82
82
ENDCHAR
STARTCHAR I
ENCODING 73
SWIDTH 288 0
DWIDTH 5 0
BBX 1 10 2 0
BITMAP
80
80
80
80
80
80
80
80
80
80
ENDCHAR
STARTCHAR J
ENCODING 74
SWIDTH 311 0
DWIDTH 5 0
BBX 3 12 0 -2
BITMAP
20
20
20
20
20
20
20
20
20
20
20
C0
ENDCHAR
STARTCHAR K
ENCODING 75
SWIDTH 653 0
DWIDTH 9 0
BBX 7 10 2 0
BITMAP
82
84
88
90
E0
90
88
88
84
86
ENDCHAR
STARTCHAR L
ENCODING 76
SWIDTH 533 0
DWIDTH 8 0
BBX 5 10 2 0
BITMAP
80
80
80
80
80
80
80
80
80
F8
ENDCHAR
STARTCHAR M
ENCODING 77
SWIDTH 861 0
DWIDTH 12 0
BBX 10 10 1 0
BITMAP
C0C0
C0C0
A140
A140
A140
9240
9240
8C40
8C40
8040
ENDCHAR
STARTCHAR N
ENCODING 78
SWIDTH 741 0
DWIDTH 11 0
BBX 7 10 2 0
BITMAP
C2
C2
A2
A2
92
92
8A
8A
86
86
ENDCHAR
STARTCHAR O
ENCODING 79
SWIDTH 777 0
DWIDTH 11 0
BBX 9 10 1 0
BITMAP
3E00
4100
C180
8080
8080
8080
8080
C180
4100
3E00
ENDCHAR
STARTCHAR P
ENCODING 80
SWIDTH 553 0
DWIDTH 9 0
BBX 6 10 2 0
BITMAP
F8
84
84
84
88
F0
80
80
80
80
ENDCHAR
STARTCHAR Q
ENCODING 81
SWIDTH 777 0
DWIDTH 11 0
BBX 10 12 1 -2
BITMAP
3E00
4100
C180
8080
8080
8080
8080
C180
4100
3E00
0100
00C0
ENDCHAR
STARTCHAR R
ENCODING 82
SWIDTH 633 0
DWIDTH 9 0
BBX 7 10 2 0
BITMAP
F8
84
84
84
88
F0
88
88
84
86
ENDCHAR
STARTCHAR S
ENCODING 83
SWIDTH 539 0
DWIDTH 8 0
BBX 6 10 1 0
BITMAP
78
84
80
80
60
18
04
04
84
78
ENDCHAR
STARTCHAR T
ENCODING 84
SWIDTH 633 0
DWIDTH 9 0
BBX 7 10 1 0
BITMAP
FE
10
10
10
10
10
10
10
10
10
ENDCHAR
STARTCHAR U
ENCODING 85
SWIDTH 693 0
DWIDTH 9 0
BBX 7 10 1 0
BITMAP
82
82
82
82
82
82
82
82
44
38
ENDCHAR
STARTCHAR V
ENCODING 86
SWIDTH 654 0
DWIDTH 10 0
BBX 8 10 1 0
BITMAP
81
81
81
42
42
42
24
24
18
18
ENDCHAR
STARTCHAR W
ENCODING 87
SWIDTH 855 0
DWIDTH 13 0
BBX 11 10 1 0
BITMAP
8020
8020
8420
8420
4440
4A40
4A40
4A40
3180
3180
ENDCHAR
STARTCHAR X
ENCODING 88
SWIDTH 626 0
DWIDTH 9 0
BBX 7 10 1 0
BITMAP
82
82
44
28
10
10
28
44
82
82
ENDCHAR
STARTCHAR Y
ENCODING 89
SWIDTH 623 0
DWIDTH 9 0
BBX 7 10 1 0
BITMAP
82
82
44
44
28
10
10
10
10
10
ENDCHAR
STARTCHAR Z
ENCODING 90
SWIDTH 605 0
DWIDTH 9 0
BBX 7 10 1 0
BITMAP
FE
02
04
08
10
20
40
80
80
FE
ENDCHAR
STARTCHAR bracketleft
ENCODING 91
SWIDTH 325 0
DWIDTH 5 0
BBX 3 12 1 -1
BITMAP
E0
80
80
80
80
80
80
80
80
80
80
E0
ENDCHAR
STARTCHAR backslash
ENCODING 92
SWIDTH 494 0
DWIDTH 7 0
BBX 7 12 0 -1
BITMAP
80
40
40
20
20
10
10
08
08
04
04
02
ENDCHAR
STARTCHAR bracketright
ENCODING 93
SWIDTH 325 0
DWIDTH 5 0
BBX 3 12 1 -1
BITMAP
E0
20
20
20
20
20
20
20
20
20
20
E0
ENDCHAR
STARTCHAR asciicircum
ENCODING 94
SWIDTH 633 0
DWIDTH 9 0
BBX 6 6 2 4
BITMAP
30
30
48
48
84
84
ENDCHAR
STARTCHAR underscore
ENCODING 95
SWIDTH 500 0
DWIDTH 9 0
BBX 7 1 1 -1
BITMAP
FE
ENDCHAR
STARTCHAR quoteleft
ENCODING 96
SWIDTH 229 0
DWIDTH 4 0
BBX 3 4 1 7
BITMAP
20
40
80
80
ENDCHAR
STARTCHAR a
ENCODING 97
SWIDTH 552 0
DWIDTH 9 0
BBX 7 8 1 0
BITMAP
78
04
04
7C
84
84
8C
72
ENDCHAR
STARTCHAR b
ENCODING 98
SWIDTH 630 0
DWIDTH 8 0
BBX 6 11 1 0
BITMAP
80
80
80
B0
C8
84
84
84
84
88
F0
ENDCHAR
STARTCHAR c
ENCODING 99
SWIDTH 518 0
DWIDTH 8 0
BBX 6 8 1 0
BITMAP
38
44
80
80
80
80
44
38
ENDCHAR
STARTCHAR d
ENCODING 100
SWIDTH 630 0
DWIDTH 8 0
BBX 6 11 1 0
BITMAP
04
04
04
3C
44
84
84
84
84
4C
34
ENDCHAR
STARTCHAR e
ENCODING 101
SWIDTH 557 0
DWIDTH 8 0
BBX 6 8 1 0
BITMAP
38
44
84
FC
80
80
44
38
ENDCHAR
STARTCHAR f
ENCODING 102
SWIDTH 367 0
DWIDTH 6 0
BBX 6 11 0 0
BITMAP
1C
20
20
FC
20
20
20
20
20
20
20
ENDCHAR
STARTCHAR g
ENCODING 103
SWIDTH 623 0
DWIDTH 8 0
BBX 6 10 1 -2
BITMAP
3C
44
84
84
84
4C
34
04
88
70
ENDCHAR
STARTCHAR h
ENCODING 104
SWIDTH 620 0
DWIDTH 8 0
BBX 6 11 1 0
BITMAP
80
80
80
B8
CC
84
84
84
84
84
84
ENDCHAR
STARTCHAR i
ENCODING 105
SWIDTH 289 0
DWIDTH 5 0
BBX 1 11 2 0
BITMAP
80
80
00
80
80
80
80
80
80
80
80
ENDCHAR
STARTCHAR j
ENCODING 106
SWIDTH 304 0
DWIDTH 5 0
BBX 3 13 0 -2
BITMAP
20
20
00
20
20
20
20
20
20
20
20
20
C0
ENDCHAR
STARTCHAR k
ENCODING 107
SWIDTH 585 0
DWIDTH 9 0
BBX 6 11 2 0
BITMAP
80
80
80
88
90
A0
E0
90
90
88
8C
ENDCHAR
STARTCHAR l
ENCODING 108
SWIDTH 289 0
DWIDTH 5 0
BBX 1 11 2 0
BITMAP
80
80
80
80
80
80
80
80
80
80
80
ENDCHAR
STARTCHAR m
ENCODING 109
SWIDTH 934 0
DWIDTH 13 0
BBX 11 8 1 0
BITMAP
B9C0
CE60
8420
8420
8420
8420
8420
8420
ENDCHAR
STARTCHAR n
ENCODING 110
SWIDTH 620 0
DWIDTH 8 0
BBX 6 8 1 0
BITMAP
B8
CC
84
84
84
84
84
84
ENDCHAR
STARTCHAR o
ENCODING 111
SWIDTH 614 0
DWIDTH 9 0
BBX 7 8 1 0
BITMAP
38
44
82
82
82
82
44
38
ENDCHAR
STARTCHAR p
ENCODING 112
SWIDTH 630 0
DWIDTH 8 0
BBX 6 10 1 -2
BITMAP
B0
C8
84
84
84
84
88
F0
80
80
ENDCHAR
STARTCHAR q
ENCODING 113
SWIDTH 630 0
DWIDTH 8 0
BBX 6 10 1 -2
BITMAP
3C
44
84
84
84
84
4C
34
04
04
ENDCHAR
STARTCHAR r
ENCODING 114
SWIDTH 409 0
DWIDTH 7 0
BBX 4 8 2 0
BITMAP
90
A0
C0
80
80
80
80
80
ENDCHAR
STARTCHAR s
ENCODING 115
SWIDTH 510 0
DWIDTH 6 0
BBX 4 8 1 0
BITMAP
70
80
80
40
20
10
10
E0
ENDCHAR
STARTCHAR t
ENCODING 116
SWIDTH 374 0
DWIDTH 7 0
BBX 6 10 1 0
BITMAP
20
20
FC
20
20
20
20
20
20
18
ENDCHAR
STARTCHAR u
ENCODING 117
SWIDTH 620 0
DWIDTH 8 0
BBX 6 8 1 0
BITMAP
84
84
84
84
84
84
CC
74
ENDCHAR
STARTCHAR v
ENCODING 118
SWIDTH 572 0
DWIDTH 8 0
BBX 6 8 1 0
BITMAP
84
84
84
84
48
48
30
30
ENDCHAR
STARTCHAR w
ENCODING 119
SWIDTH 840 0
DWIDTH 11 0
BBX 9 8 1 0
BITMAP
8080
8880
8880
4900
5500
5500
2200
2200
ENDCHAR
STARTCHAR x
ENCODING 120
SWIDTH 613 0
DWIDTH 8 0
BBX 6 8 1 0
BITMAP
84
84
48
30
30
48
84
84
ENDCHAR
STARTCHAR y
ENCODING 121
SWIDTH 568 0
DWIDTH 8 0
BBX 6 10 1 -2
BITMAP
84
84
84
84
48
48
30
30
40
C0
ENDCHAR
STARTCHAR z
ENCODING 122
SWIDTH 573 0
DWIDTH 8 0
BBX 6 8 1 0
BITMAP
FC
04
08
10
20
40
80
FC
ENDCHAR
STARTCHAR braceleft
ENCODING 123
SWIDTH 325 0
DWIDTH 5 0
BBX 4 12 1 -1
BITMAP
70
80
80
40
20
C0
20
40
80
80
80
70
ENDCHAR
STARTCHAR bar
ENCODING 124
SWIDTH 265 0
DWIDTH 4 0
BBX 1 12 2 -1
BITMAP
80
80
80
80
80
80
80
80
80
80
80
80
ENDCHAR
STARTCHAR braceright
ENCODING 125
SWIDTH 325 0
DWIDTH 5 0
BBX 4 12 0 -1
BITMAP
E0
10
10
20
40
30
40
20
10
10
10
E0
ENDCHAR
STARTCHAR asciitilde
ENCODING 126
SWIDTH 633 0
DWIDTH 9 0
BBX 7 3 1 3
BITMAP
62
92
8C
ENDCHAR
STARTCHAR Aogonek
ENCODING 161
SWIDTH 690 0
DWIDTH 10 0
BBX 10 12 1 -2
BITMAP
1800
1800
2400
2400
4200
4200
7E00
8100
8100
8100
0100
00C0
ENDCHAR
STARTCHAR breve
ENCODING 162
SWIDTH 460 0
DWIDTH 7 0
BBX 5 2 1 9
BITMAP
88
70
ENDCHAR
STARTCHAR Lslash
ENCODING 163
SWIDTH 533 0
DWIDTH 8 0
BBX 7 10 0 0
BITMAP
20
20
20
20
38
E0
20
20
20
3E
ENDCHAR
STARTCHAR currency
ENCODING 164
SWIDTH 633 0
DWIDTH 9 0
BBX 8 10 0 0
BITMAP
81
42
3C
42
42
42
42
3C
42
81
ENDCHAR
STARTCHAR Lcaron
ENCODING 165
SWIDTH 533 0
DWIDTH 8 0
BBX 5 10 2 0
BITMAP
A0
A0
A0
A0
80
80
80
80
80
F8
ENDCHAR
STARTCHAR Sacute
ENCODING 166
SWIDTH 539 0
DWIDTH 8 0
BBX 6 13 1 0
BITMAP
0C
30
00
78
84
80
80
60
18
04
04
84
78
ENDCHAR
STARTCHAR section
ENCODING 167
SWIDTH 633 0
DWIDTH 9 0
BBX 6 11 2 -1
BITMAP
78
84
80
70
88
84
44
38
04
84
78
ENDCHAR
STARTCHAR dieresis
ENCODING 168
SWIDTH 614 0
DWIDTH 9 0
BBX 4 2 2 9
BITMAP
90
90
ENDCHAR
STARTCHAR Scaron
ENCODING 169
SWIDTH 539 0
DWIDTH 8 0
BBX 6 13 1 0
BITMAP
24
18
00
78
84
80
80
60
18
04
04
84
78
ENDCHAR
STARTCHAR Scedilla
ENCODING 170
SWIDTH 539 0
DWIDTH 8 0
BBX 6 12 1 -2
BITMAP
78
84
80
80
60
18
04
04
84
78
10
60
ENDCHAR
STARTCHAR Tcaron
ENCODING 171
SWIDTH 633 0
DWIDTH 9 0
BBX 7 13 1 0
BITMAP
24
18
00
FE
10
10
10
10
10
10
10
10
10
ENDCHAR
STARTCHAR Zacute
ENCODING 172
SWIDTH 605 0
DWIDTH 9 0
BBX 7 13 1 0
BITMAP
06
18
00
FE
02
04
08
10
20
40
80
80
FE
ENDCHAR
STARTCHAR hyphen
ENCODING 173
SWIDTH 325 0
DWIDTH 5 0
BBX 3 1 1 4
BITMAP
E0
ENDCHAR
STARTCHAR Zcaron
ENCODING 174
SWIDTH 605 0
DWIDTH 9 0
BBX 7 13 1 0
BITMAP
24
18
00
FE
02
04
08
10
20
40
80
80
FE
ENDCHAR
STARTCHAR Zdotaccent
ENCODING 175
SWIDTH 605 0
DWIDTH 9 0
BBX 7 13 1 0
BITMAP
10
10
00
FE
02
04
08
10
20
40
80
80
FE
ENDCHAR
STARTCHAR degree
ENCODING 176
SWIDTH 277 0
DWIDTH 4 0
BBX 4 3 0 7
BITMAP
60
90
60
ENDCHAR
STARTCHAR aogonek
ENCODING 177
SWIDTH 552 0
DWIDTH 9 0
BBX 9 10 1 -2
BITMAP
7800
0400
0400
7C00
8400
8400
8C00
7200
0200
0180
ENDCHAR
STARTCHAR ogonek
ENCODING 178
SWIDTH 460 0
DWIDTH 7 0
BBX 3 2 2 -2
BITMAP
80
60
ENDCHAR
STARTCHAR lslash
ENCODING 179
SWIDTH 289 0
DWIDTH 5 0
BBX 5 11 0 0
BITMAP
20
20
20
20
38
E0
20
20
20
20
20
ENDCHAR
STARTCHAR acute
ENCODING 180
SWIDTH 614 0
DWIDTH 9 0
BBX 4 2 3 9
BITMAP
30
C0
ENDCHAR
STARTCHAR lcaron
ENCODING 181
SWIDTH 231 0
DWIDTH 4 0
BBX 3 11 2 0
BITMAP
A0
A0
A0
A0
80
80
80
80
80
80
80
ENDCHAR
STARTCHAR sacute
ENCODING 182
SWIDTH 510 0
DWIDTH 6 0
BBX 5 11 1 0
BITMAP
18
60
00
70
80
80
40
20
10
10
E0
ENDCHAR
STARTCHAR caron
ENCODING 183
SWIDTH 394 0
DWIDTH 6 0
BBX 4 2 1 9
BITMAP
90
60
ENDCHAR
STARTCHAR cedilla
ENCODING 184
SWIDTH 460 0
DWIDTH 7 0
BBX 3 2 2 -2
BITMAP
20
C0
ENDCHAR
STARTCHAR scaron
ENCODING 185
SWIDTH 510 0
DWIDTH 6 0
BBX 5 11 1 0
BITMAP
48
30
00
70
80
80
40
20
10
10
E0
ENDCHAR
STARTCHAR scedilla
ENCODING 186
SWIDTH 510 0
DWIDTH 6 0
BBX 4 10 1 -2
BITMAP
70
80
80
40
20
10
10
E0
20
C0
ENDCHAR
STARTCHAR tcaron
ENCODING 187
SWIDTH 374 0
DWIDTH 7 0
BBX 6 13 1 0
BITMAP
04
04
04
24
20
FC
20
20
20
20
20
20
18
ENDCHAR
STARTCHAR zacute
ENCODING 188
SWIDTH 573 0
DWIDTH 8 0
BBX 6 11 1 0
BITMAP
0C
30
00
FC
04
08
10
20
40
80
FC
ENDCHAR
STARTCHAR hungarumlaut
ENCODING 189
SWIDTH 460 0
DWIDTH 7 0
BBX 5 2 1 9
BITMAP
48
90
ENDCHAR
STARTCHAR zcaron
ENCODING 190
SWIDTH 573 0
DWIDTH 8 0
BBX 6 11 1 0
BITMAP
24
18
00
FC
04
08
10
20
40
80
FC
ENDCHAR
STARTCHAR zdotaccent
ENCODING 191
SWIDTH 573 0
DWIDTH 8 0
BBX 6 11 1 0
BITMAP
10
10
00
FC
04
08
10
20
40
80
FC
ENDCHAR
STARTCHAR Racute
ENCODING 192
SWIDTH 633 0
DWIDTH 9 0
BBX 7 13 2 0
BITMAP
0C
30
00
F8
84
84
84
88
F0
88
88
84
86
ENDCHAR
STARTCHAR Aacute
ENCODING 193
SWIDTH 690 0
DWIDTH 10 0
BBX 8 13 1 0
BITMAP
0C
30
00
18
18
24
24
42
42
7E
81
81
81
ENDCHAR
STARTCHAR Acircumflex
ENCODING 194
SWIDTH 690 0
DWIDTH 10 0
BBX 8 13 1 0
BITMAP
18
24
00
18
18
24
24
42
42
7E
81
81
81
ENDCHAR
STARTCHAR Abreve
ENCODING 195
SWIDTH 690 0
DWIDTH 10 0
BBX 8 13 1 0
BITMAP
22
1C
00
18
18
24
24
42
42
7E
81
81
81
ENDCHAR
STARTCHAR Adieresis
ENCODING 196
SWIDTH 690 0
DWIDTH 10 0
BBX 8 13 1 0
BITMAP
24
24
00
18
18
24
24
42
42
7E
81
81
81
ENDCHAR
STARTCHAR Lacute
ENCODING 197
SWIDTH 533 0
DWIDTH 8 0
BBX 5 13 2 0
BITMAP
30
C0
00
80
80
80
80
80
80
80
80
80
F8
ENDCHAR
STARTCHAR Cacute
ENCODING 198
SWIDTH 692 0
DWIDTH 10 0
BBX 8 13 1 0
BITMAP
03
0C
00
3E
43
C0
80
80
80
80
C0
41
3E
ENDCHAR
STARTCHAR Ccedilla
ENCODING 199
SWIDTH 692 0
DWIDTH 10 0
BBX 8 12 1 -2
BITMAP
3E
43
C0
80
80
80
80
C0
41
3E
08
30
ENDCHAR
STARTCHAR Ccaron
ENCODING 200
SWIDTH 692 0
DWIDTH 10 0
BBX 8 13 1 0
BITMAP
12
0C
00
3E
43
C0
80
80
80
80
C0
41
3E
ENDCHAR
STARTCHAR Eacute
ENCODING 201
SWIDTH 542 0
DWIDTH 8 0
BBX 5 13 2 0
BITMAP
18
60
00
F8
80
80
80
F8
80
80
80
80
F8
ENDCHAR
STARTCHAR Eogonek
ENCODING 202
SWIDTH 542 0
DWIDTH 8 0
BBX 7 12 2 -2
BITMAP
F8
80
80
80
F8
80
80
80
80
F8
08
06
ENDCHAR
STARTCHAR Edieresis
ENCODING 203
SWIDTH 542 0
DWIDTH 8 0
BBX 5 13 2 0
BITMAP
48
48
00
F8
80
80
80
F8
80
80
80
80
F8
ENDCHAR
STARTCHAR Ecaron
ENCODING 204
SWIDTH 542 0
DWIDTH 8 0
BBX 5 13 2 0
BITMAP
48
30
00
F8
80
80
80
F8
80
80
80
80
F8
ENDCHAR
STARTCHAR Iacute
ENCODING 205
SWIDTH 288 0
DWIDTH 5 0
BBX 4 13 1 0
BITMAP
30
C0
00
40
40
40
40
40
40
40
40
40
40
ENDCHAR
STARTCHAR Icircumflex
ENCODING 206
SWIDTH 288 0
DWIDTH 5 0
BBX 4 13 1 0
BITMAP
60
90
00
40
40
40
40
40
40
40
40
40
40
ENDCHAR
STARTCHAR Dcaron
ENCODING 207
SWIDTH 749 0
DWIDTH 11 0
BBX 8 13 2 0
BITMAP
24
18
00
FC
82
83
81
81
81
81
83
82
FC
ENDCHAR
STARTCHAR Eth
ENCODING 208
SWIDTH 749 0
DWIDTH 11 0
BBX 10 10 0 0
BITMAP
3F00
2080
20C0
2040
F840
2040
2040
20C0
2080
3F00
ENDCHAR
STARTCHAR Nacute
ENCODING 209
SWIDTH 741 0
DWIDTH 11 0
BBX 7 13 2 0
BITMAP
06
18
00
C2
C2
A2
A2
92
92
8A
8A
86
86
ENDCHAR
STARTCHAR Ncaron
ENCODING 210
SWIDTH 741 0
DWIDTH 11 0
BBX 7 13 2 0
BITMAP
24
18
00
C2
C2
A2
A2
92
92
8A
8A
86
86
ENDCHAR
STARTCHAR Oacute
ENCODING 211
SWIDTH 777 0
DWIDTH 11 0
BBX 9 13 1 0
BITMAP
0600
1800
0000
3E00
4100
C180
8080
8080
8080
8080
C180
4100
3E00
ENDCHAR
STARTCHAR Ocircumflex
ENCODING 212
SWIDTH 777 0
DWIDTH 11 0
BBX 9 13 1 0
BITMAP
1C00
2200
0000
3E00
4100
C180
8080
8080
8080
8080
C180
4100
3E00
ENDCHAR
STARTCHAR Ohungarumlaut
ENCODING 213
SWIDTH 777 0
DWIDTH 11 0
BBX 9 13 1 0
BITMAP
0900
1200
0000
3E00
4100
C180
8080
8080
8080
8080
C180
4100
3E00
ENDCHAR
STARTCHAR Odieresis
ENCODING 214
SWIDTH 777 0
DWIDTH 11 0
BBX 9 13 1 0
BITMAP
2200
2200
0000
3E00
4100
C180
8080
8080
8080
8080
C180
4100
3E00
ENDCHAR
STARTCHAR multiply
ENCODING 215
SWIDTH 633 0
DWIDTH 9 0
BBX 5 5 2 2
BITMAP
88
70
20
70
88
ENDCHAR
STARTCHAR Rcaron
ENCODING 216
SWIDTH 633 0
DWIDTH 9 0
BBX 7 13 2 0
BITMAP
48
30
00
F8
84
84
84
88
F0
88
88
84
86
ENDCHAR
STARTCHAR Uring
ENCODING 217
SWIDTH 693 0
DWIDTH 9 0
BBX 7 13 1 0
BITMAP
18
24
18
82
82
82
82
82
82
82
82
44
38
ENDCHAR
STARTCHAR Uacute
ENCODING 218
SWIDTH 693 0
DWIDTH 10 0
BBX 7 13 1 0
BITMAP
0C
30
00
82
82
82
82
82
82
82
82
44
38
ENDCHAR
STARTCHAR Uhungarumlaut
ENCODING 219
SWIDTH 693 0
DWIDTH 9 0
BBX 7 13 1 0
BITMAP
12
24
00
82
82
82
82
82
82
82
82
44
38
ENDCHAR
STARTCHAR Udieresis
ENCODING 220
SWIDTH 693 0
DWIDTH 9 0
BBX 7 13 1 0
BITMAP
24
24
00
82
82
82
82
82
82
82
82
44
38
ENDCHAR
STARTCHAR Yacute
ENCODING 221
SWIDTH 623 0
DWIDTH 9 0
BBX 7 13 1 0
BITMAP
0C
30
00
82
82
44
44
28
10
10
10
10
10
ENDCHAR
STARTCHAR Tcedilla
ENCODING 222
SWIDTH 633 0
DWIDTH 9 0
BBX 7 12 1 -2
BITMAP
FE
10
10
10
10
10
10
10
10
10
10
60
ENDCHAR
STARTCHAR germandbls
ENCODING 223
SWIDTH 598 0
DWIDTH 9 0
BBX 7 11 1 0
BITMAP
78
84
84
88
90
8C
82
82
82
82
9C
ENDCHAR
STARTCHAR racute
ENCODING 224
SWIDTH 409 0
DWIDTH 7 0
BBX 5 11 2 0
BITMAP
18
60
00
90
A0
C0
80
80
80
80
80
ENDCHAR
STARTCHAR aacute
ENCODING 225
SWIDTH 552 0
DWIDTH 8 0
BBX 7 11 1 0
BITMAP
0C
30
00
78
04
04
7C
84
84
8C
72
ENDCHAR
STARTCHAR acircumflex
ENCODING 226
SWIDTH 552 0
DWIDTH 8 0
BBX 7 11 1 0
BITMAP
30
48
00
78
04
04
7C
84
84
8C
72
ENDCHAR
STARTCHAR abreve
ENCODING 227
SWIDTH 552 0
DWIDTH 9 0
BBX 7 11 1 0
BITMAP
44
38
00
78
04
04
7C
84
84
8C
72
ENDCHAR
STARTCHAR adieresis
ENCODING 228
SWIDTH 552 0
DWIDTH 8 0
BBX 7 11 1 0
BITMAP
48
48
00
78
04
04
7C
84
84
8C
72
ENDCHAR
STARTCHAR lacute
ENCODING 229
SWIDTH 289 0
DWIDTH 5 0
BBX 4 13 2 0
BITMAP
30
C0
80
80
80
80
80
80
80
80
80
80
80
ENDCHAR
STARTCHAR cacute
ENCODING 230
SWIDTH 518 0
DWIDTH 8 0
BBX 7 11 1 0
BITMAP
06
18
00
38
44
80
80
80
80
44
38
ENDCHAR
STARTCHAR ccedilla
ENCODING 231
SWIDTH 518 0
DWIDTH 8 0
BBX 6 10 1 -2
BITMAP
38
44
80
80
80
80
44
38
10
60
ENDCHAR
STARTCHAR ccaron
ENCODING 232
SWIDTH 518 0
DWIDTH 8 0
BBX 6 11 1 0
BITMAP
24
18
00
38
44
80
80
80
80
44
38
ENDCHAR
STARTCHAR eacute
ENCODING 233
SWIDTH 557 0
DWIDTH 8 0
BBX 6 11 1 0
BITMAP
0C
30
00
38
44
84
FC
80
80
44
38
ENDCHAR
STARTCHAR eogonek
ENCODING 234
SWIDTH 557 0
DWIDTH 8 0
BBX 6 10 1 -2
BITMAP
38
44
84
FC
80
80
44
38
10
0C
ENDCHAR
STARTCHAR edieresis
ENCODING 235
SWIDTH 557 0
DWIDTH 8 0
BBX 6 11 1 0
BITMAP
48
48
00
38
44
84
FC
80
80
44
38
ENDCHAR
STARTCHAR ecaron
ENCODING 236
SWIDTH 557 0
DWIDTH 8 0
BBX 6 11 1 0
BITMAP
24
18
00
38
44
84
FC
80
80
44
38
ENDCHAR
STARTCHAR iacute
ENCODING 237
SWIDTH 289 0
DWIDTH 4 0
BBX 4 11 0 0
BITMAP
30
C0
00
20
20
20
20
20
20
20
20
ENDCHAR
STARTCHAR icircumflex
ENCODING 238
SWIDTH 289 0
DWIDTH 4 0
BBX 4 11 0 0
BITMAP
60
90
00
20
20
20
20
20
20
20
20
ENDCHAR
STARTCHAR dcaron
ENCODING 239
SWIDTH 630 0
DWIDTH 8 0
BBX 8 11 1 0
BITMAP
05
05
05
3D
44
84
84
84
84
4C
34
ENDCHAR
STARTCHAR dmacron
ENCODING 240
SWIDTH 630 0
DWIDTH 8 0
BBX 7 11 1 0
BITMAP
04
7E
04
3C
44
84
84
84
84
4C
34
ENDCHAR
STARTCHAR nacute
ENCODING 241
SWIDTH 620 0
DWIDTH 8 0
BBX 6 11 1 0
BITMAP
0C
30
00
B8
CC
84
84
84
84
84
84
ENDCHAR
STARTCHAR ncaron
ENCODING 242
SWIDTH 620 0
DWIDTH 8 0
BBX 6 11 1 0
BITMAP
24
18
00
B8
CC
84
84
84
84
84
84
ENDCHAR
STARTCHAR oacute
ENCODING 243
SWIDTH 614 0
DWIDTH 9 0
BBX 7 11 1 0
BITMAP
0C
30
00
38
44
82
82
82
82
44
38
ENDCHAR
STARTCHAR ocircumflex
ENCODING 244
SWIDTH 614 0
DWIDTH 9 0
BBX 7 11 1 0
BITMAP
18
24
00
38
44
82
82
82
82
44
38
ENDCHAR
STARTCHAR ohungarumlaut
ENCODING 245
SWIDTH 614 0
DWIDTH 9 0
BBX 7 11 1 0
BITMAP
12
24
00
38
44
82
82
82
82
44
38
ENDCHAR
STARTCHAR odieresis
ENCODING 246
SWIDTH 614 0
DWIDTH 9 0
BBX 7 11 1 0
BITMAP
44
44
00
38
44
82
82
82
82
44
38
ENDCHAR
STARTCHAR divide
ENCODING 247
SWIDTH 633 0
DWIDTH 9 0
BBX 7 7 1 1
BITMAP
10
10
00
FE
00
10
10
ENDCHAR
STARTCHAR rcaron
ENCODING 248
SWIDTH 409 0
DWIDTH 7 0
BBX 5 11 2 0
BITMAP
48
30
00
90
A0
C0
80
80
80
80
80
ENDCHAR
STARTCHAR uring
ENCODING 249
SWIDTH 620 0
DWIDTH 8 0
BBX 6 12 1 0
BITMAP
18
24
18
00
84
84
84
84
84
84
CC
74
ENDCHAR
STARTCHAR uacute
ENCODING 250
SWIDTH 620 0
DWIDTH 9 0
BBX 6 11 1 0
BITMAP
0C
30
00
84
84
84
84
84
84
CC
74
ENDCHAR
STARTCHAR uhungarumlaut
ENCODING 251
SWIDTH 620 0
DWIDTH 8 0
BBX 6 11 1 0
BITMAP
24
48
00
84
84
84
84
84
84
CC
74
ENDCHAR
STARTCHAR udieresis
ENCODING 252
SWIDTH 620 0
DWIDTH 9 0
BBX 6 11 1 0
BITMAP
48
48
00
84
84
84
84
84
84
CC
74
ENDCHAR
STARTCHAR yacute
ENCODING 253
SWIDTH 568 0
DWIDTH 8 0
BBX 6 13 1 -2
BITMAP
0C
30
00
84
84
84
84
48
48
30
30
40
C0
ENDCHAR
STARTCHAR tcedilla
ENCODING 254
SWIDTH 374 0
DWIDTH 7 0
BBX 6 12 1 -2
BITMAP
20
20
FC
20
20
20
20
20
20
18
08
30
ENDCHAR
STARTCHAR dotaccent
ENCODING 255
SWIDTH 328 0
DWIDTH 5 0
BBX 1 2 2 9
BITMAP
80
80
ENDCHAR
ENDFONT
