STARTFONT 2.1
FONT -jmk-Neep-Bold-R-Normal--15-140-75-75-C-80-US-ASCII
SIZE 15 75 75
FONTBOUNDINGBOX 8 15 0 -3
STARTPROPERTIES 29
FONTNAME_REGISTRY ""
FOUNDRY "jmk"
FAMILY_NAME "Neep"
WEIGHT_NAME "Bold"
SLANT "R"
SETWIDTH_NAME "Normal"
ADD_STYLE_NAME ""
PIXEL_SIZE 15
POINT_SIZE 140
RESOLUTION_X 75
RESOLUTION_Y 75
SPACING "C"
AVERAGE_WIDTH 80
CHARSET_REGISTRY "US"
CHARSET_ENCODING "ASCII"
COPYRIGHT "Jim Knoble <jmknoble@pobox.com>"
WEIGHT 200
RESOLUTION 75
X_HEIGHT 7
FIGURE_WIDTH 8
QUAD_WIDTH 8
FONT_ASCENT 12
FONT_DESCENT 3
_XMBDFED_INFO "Edited with xmbdfed 4.7."
RELATIVE_WEIGHT 70
RELATIVE_SETWIDTH 50
CAP_HEIGHT 10
UNDERLINE_POSITION 2
UNDERLINE_THICKNESS 1
ENDPROPERTIES
CHARS 89
STARTCHAR U+0027 apostrophe
ENCODING 39
SWIDTH 512 0
DWIDTH 8 0
BBX 8 15 0 -3
BITMAP
00
00
18
18
18
18
00
00
00
00
00
00
00
00
00
ENDCHAR
STARTCHAR U+0028 left parenthesis
ENCODING 40
SWIDTH 512 0
DWIDTH 8 0
BBX 8 15 0 -3
BITMAP
00
06
0C
18
18
30
30
30
30
30
18
18
0C
06
00
ENDCHAR
STARTCHAR U+0029 right parenthesis
ENCODING 41
SWIDTH 512 0
DWIDTH 8 0
BBX 8 15 0 -3
BITMAP
00
30
18
0C
0C
06
06
06
06
06
0C
0C
18
30
00
ENDCHAR
STARTCHAR U+002a asterisk
ENCODING 42
SWIDTH 512 0
DWIDTH 8 0
BBX 8 15 0 -3
BITMAP
00
00
00
00
00
36
1C
7F
1C
36
00
00
00
00
00
ENDCHAR
STARTCHAR U+002b plus sign
ENCODING 43
SWIDTH 512 0
DWIDTH 8 0
BBX 8 15 0 -3
BITMAP
00
00
00
00
18
18
18
FF
FF
18
18
18
00
00
00
ENDCHAR
STARTCHAR U+002c comma
ENCODING 44
SWIDTH 512 0
DWIDTH 8 0
BBX 8 15 0 -3
BITMAP
00
00
00
00
00
00
00
00
00
00
1C
38
30
60
00
ENDCHAR
STARTCHAR U+002d hyphen-minus
ENCODING 45
SWIDTH 512 0
DWIDTH 8 0
BBX 8 15 0 -3
BITMAP
00
00
00
00
00
00
00
7E
7E
00
00
00
00
00
00
ENDCHAR
STARTCHAR U+002e period
ENCODING 46
SWIDTH 512 0
DWIDTH 8 0
BBX 8 15 0 -3
BITMAP
00
00
00
00
00
00
00
00
00
00
18
3C
18
00
00
ENDCHAR
STARTCHAR U+002f forward slash
ENCODING 47
SWIDTH 512 0
DWIDTH 8 0
BBX 8 15 0 -3
BITMAP
00
03
03
06
06
0C
0C
18
18
30
30
60
60
00
00
ENDCHAR
STARTCHAR U+0030 digit zero
ENCODING 48
SWIDTH 512 0
DWIDTH 8 0
BBX 8 15 0 -3
BITMAP
00
00
1C
3E
63
63
6B
6B
63
63
3E
1C
00
00
00
ENDCHAR
STARTCHAR U+0031 digit one
ENCODING 49
SWIDTH 512 0
DWIDTH 8 0
BBX 8 15 0 -3
BITMAP
00
00
04
0C
1C
3C
0C
0C
0C
0C
0C
0C
00
00
00
ENDCHAR
STARTCHAR U+0032 digit two
ENCODING 50
SWIDTH 512 0
DWIDTH 8 0
BBX 8 15 0 -3
BITMAP
00
00
3E
7F
63
03
06
0C
18
30
7F
7F
00
00
00
ENDCHAR
STARTCHAR U+0033 digit three
ENCODING 51
SWIDTH 512 0
DWIDTH 8 0
BBX 8 15 0 -3
BITMAP
00
00
3E
7F
63
03
1E
1F
03
63
7F
3E
00
00
00
ENDCHAR
STARTCHAR U+0034 digit four
ENCODING 52
SWIDTH 512 0
DWIDTH 8 0
BBX 8 15 0 -3
BITMAP
00
00
0E
1E
1E
36
36
66
7F
7F
06
06
00
00
00
ENDCHAR
STARTCHAR U+0035 digit five
ENCODING 53
SWIDTH 512 0
DWIDTH 8 0
BBX 8 15 0 -3
BITMAP
00
00
7F
7F
60
7E
7F
03
03
63
7F
3E
00
00
00
ENDCHAR
STARTCHAR U+0036 digit six
ENCODING 54
SWIDTH 512 0
DWIDTH 8 0
BBX 8 15 0 -3
BITMAP
00
00
3E
7F
63
60
6E
7F
63
63
7F
3E
00
00
00
ENDCHAR
STARTCHAR U+0037 digit seven
ENCODING 55
SWIDTH 512 0
DWIDTH 8 0
BBX 8 15 0 -3
BITMAP
00
00
7F
7F
03
06
06
0C
0C
18
18
30
00
00
00
ENDCHAR
STARTCHAR U+0038 digit eight
ENCODING 56
SWIDTH 512 0
DWIDTH 8 0
BBX 8 15 0 -3
BITMAP
00
00
3E
7F
63
63
3E
7F
63
63
7F
3E
00
00
00
ENDCHAR
STARTCHAR U+0039 digit nine
ENCODING 57
SWIDTH 512 0
DWIDTH 8 0
BBX 8 15 0 -3
BITMAP
00
00
3E
7F
63
63
7F
3B
03
63
7F
3E
00
00
00
ENDCHAR
STARTCHAR U+003a colon
ENCODING 58
SWIDTH 512 0
DWIDTH 8 0
BBX 8 15 0 -3
BITMAP
00
00
00
00
18
3C
18
00
00
00
18
3C
18
00
00
ENDCHAR
STARTCHAR U+003b semicolon
ENCODING 59
SWIDTH 512 0
DWIDTH 8 0
BBX 8 15 0 -3
BITMAP
00
00
00
00
18
3C
18
00
00
00
1C
38
30
60
00
ENDCHAR
STARTCHAR U+003c less-than sign
ENCODING 60
SWIDTH 512 0
DWIDTH 8 0
BBX 8 15 0 -3
BITMAP
00
00
00
06
0C
18
30
60
30
18
0C
06
00
00
00
ENDCHAR
STARTCHAR U+003d equals sign
ENCODING 61
SWIDTH 512 0
DWIDTH 8 0
BBX 8 15 0 -3
BITMAP
00
00
00
00
00
00
7E
7E
00
7E
7E
00
00
00
00
ENDCHAR
STARTCHAR U+003e greater-than sign
ENCODING 62
SWIDTH 512 0
DWIDTH 8 0
BBX 8 15 0 -3
BITMAP
00
00
00
60
30
18
0C
06
0C
18
30
60
00
00
00
ENDCHAR
STARTCHAR U+003f question mark
ENCODING 63
SWIDTH 512 0
DWIDTH 8 0
BBX 8 15 0 -3
BITMAP
00
00
7C
7E
06
0C
18
30
30
00
30
30
00
00
00
ENDCHAR
STARTCHAR U+0040 at sign
ENCODING 64
SWIDTH 512 0
DWIDTH 8 0
BBX 8 15 0 -3
BITMAP
00
00
1E
3F
61
47
4F
49
4F
67
30
1C
00
00
00
ENDCHAR
STARTCHAR U+0041 latin capital letter A
ENCODING 65
SWIDTH 512 0
DWIDTH 8 0
BBX 8 15 0 -3
BITMAP
00
00
3E
7F
63
63
7F
7F
63
63
63
63
00
00
00
ENDCHAR
STARTCHAR U+0042 latin capital letter B
ENCODING 66
SWIDTH 512 0
DWIDTH 8 0
BBX 8 15 0 -3
BITMAP
00
00
7C
7E
66
66
7E
7F
63
63
7F
7E
00
00
00
ENDCHAR
STARTCHAR U+0043 latin capital letter C
ENCODING 67
SWIDTH 512 0
DWIDTH 8 0
BBX 8 15 0 -3
BITMAP
00
00
3E
7F
63
60
60
60
60
63
7F
3E
00
00
00
ENDCHAR
STARTCHAR U+0044 latin capital letter D
ENCODING 68
SWIDTH 512 0
DWIDTH 8 0
BBX 8 15 0 -3
BITMAP
00
00
7C
7E
67
63
63
63
63
67
7E
7C
00
00
00
ENDCHAR
STARTCHAR U+0045 latin capital letter E
ENCODING 69
SWIDTH 512 0
DWIDTH 8 0
BBX 8 15 0 -3
BITMAP
00
00
7F
7F
60
60
7E
7E
60
60
7F
7F
00
00
00
ENDCHAR
STARTCHAR U+0046 latin capital letter F
ENCODING 70
SWIDTH 512 0
DWIDTH 8 0
BBX 8 15 0 -3
BITMAP
00
00
7F
7F
60
60
7E
7E
60
60
60
60
00
00
00
ENDCHAR
STARTCHAR U+0047 latin capital letter G
ENCODING 71
SWIDTH 512 0
DWIDTH 8 0
BBX 8 15 0 -3
BITMAP
00
00
3E
7F
63
60
6F
6F
63
63
7F
3F
00
00
00
ENDCHAR
STARTCHAR U+0048 latin capital letter H
ENCODING 72
SWIDTH 512 0
DWIDTH 8 0
BBX 8 15 0 -3
BITMAP
00
00
63
63
63
63
7F
7F
63
63
63
63
00
00
00
ENDCHAR
STARTCHAR U+0049 latin capital letter I
ENCODING 73
SWIDTH 512 0
DWIDTH 8 0
BBX 8 15 0 -3
BITMAP
00
00
7E
7E
18
18
18
18
18
18
7E
7E
00
00
00
ENDCHAR
STARTCHAR U+004a latin capital letter J
ENCODING 74
SWIDTH 512 0
DWIDTH 8 0
BBX 8 15 0 -3
BITMAP
00
00
1F
1F
03
03
03
03
03
63
7F
3E
00
00
00
ENDCHAR
STARTCHAR U+004b latin capital letter K
ENCODING 75
SWIDTH 512 0
DWIDTH 8 0
BBX 8 15 0 -3
BITMAP
00
00
63
66
6C
78
7C
6C
66
66
63
63
00
00
00
ENDCHAR
STARTCHAR U+004c latin capital letter L
ENCODING 76
SWIDTH 512 0
DWIDTH 8 0
BBX 8 15 0 -3
BITMAP
00
00
60
60
60
60
60
60
60
60
7F
7F
00
00
00
ENDCHAR
STARTCHAR U+004d latin capital letter M
ENCODING 77
SWIDTH 512 0
DWIDTH 8 0
BBX 8 15 0 -3
BITMAP
00
00
63
63
77
77
7F
6B
6B
63
63
63
00
00
00
ENDCHAR
STARTCHAR U+004e latin capital letter N
ENCODING 78
SWIDTH 512 0
DWIDTH 8 0
BBX 8 15 0 -3
BITMAP
00
00
63
63
73
73
7B
6F
67
67
63
63
00
00
00
ENDCHAR
STARTCHAR U+004f latin capital letter O
ENCODING 79
SWIDTH 512 0
DWIDTH 8 0
BBX 8 15 0 -3
BITMAP
00
00
3E
7F
63
63
63
63
63
63
7F
3E
00
00
00
ENDCHAR
STARTCHAR U+0050 latin capital letter P
ENCODING 80
SWIDTH 512 0
DWIDTH 8 0
BBX 8 15 0 -3
BITMAP
00
00
7E
7F
63
63
7F
7E
60
60
60
60
00
00
00
ENDCHAR
STARTCHAR U+0051 latin capital letter Q
ENCODING 81
SWIDTH 512 0
DWIDTH 8 0
BBX 8 15 0 -3
BITMAP
00
00
3E
7F
63
63
63
63
63
63
7F
3E
1C
0F
07
ENDCHAR
STARTCHAR U+0052 latin capital letter R
ENCODING 82
SWIDTH 512 0
DWIDTH 8 0
BBX 8 15 0 -3
BITMAP
00
00
7E
7F
63
63
7E
7C
66
66
63
63
00
00
00
ENDCHAR
STARTCHAR U+0053 latin capital letter S
ENCODING 83
SWIDTH 512 0
DWIDTH 8 0
BBX 8 15 0 -3
BITMAP
00
00
3E
7F
63
70
3C
1E
07
63
7F
3E
00
00
00
ENDCHAR
STARTCHAR U+0054 latin capital letter T
ENCODING 84
SWIDTH 512 0
DWIDTH 8 0
BBX 8 15 0 -3
BITMAP
00
00
FF
FF
18
18
18
18
18
18
18
18
00
00
00
ENDCHAR
STARTCHAR U+0055 latin capital letter U
ENCODING 85
SWIDTH 512 0
DWIDTH 8 0
BBX 8 15 0 -3
BITMAP
00
00
63
63
63
63
63
63
63
63
7F
3E
00
00
00
ENDCHAR
STARTCHAR U+0056 latin capital letter V
ENCODING 86
SWIDTH 512 0
DWIDTH 8 0
BBX 8 15 0 -3
BITMAP
00
00
63
63
63
63
63
63
36
36
1C
1C
00
00
00
ENDCHAR
STARTCHAR U+0057 latin capital letter W
ENCODING 87
SWIDTH 512 0
DWIDTH 8 0
BBX 8 15 0 -3
BITMAP
00
00
63
63
63
63
63
6B
6B
7F
77
22
00
00
00
ENDCHAR
STARTCHAR U+0058 latin capital letter X
ENCODING 88
SWIDTH 512 0
DWIDTH 8 0
BBX 8 15 0 -3
BITMAP
00
00
63
63
36
36
1C
1C
36
36
63
63
00
00
00
ENDCHAR
STARTCHAR U+0059 latin capital letter Y
ENCODING 89
SWIDTH 512 0
DWIDTH 8 0
BBX 8 15 0 -3
BITMAP
00
00
63
63
63
63
7F
3E
0C
0C
0C
0C
00
00
00
ENDCHAR
STARTCHAR U+005a latin capital letter Z
ENCODING 90
SWIDTH 512 0
DWIDTH 8 0
BBX 8 15 0 -3
BITMAP
00
00
7F
7F
03
06
0C
18
30
60
7F
7F
00
00
00
ENDCHAR
STARTCHAR U+005b left square bracket
ENCODING 91
SWIDTH 512 0
DWIDTH 8 0
BBX 8 15 0 -3
BITMAP
00
3E
3E
30
30
30
30
30
30
30
30
30
3E
3E
00
ENDCHAR
STARTCHAR U+005c backslash
ENCODING 92
SWIDTH 512 0
DWIDTH 8 0
BBX 8 15 0 -3
BITMAP
00
60
60
30
30
18
18
0C
0C
06
06
03
03
00
00
ENDCHAR
STARTCHAR U+005d right square bracket
ENCODING 93
SWIDTH 512 0
DWIDTH 8 0
BBX 8 15 0 -3
BITMAP
00
3E
3E
06
06
06
06
06
06
06
06
06
3E
3E
00
ENDCHAR
STARTCHAR U+005e circumflex
ENCODING 94
SWIDTH 512 0
DWIDTH 8 0
BBX 8 15 0 -3
BITMAP
00
00
18
3C
66
42
00
00
00
00
00
00
00
00
00
ENDCHAR
STARTCHAR U+005f underscore
ENCODING 95
SWIDTH 512 0
DWIDTH 8 0
BBX 8 15 0 -3
BITMAP
00
00
00
00
00
00
00
00
00
00
00
00
7F
7F
00
ENDCHAR
STARTCHAR U+0060 grave accent
ENCODING 96
SWIDTH 512 0
DWIDTH 8 0
BBX 8 15 0 -3
BITMAP
00
00
38
1C
0C
06
00
00
00
00
00
00
00
00
00
ENDCHAR
STARTCHAR U+0061 latin small letter a
ENCODING 97
SWIDTH 512 0
DWIDTH 8 0
BBX 8 15 0 -3
BITMAP
00
00
00
00
00
3E
3F
03
3F
63
7F
3B
00
00
00
ENDCHAR
STARTCHAR U+0062 latin small letter b
ENCODING 98
SWIDTH 512 0
DWIDTH 8 0
BBX 8 15 0 -3
BITMAP
00
00
60
60
60
6E
7F
63
63
63
7F
6E
00
00
00
ENDCHAR
STARTCHAR U+0063 latin small letter c
ENCODING 99
SWIDTH 512 0
DWIDTH 8 0
BBX 8 15 0 -3
BITMAP
00
00
00
00
00
3E
7F
63
60
63
7F
3E
00
00
00
ENDCHAR
STARTCHAR U+0064 latin small letter d
ENCODING 100
SWIDTH 512 0
DWIDTH 8 0
BBX 8 15 0 -3
BITMAP
00
00
03
03
03
3B
7F
63
63
63
7F
3B
00
00
00
ENDCHAR
STARTCHAR U+0065 latin small letter e
ENCODING 101
SWIDTH 512 0
DWIDTH 8 0
BBX 8 15 0 -3
BITMAP
00
00
00
00
00
3E
7F
63
7F
60
7E
3E
00
00
00
ENDCHAR
STARTCHAR U+0066 latin small letter f
ENCODING 102
SWIDTH 512 0
DWIDTH 8 0
BBX 8 15 0 -3
BITMAP
00
00
1E
3F
33
30
7E
7E
30
30
30
30
00
00
00
ENDCHAR
STARTCHAR U+0067 latin small letter g
ENCODING 103
SWIDTH 512 0
DWIDTH 8 0
BBX 8 15 0 -3
BITMAP
00
00
00
00
00
3B
7F
63
63
7F
3B
03
63
7F
3E
ENDCHAR
STARTCHAR U+0068 latin small letter h
ENCODING 104
SWIDTH 512 0
DWIDTH 8 0
BBX 8 15 0 -3
BITMAP
00
00
60
60
60
6E
7F
63
63
63
63
63
00
00
00
ENDCHAR
STARTCHAR U+0069 latin small letter i
ENCODING 105
SWIDTH 512 0
DWIDTH 8 0
BBX 8 15 0 -3
BITMAP
00
00
0C
0C
00
3C
3C
0C
0C
0C
0C
0C
00
00
00
ENDCHAR
STARTCHAR U+006a latin small letter j
ENCODING 106
SWIDTH 512 0
DWIDTH 8 0
BBX 8 15 0 -3
BITMAP
00
00
06
06
00
1E
1E
06
06
06
06
66
7E
3C
00
ENDCHAR
STARTCHAR U+006b latin small letter k
ENCODING 107
SWIDTH 512 0
DWIDTH 8 0
BBX 8 15 0 -3
BITMAP
00
00
60
60
60
66
6C
78
78
6C
66
63
00
00
00
ENDCHAR
STARTCHAR U+006c latin small letter l
ENCODING 108
SWIDTH 512 0
DWIDTH 8 0
BBX 8 15 0 -3
BITMAP
00
00
18
18
18
18
18
18
18
18
1E
0E
00
00
00
ENDCHAR
STARTCHAR U+006d latin small letter m
ENCODING 109
SWIDTH 512 0
DWIDTH 8 0
BBX 8 15 0 -3
BITMAP
00
00
00
00
00
76
7F
6B
6B
6B
6B
63
00
00
00
ENDCHAR
STARTCHAR U+006e latin small letter n
ENCODING 110
SWIDTH 512 0
DWIDTH 8 0
BBX 8 15 0 -3
BITMAP
00
00
00
00
00
6E
7F
63
63
63
63
63
00
00
00
ENDCHAR
STARTCHAR U+006f latin small letter o
ENCODING 111
SWIDTH 512 0
DWIDTH 8 0
BBX 8 15 0 -3
BITMAP
00
00
00
00
00
3E
7F
63
63
63
7F
3E
00
00
00
ENDCHAR
STARTCHAR U+0070 latin small letter p
ENCODING 112
SWIDTH 512 0
DWIDTH 8 0
BBX 8 15 0 -3
BITMAP
00
00
00
00
00
6E
7F
63
63
7F
6E
60
60
60
60
ENDCHAR
STARTCHAR U+0071 latin small letter q
ENCODING 113
SWIDTH 512 0
DWIDTH 8 0
BBX 8 15 0 -3
BITMAP
00
00
00
00
00
3B
7F
63
63
7F
3B
03
03
03
03
ENDCHAR
STARTCHAR U+0072 latin small letter r
ENCODING 114
SWIDTH 512 0
DWIDTH 8 0
BBX 8 15 0 -3
BITMAP
00
00
00
00
00
6E
7F
63
60
60
60
60
00
00
00
ENDCHAR
STARTCHAR U+0073 latin small letter s
ENCODING 115
SWIDTH 512 0
DWIDTH 8 0
BBX 8 15 0 -3
BITMAP
00
00
00
00
00
3F
7F
60
3E
03
7F
7E
00
00
00
ENDCHAR
STARTCHAR U+0074 latin small letter t
ENCODING 116
SWIDTH 512 0
DWIDTH 8 0
BBX 8 15 0 -3
BITMAP
00
00
00
30
30
7E
7E
30
30
33
3F
1E
00
00
00
ENDCHAR
STARTCHAR U+0075 latin small letter u
ENCODING 117
SWIDTH 512 0
DWIDTH 8 0
BBX 8 15 0 -3
BITMAP
00
00
00
00
00
63
63
63
63
63
7F
3B
00
00
00
ENDCHAR
STARTCHAR U+0076 latin small letter v
ENCODING 118
SWIDTH 512 0
DWIDTH 8 0
BBX 8 15 0 -3
BITMAP
00
00
00
00
00
63
63
63
36
36
1C
1C
00
00
00
ENDCHAR
STARTCHAR U+0077 latin small letter w
ENCODING 119
SWIDTH 512 0
DWIDTH 8 0
BBX 8 15 0 -3
BITMAP
00
00
00
00
00
63
63
6B
6B
7F
77
22
00
00
00
ENDCHAR
STARTCHAR U+0078 latin small letter x
ENCODING 120
SWIDTH 512 0
DWIDTH 8 0
BBX 8 15 0 -3
BITMAP
00
00
00
00
00
63
36
1C
1C
1C
36
63
00
00
00
ENDCHAR
STARTCHAR U+0079 latin small letter y
ENCODING 121
SWIDTH 512 0
DWIDTH 8 0
BBX 8 15 0 -3
BITMAP
00
00
00
00
00
63
63
63
63
7F
3B
03
63
7F
3E
ENDCHAR
STARTCHAR U+007a latin small letter z
ENCODING 122
SWIDTH 512 0
DWIDTH 8 0
BBX 8 15 0 -3
BITMAP
00
00
00
00
00
7F
7F
06
1C
30
7F
7F
00
00
00
ENDCHAR
STARTCHAR U+007b left curly brace
ENCODING 123
SWIDTH 512 0
DWIDTH 8 0
BBX 8 15 0 -3
BITMAP
00
0E
1E
18
18
18
38
70
38
18
18
18
1E
0E
00
ENDCHAR
STARTCHAR U+007c vertical bar
ENCODING 124
SWIDTH 512 0
DWIDTH 8 0
BBX 8 15 0 -3
BITMAP
00
18
18
18
18
18
18
18
18
18
18
18
18
00
00
ENDCHAR
STARTCHAR U+007d right curly brace
ENCODING 125
SWIDTH 512 0
DWIDTH 8 0
BBX 8 15 0 -3
BITMAP
00
70
78
18
18
18
1C
0E
1C
18
18
18
78
70
00
ENDCHAR
STARTCHAR U+007e tilde
ENCODING 126
SWIDTH 512 0
DWIDTH 8 0
BBX 8 15 0 -3
BITMAP
00
00
00
33
7B
6F
66
00
00
00
00
00
00
00
00
ENDCHAR
STARTCHAR nil
ENCODING 127
SWIDTH 512 0
DWIDTH 8 0
BBX 8 15 0 -3
BITMAP
00
7E
42
42
42
42
42
42
42
42
42
42
42
7E
00
ENDCHAR
ENDFONT
