STARTFONT 2.1
COMMENT "$Id: 6x13B.bdf,v 1.25 2002-08-26 18:05:49+01 mgk25 Rel mgk25 $"
COMMENT "Send bug reports to Markus Kuhn <http://www.cl.cam.ac.uk/~mgk25/>"
COMMENT "Slurped into JMK Neep typeface for ISO10646 support"
FONT -jmk-Neep-Bold-R-Normal--13-120-75-75-C-60-ISO10646-1
SIZE 13 78 78
FONTBOUNDINGBOX 6 13 0 -2
STARTPROPERTIES 22
FONTNAME_REGISTRY ""
FOUNDRY "Misc"
FAMILY_NAME "Fixed"
WEIGHT_NAME "Bold"
SLANT "R"
SETWIDTH_NAME "Normal"
ADD_STYLE_NAME ""
PIXEL_SIZE 13
POINT_SIZE 120
RESOLUTION_X 75
RESOLUTION_Y 75
SPACING "C"
AVERAGE_WIDTH 60
CHARSET_REGISTRY "ISO10646"
CHARSET_ENCODING "1"
DEFAULT_CHAR 0
FONT_DESCENT 2
FONT_ASCENT 11
COPYRIGHT "Public domain font.  Share and enjoy."
_XMBDFED_INFO "Edited with xmbdfed 4.3."
CAP_HEIGHT 9
X_HEIGHT 6
ENDPROPERTIES
CHARS 1090
STARTCHAR Amacron
ENCODING 256
SWIDTH 426 0
DWIDTH 6 0
BBX 6 13 0 -2
BITMAP
00
78
00
30
78
CC
CC
FC
CC
CC
CC
00
00
ENDCHAR
STARTCHAR amacron
ENCODING 257
SWIDTH 426 0
DWIDTH 6 0
BBX 6 13 0 -2
BITMAP
00
00
00
7C
00
78
0C
7C
CC
DC
6C
00
00
ENDCHAR
STARTCHAR Abreve
ENCODING 258
SWIDTH 426 0
DWIDTH 6 0
BBX 6 13 0 -2
BITMAP
00
44
38
00
30
78
CC
CC
FC
CC
CC
00
00
ENDCHAR
STARTCHAR abreve
ENCODING 259
SWIDTH 426 0
DWIDTH 6 0
BBX 6 13 0 -2
BITMAP
00
00
44
38
00
78
0C
7C
CC
DC
6C
00
00
ENDCHAR
STARTCHAR Aogonek
ENCODING 260
SWIDTH 426 0
DWIDTH 6 0
BBX 6 13 0 -2
BITMAP
00
00
30
78
CC
CC
CC
FC
CC
CC
CC
0C
04
ENDCHAR
STARTCHAR aogonek
ENCODING 261
SWIDTH 426 0
DWIDTH 6 0
BBX 6 13 0 -2
BITMAP
00
00
00
00
00
78
0C
7C
CC
DC
6C
0C
04
ENDCHAR
STARTCHAR Cacute
ENCODING 262
SWIDTH 426 0
DWIDTH 6 0
BBX 6 13 0 -2
BITMAP
00
18
30
00
78
CC
C0
C0
C0
CC
78
00
00
ENDCHAR
STARTCHAR cacute
ENCODING 263
SWIDTH 426 0
DWIDTH 6 0
BBX 6 13 0 -2
BITMAP
00
00
18
30
00
78
CC
C0
C0
CC
78
00
00
ENDCHAR
STARTCHAR Ccircumflex
ENCODING 264
SWIDTH 426 0
DWIDTH 6 0
BBX 6 13 0 -2
BITMAP
00
38
6C
00
78
CC
C0
C0
C0
CC
78
00
00
ENDCHAR
STARTCHAR ccircumflex
ENCODING 265
SWIDTH 426 0
DWIDTH 6 0
BBX 6 13 0 -2
BITMAP
00
00
38
6C
00
78
CC
C0
C0
CC
78
00
00
ENDCHAR
STARTCHAR Cdotaccent
ENCODING 266
SWIDTH 426 0
DWIDTH 6 0
BBX 6 13 0 -2
BITMAP
00
30
30
00
78
CC
C0
C0
C0
CC
78
00
00
ENDCHAR
STARTCHAR cdotaccent
ENCODING 267
SWIDTH 426 0
DWIDTH 6 0
BBX 6 13 0 -2
BITMAP
00
00
30
30
00
78
CC
C0
C0
CC
78
00
00
ENDCHAR
STARTCHAR Ccaron
ENCODING 268
SWIDTH 426 0
DWIDTH 6 0
BBX 6 13 0 -2
BITMAP
00
6C
38
00
78
CC
C0
C0
C0
CC
78
00
00
ENDCHAR
STARTCHAR ccaron
ENCODING 269
SWIDTH 426 0
DWIDTH 6 0
BBX 6 13 0 -2
BITMAP
00
00
6C
38
00
78
CC
C0
C0
CC
78
00
00
ENDCHAR
STARTCHAR Dcaron
ENCODING 270
SWIDTH 426 0
DWIDTH 6 0
BBX 6 13 0 -2
BITMAP
00
6C
38
00
F8
6C
6C
6C
6C
6C
F8
00
00
ENDCHAR
STARTCHAR dcaron
ENCODING 271
SWIDTH 426 0
DWIDTH 6 0
BBX 6 13 0 -2
BITMAP
00
6C
38
00
0C
0C
6C
DC
CC
DC
6C
00
00
ENDCHAR
STARTCHAR Dcroat
ENCODING 272
SWIDTH 426 0
DWIDTH 6 0
BBX 6 13 0 -2
BITMAP
00
00
F8
6C
6C
6C
FC
6C
6C
6C
F8
00
00
ENDCHAR
STARTCHAR dcroat
ENCODING 273
SWIDTH 426 0
DWIDTH 6 0
BBX 6 13 0 -2
BITMAP
00
00
0C
7C
0C
6C
DC
CC
CC
DC
6C
00
00
ENDCHAR
STARTCHAR Emacron
ENCODING 274
SWIDTH 426 0
DWIDTH 6 0
BBX 6 13 0 -2
BITMAP
00
7C
00
FC
C0
C0
F8
C0
C0
C0
FC
00
00
ENDCHAR
STARTCHAR emacron
ENCODING 275
SWIDTH 426 0
DWIDTH 6 0
BBX 6 13 0 -2
BITMAP
00
00
00
7C
00
78
CC
FC
C0
C0
78
00
00
ENDCHAR
STARTCHAR Ebreve
ENCODING 276
SWIDTH 426 0
DWIDTH 6 0
BBX 6 13 0 -2
BITMAP
00
44
38
00
FC
C0
C0
F8
C0
C0
FC
00
00
ENDCHAR
STARTCHAR ebreve
ENCODING 277
SWIDTH 426 0
DWIDTH 6 0
BBX 6 13 0 -2
BITMAP
00
00
44
38
00
78
CC
FC
C0
C0
78
00
00
ENDCHAR
STARTCHAR Edotaccent
ENCODING 278
SWIDTH 426 0
DWIDTH 6 0
BBX 6 13 0 -2
BITMAP
00
30
30
00
FC
C0
C0
F8
C0
C0
FC
00
00
ENDCHAR
STARTCHAR edotaccent
ENCODING 279
SWIDTH 426 0
DWIDTH 6 0
BBX 6 13 0 -2
BITMAP
00
00
30
30
00
78
CC
FC
C0
C0
78
00
00
ENDCHAR
STARTCHAR Eogonek
ENCODING 280
SWIDTH 426 0
DWIDTH 6 0
BBX 6 13 0 -2
BITMAP
00
00
FC
C0
C0
C0
F8
C0
C0
C0
FC
20
10
ENDCHAR
STARTCHAR eogonek
ENCODING 281
SWIDTH 426 0
DWIDTH 6 0
BBX 6 13 0 -2
BITMAP
00
00
00
00
00
78
CC
FC
C0
C0
78
20
10
ENDCHAR
STARTCHAR Ecaron
ENCODING 282
SWIDTH 426 0
DWIDTH 6 0
BBX 6 13 0 -2
BITMAP
00
6C
38
00
FC
C0
C0
F8
C0
C0
FC
00
00
ENDCHAR
STARTCHAR ecaron
ENCODING 283
SWIDTH 426 0
DWIDTH 6 0
BBX 6 13 0 -2
BITMAP
00
00
6C
38
00
78
CC
FC
C0
C0
78
00
00
ENDCHAR
STARTCHAR Gcircumflex
ENCODING 284
SWIDTH 426 0
DWIDTH 6 0
BBX 6 13 0 -2
BITMAP
00
38
6C
00
78
CC
C0
C0
DC
CC
78
00
00
ENDCHAR
STARTCHAR gcircumflex
ENCODING 285
SWIDTH 426 0
DWIDTH 6 0
BBX 6 13 0 -2
BITMAP
00
00
38
6C
00
7C
D8
D8
70
C0
78
CC
78
ENDCHAR
STARTCHAR Gbreve
ENCODING 286
SWIDTH 426 0
DWIDTH 6 0
BBX 6 13 0 -2
BITMAP
00
44
38
00
78
CC
C0
C0
DC
CC
78
00
00
ENDCHAR
STARTCHAR gbreve
ENCODING 287
SWIDTH 426 0
DWIDTH 6 0
BBX 6 13 0 -2
BITMAP
00
00
44
38
00
7C
D8
D8
70
C0
78
CC
78
ENDCHAR
STARTCHAR Gdotaccent
ENCODING 288
SWIDTH 426 0
DWIDTH 6 0
BBX 6 13 0 -2
BITMAP
00
30
30
00
78
CC
C0
C0
DC
CC
78
00
00
ENDCHAR
STARTCHAR gdotaccent
ENCODING 289
SWIDTH 426 0
DWIDTH 6 0
BBX 6 13 0 -2
BITMAP
00
00
30
30
00
7C
D8
D8
70
C0
78
CC
78
ENDCHAR
STARTCHAR Gcommaaccent
ENCODING 290
SWIDTH 426 0
DWIDTH 6 0
BBX 6 13 0 -2
BITMAP
00
00
78
CC
C0
C0
C0
DC
CC
CC
78
10
20
ENDCHAR
STARTCHAR gcommaaccent
ENCODING 291
SWIDTH 426 0
DWIDTH 6 0
BBX 6 13 0 -2
BITMAP
00
0C
18
18
00
7C
D8
D8
70
C0
78
CC
78
ENDCHAR
STARTCHAR Hcircumflex
ENCODING 292
SWIDTH 426 0
DWIDTH 6 0
BBX 6 13 0 -2
BITMAP
00
38
6C
00
CC
CC
CC
FC
CC
CC
CC
00
00
ENDCHAR
STARTCHAR hcircumflex
ENCODING 293
SWIDTH 426 0
DWIDTH 6 0
BBX 6 13 0 -2
BITMAP
00
38
6C
00
C0
C0
D8
EC
CC
CC
CC
00
00
ENDCHAR
STARTCHAR Hbar
ENCODING 294
SWIDTH 426 0
DWIDTH 6 0
BBX 6 13 0 -2
BITMAP
00
00
CC
CC
FC
CC
FC
CC
CC
CC
CC
00
00
ENDCHAR
STARTCHAR hbar
ENCODING 295
SWIDTH 426 0
DWIDTH 6 0
BBX 6 13 0 -2
BITMAP
00
00
C0
F8
C0
D8
EC
CC
CC
CC
CC
00
00
ENDCHAR
STARTCHAR Itilde
ENCODING 296
SWIDTH 426 0
DWIDTH 6 0
BBX 6 13 0 -2
BITMAP
00
68
B0
00
F0
60
60
60
60
60
F0
00
00
ENDCHAR
STARTCHAR itilde
ENCODING 297
SWIDTH 426 0
DWIDTH 6 0
BBX 6 13 0 -2
BITMAP
00
00
68
B0
00
E0
60
60
60
60
F0
00
00
ENDCHAR
STARTCHAR Imacron
ENCODING 298
SWIDTH 426 0
DWIDTH 6 0
BBX 6 13 0 -2
BITMAP
00
78
00
78
30
30
30
30
30
30
78
00
00
ENDCHAR
STARTCHAR imacron
ENCODING 299
SWIDTH 426 0
DWIDTH 6 0
BBX 6 13 0 -2
BITMAP
00
00
00
78
00
70
30
30
30
30
78
00
00
ENDCHAR
STARTCHAR Ibreve
ENCODING 300
SWIDTH 426 0
DWIDTH 6 0
BBX 6 13 0 -2
BITMAP
00
88
70
00
F0
60
60
60
60
60
F0
00
00
ENDCHAR
STARTCHAR ibreve
ENCODING 301
SWIDTH 426 0
DWIDTH 6 0
BBX 6 13 0 -2
BITMAP
00
00
88
70
00
70
30
30
30
30
78
00
00
ENDCHAR
STARTCHAR Iogonek
ENCODING 302
SWIDTH 426 0
DWIDTH 6 0
BBX 6 13 0 -2
BITMAP
00
00
78
30
30
30
30
30
30
30
78
20
10
ENDCHAR
STARTCHAR iogonek
ENCODING 303
SWIDTH 426 0
DWIDTH 6 0
BBX 6 13 0 -2
BITMAP
00
00
30
30
00
70
30
30
30
30
78
20
10
ENDCHAR
STARTCHAR Idotaccent
ENCODING 304
SWIDTH 426 0
DWIDTH 6 0
BBX 6 13 0 -2
BITMAP
00
30
30
00
78
30
30
30
30
30
78
00
00
ENDCHAR
STARTCHAR dotlessi
ENCODING 305
SWIDTH 426 0
DWIDTH 6 0
BBX 6 13 0 -2
BITMAP
00
00
00
00
00
70
30
30
30
30
78
00
00
ENDCHAR
STARTCHAR IJ
ENCODING 306
SWIDTH 426 0
DWIDTH 6 0
BBX 6 13 0 -2
BITMAP
00
00
DC
CC
CC
CC
CC
CC
CC
EC
D8
00
00
ENDCHAR
STARTCHAR ij
ENCODING 307
SWIDTH 426 0
DWIDTH 6 0
BBX 6 13 0 -2
BITMAP
00
00
CC
CC
00
DC
CC
CC
CC
CC
EC
2C
18
ENDCHAR
STARTCHAR Jcircumflex
ENCODING 308
SWIDTH 426 0
DWIDTH 6 0
BBX 6 13 0 -2
BITMAP
00
38
6C
00
3C
0C
0C
0C
0C
CC
78
00
00
ENDCHAR
STARTCHAR jcircumflex
ENCODING 309
SWIDTH 426 0
DWIDTH 6 0
BBX 6 13 0 -2
BITMAP
00
00
38
6C
00
38
18
18
18
18
D8
D8
70
ENDCHAR
STARTCHAR Kcommaaccent
ENCODING 310
SWIDTH 426 0
DWIDTH 6 0
BBX 6 13 0 -2
BITMAP
00
00
CC
CC
D8
F0
E0
F0
D8
CC
CC
60
C0
ENDCHAR
STARTCHAR kcommaaccent
ENCODING 311
SWIDTH 426 0
DWIDTH 6 0
BBX 6 13 0 -2
BITMAP
00
00
C0
C0
C0
D8
F0
E0
F0
D8
CC
60
C0
ENDCHAR
STARTCHAR kgreenlandic
ENCODING 312
SWIDTH 426 0
DWIDTH 6 0
BBX 6 13 0 -2
BITMAP
00
00
00
00
00
CC
D8
F0
F0
D8
CC
00
00
ENDCHAR
STARTCHAR Lacute
ENCODING 313
SWIDTH 426 0
DWIDTH 6 0
BBX 6 13 0 -2
BITMAP
00
18
30
00
C0
C0
C0
C0
C0
C0
FC
00
00
ENDCHAR
STARTCHAR lacute
ENCODING 314
SWIDTH 426 0
DWIDTH 6 0
BBX 6 13 0 -2
BITMAP
00
18
30
00
70
30
30
30
30
30
78
00
00
ENDCHAR
STARTCHAR Lcommaaccent
ENCODING 315
SWIDTH 426 0
DWIDTH 6 0
BBX 6 13 0 -2
BITMAP
00
00
C0
C0
C0
C0
C0
C0
C0
C0
FC
30
60
ENDCHAR
STARTCHAR lcommaaccent
ENCODING 316
SWIDTH 426 0
DWIDTH 6 0
BBX 6 13 0 -2
BITMAP
00
00
70
30
30
30
30
30
30
30
78
30
60
ENDCHAR
STARTCHAR Lcaron
ENCODING 317
SWIDTH 426 0
DWIDTH 6 0
BBX 6 13 0 -2
BITMAP
00
D8
70
00
C0
C0
C0
C0
C0
C0
FC
00
00
ENDCHAR
STARTCHAR lcaron
ENCODING 318
SWIDTH 426 0
DWIDTH 6 0
BBX 6 13 0 -2
BITMAP
00
D8
70
00
70
30
30
30
30
30
78
00
00
ENDCHAR
STARTCHAR Ldot
ENCODING 319
SWIDTH 426 0
DWIDTH 6 0
BBX 6 13 0 -2
BITMAP
00
00
C0
C0
C0
D8
D8
C0
C0
C0
FC
00
00
ENDCHAR
STARTCHAR ldot
ENCODING 320
SWIDTH 426 0
DWIDTH 6 0
BBX 6 13 0 -2
BITMAP
00
00
E0
60
60
6C
6C
60
60
60
F0
00
00
ENDCHAR
STARTCHAR Lslash
ENCODING 321
SWIDTH 426 0
DWIDTH 6 0
BBX 6 13 0 -2
BITMAP
00
00
60
60
68
70
60
E0
60
60
7C
00
00
ENDCHAR
STARTCHAR lslash
ENCODING 322
SWIDTH 426 0
DWIDTH 6 0
BBX 6 13 0 -2
BITMAP
00
00
E0
60
68
70
60
E0
60
60
F0
00
00
ENDCHAR
STARTCHAR Nacute
ENCODING 323
SWIDTH 426 0
DWIDTH 6 0
BBX 6 13 0 -2
BITMAP
00
18
30
00
CC
EC
EC
FC
DC
CC
CC
00
00
ENDCHAR
STARTCHAR nacute
ENCODING 324
SWIDTH 426 0
DWIDTH 6 0
BBX 6 13 0 -2
BITMAP
00
00
18
30
00
D8
EC
CC
CC
CC
CC
00
00
ENDCHAR
STARTCHAR Ncommaaccent
ENCODING 325
SWIDTH 426 0
DWIDTH 6 0
BBX 6 13 0 -2
BITMAP
00
00
CC
EC
EC
FC
FC
DC
DC
CC
CC
60
C0
ENDCHAR
STARTCHAR ncommaaccent
ENCODING 326
SWIDTH 426 0
DWIDTH 6 0
BBX 6 13 0 -2
BITMAP
00
00
00
00
00
D8
EC
CC
CC
CC
CC
60
C0
ENDCHAR
STARTCHAR Ncaron
ENCODING 327
SWIDTH 426 0
DWIDTH 6 0
BBX 6 13 0 -2
BITMAP
00
6C
38
00
CC
EC
EC
FC
DC
CC
CC
00
00
ENDCHAR
STARTCHAR ncaron
ENCODING 328
SWIDTH 426 0
DWIDTH 6 0
BBX 6 13 0 -2
BITMAP
00
00
6C
38
00
D8
EC
CC
CC
CC
CC
00
00
ENDCHAR
STARTCHAR napostrophe
ENCODING 329
SWIDTH 426 0
DWIDTH 6 0
BBX 6 13 0 -2
BITMAP
00
60
60
C0
00
D8
EC
CC
CC
CC
CC
00
00
ENDCHAR
STARTCHAR Eng
ENCODING 330
SWIDTH 426 0
DWIDTH 6 0
BBX 6 13 0 -2
BITMAP
00
00
CC
EC
EC
FC
FC
DC
DC
CC
CC
2C
18
ENDCHAR
STARTCHAR eng
ENCODING 331
SWIDTH 426 0
DWIDTH 6 0
BBX 6 13 0 -2
BITMAP
00
00
00
00
00
D8
EC
CC
CC
CC
CC
2C
18
ENDCHAR
STARTCHAR Omacron
ENCODING 332
SWIDTH 426 0
DWIDTH 6 0
BBX 6 13 0 -2
BITMAP
00
7C
00
78
CC
CC
CC
CC
CC
CC
78
00
00
ENDCHAR
STARTCHAR omacron
ENCODING 333
SWIDTH 426 0
DWIDTH 6 0
BBX 6 13 0 -2
BITMAP
00
00
00
7C
00
78
CC
CC
CC
CC
78
00
00
ENDCHAR
STARTCHAR Obreve
ENCODING 334
SWIDTH 426 0
DWIDTH 6 0
BBX 6 13 0 -2
BITMAP
00
44
38
00
78
CC
CC
CC
CC
CC
78
00
00
ENDCHAR
STARTCHAR obreve
ENCODING 335
SWIDTH 426 0
DWIDTH 6 0
BBX 6 13 0 -2
BITMAP
00
00
44
38
00
78
CC
CC
CC
CC
78
00
00
ENDCHAR
STARTCHAR Ohungarumlaut
ENCODING 336
SWIDTH 426 0
DWIDTH 6 0
BBX 6 13 0 -2
BITMAP
00
6C
48
00
78
CC
CC
CC
CC
CC
78
00
00
ENDCHAR
STARTCHAR ohungarumlaut
ENCODING 337
SWIDTH 426 0
DWIDTH 6 0
BBX 6 13 0 -2
BITMAP
00
00
6C
48
00
78
CC
CC
CC
CC
78
00
00
ENDCHAR
STARTCHAR OE
ENCODING 338
SWIDTH 426 0
DWIDTH 6 0
BBX 6 13 0 -2
BITMAP
00
00
7C
D8
D8
D8
DC
D8
D8
D8
7C
00
00
ENDCHAR
STARTCHAR oe
ENCODING 339
SWIDTH 426 0
DWIDTH 6 0
BBX 6 13 0 -2
BITMAP
00
00
00
00
00
78
D4
D8
D0
D4
78
00
00
ENDCHAR
STARTCHAR Racute
ENCODING 340
SWIDTH 426 0
DWIDTH 6 0
BBX 6 13 0 -2
BITMAP
00
18
30
00
F8
CC
CC
F8
F0
D8
CC
00
00
ENDCHAR
STARTCHAR racute
ENCODING 341
SWIDTH 426 0
DWIDTH 6 0
BBX 6 13 0 -2
BITMAP
00
00
18
30
00
F8
EC
C0
C0
C0
C0
00
00
ENDCHAR
STARTCHAR Rcommaaccent
ENCODING 342
SWIDTH 426 0
DWIDTH 6 0
BBX 6 13 0 -2
BITMAP
00
00
F8
CC
CC
CC
F8
F0
D8
CC
CC
60
C0
ENDCHAR
STARTCHAR rcommaaccent
ENCODING 343
SWIDTH 426 0
DWIDTH 6 0
BBX 6 13 0 -2
BITMAP
00
00
00
00
00
F8
EC
C0
C0
C0
C0
60
C0
ENDCHAR
STARTCHAR Rcaron
ENCODING 344
SWIDTH 426 0
DWIDTH 6 0
BBX 6 13 0 -2
BITMAP
00
D8
70
00
F8
CC
CC
F8
F0
D8
CC
00
00
ENDCHAR
STARTCHAR rcaron
ENCODING 345
SWIDTH 426 0
DWIDTH 6 0
BBX 6 13 0 -2
BITMAP
00
00
D8
70
00
D8
EC
C0
C0
C0
C0
00
00
ENDCHAR
STARTCHAR Sacute
ENCODING 346
SWIDTH 426 0
DWIDTH 6 0
BBX 6 13 0 -2
BITMAP
00
18
30
00
78
CC
C0
78
0C
CC
78
00
00
ENDCHAR
STARTCHAR sacute
ENCODING 347
SWIDTH 426 0
DWIDTH 6 0
BBX 6 13 0 -2
BITMAP
00
00
18
30
00
78
CC
70
18
CC
78
00
00
ENDCHAR
STARTCHAR Scircumflex
ENCODING 348
SWIDTH 426 0
DWIDTH 6 0
BBX 6 13 0 -2
BITMAP
00
38
6C
00
78
CC
C0
78
0C
CC
78
00
00
ENDCHAR
STARTCHAR scircumflex
ENCODING 349
SWIDTH 426 0
DWIDTH 6 0
BBX 6 13 0 -2
BITMAP
00
00
38
6C
00
78
CC
70
18
CC
78
00
00
ENDCHAR
STARTCHAR Scedilla
ENCODING 350
SWIDTH 426 0
DWIDTH 6 0
BBX 6 13 0 -2
BITMAP
00
00
78
CC
C0
C0
78
0C
0C
CC
78
30
60
ENDCHAR
STARTCHAR scedilla
ENCODING 351
SWIDTH 426 0
DWIDTH 6 0
BBX 6 13 0 -2
BITMAP
00
00
00
00
00
78
CC
70
18
CC
78
30
60
ENDCHAR
STARTCHAR Scaron
ENCODING 352
SWIDTH 426 0
DWIDTH 6 0
BBX 6 13 0 -2
BITMAP
00
6C
38
00
78
CC
C0
78
0C
CC
78
00
00
ENDCHAR
STARTCHAR scaron
ENCODING 353
SWIDTH 426 0
DWIDTH 6 0
BBX 6 13 0 -2
BITMAP
00
00
6C
38
00
78
CC
70
18
CC
78
00
00
ENDCHAR
STARTCHAR Tcommaaccent
ENCODING 354
SWIDTH 426 0
DWIDTH 6 0
BBX 6 13 0 -2
BITMAP
00
00
FC
30
30
30
30
30
30
30
30
18
30
ENDCHAR
STARTCHAR tcommaaccent
ENCODING 355
SWIDTH 426 0
DWIDTH 6 0
BBX 6 13 0 -2
BITMAP
00
00
00
60
60
F8
60
60
60
6C
38
18
30
ENDCHAR
STARTCHAR Tcaron
ENCODING 356
SWIDTH 426 0
DWIDTH 6 0
BBX 6 13 0 -2
BITMAP
00
6C
38
00
FC
30
30
30
30
30
30
00
00
ENDCHAR
STARTCHAR tcaron
ENCODING 357
SWIDTH 426 0
DWIDTH 6 0
BBX 6 13 0 -2
BITMAP
00
D8
70
00
60
60
F8
60
60
6C
38
00
00
ENDCHAR
STARTCHAR Tbar
ENCODING 358
SWIDTH 426 0
DWIDTH 6 0
BBX 6 13 0 -2
BITMAP
00
00
FC
30
30
78
30
30
30
30
30
00
00
ENDCHAR
STARTCHAR tbar
ENCODING 359
SWIDTH 426 0
DWIDTH 6 0
BBX 6 13 0 -2
BITMAP
00
00
00
60
60
F8
60
F0
60
6C
38
00
00
ENDCHAR
STARTCHAR Utilde
ENCODING 360
SWIDTH 426 0
DWIDTH 6 0
BBX 6 13 0 -2
BITMAP
00
34
58
00
CC
CC
CC
CC
CC
CC
78
00
00
ENDCHAR
STARTCHAR utilde
ENCODING 361
SWIDTH 426 0
DWIDTH 6 0
BBX 6 13 0 -2
BITMAP
00
00
34
58
00
CC
CC
CC
CC
DC
6C
00
00
ENDCHAR
STARTCHAR Umacron
ENCODING 362
SWIDTH 426 0
DWIDTH 6 0
BBX 6 13 0 -2
BITMAP
00
7C
00
CC
CC
CC
CC
CC
CC
CC
78
00
00
ENDCHAR
STARTCHAR umacron
ENCODING 363
SWIDTH 426 0
DWIDTH 6 0
BBX 6 13 0 -2
BITMAP
00
00
00
7C
00
CC
CC
CC
CC
DC
6C
00
00
ENDCHAR
STARTCHAR Ubreve
ENCODING 364
SWIDTH 426 0
DWIDTH 6 0
BBX 6 13 0 -2
BITMAP
00
44
38
00
CC
CC
CC
CC
CC
CC
78
00
00
ENDCHAR
STARTCHAR ubreve
ENCODING 365
SWIDTH 426 0
DWIDTH 6 0
BBX 6 13 0 -2
BITMAP
00
00
44
38
00
CC
CC
CC
CC
DC
6C
00
00
ENDCHAR
STARTCHAR Uring
ENCODING 366
SWIDTH 426 0
DWIDTH 6 0
BBX 6 13 0 -2
BITMAP
78
48
78
00
CC
CC
CC
CC
CC
CC
78
00
00
ENDCHAR
STARTCHAR uring
ENCODING 367
SWIDTH 426 0
DWIDTH 6 0
BBX 6 13 0 -2
BITMAP
00
78
48
78
00
CC
CC
CC
CC
DC
6C
00
00
ENDCHAR
STARTCHAR Uhungarumlaut
ENCODING 368
SWIDTH 426 0
DWIDTH 6 0
BBX 6 13 0 -2
BITMAP
00
6C
48
00
CC
CC
CC
CC
CC
CC
78
00
00
ENDCHAR
STARTCHAR uhungarumlaut
ENCODING 369
SWIDTH 426 0
DWIDTH 6 0
BBX 6 13 0 -2
BITMAP
00
00
6C
48
00
CC
CC
CC
CC
DC
6C
00
00
ENDCHAR
STARTCHAR Uogonek
ENCODING 370
SWIDTH 426 0
DWIDTH 6 0
BBX 6 13 0 -2
BITMAP
00
00
CC
CC
CC
CC
CC
CC
CC
CC
78
30
18
ENDCHAR
STARTCHAR uogonek
ENCODING 371
SWIDTH 426 0
DWIDTH 6 0
BBX 6 13 0 -2
BITMAP
00
00
00
00
00
CC
CC
CC
CC
DC
74
30
18
ENDCHAR
STARTCHAR Wcircumflex
ENCODING 372
SWIDTH 426 0
DWIDTH 6 0
BBX 6 13 0 -2
BITMAP
00
38
6C
00
CC
CC
CC
FC
FC
FC
CC
00
00
ENDCHAR
STARTCHAR wcircumflex
ENCODING 373
SWIDTH 426 0
DWIDTH 6 0
BBX 6 13 0 -2
BITMAP
00
00
38
6C
00
CC
CC
FC
FC
FC
48
00
00
ENDCHAR
STARTCHAR Ycircumflex
ENCODING 374
SWIDTH 426 0
DWIDTH 6 0
BBX 6 13 0 -2
BITMAP
00
38
6C
00
CC
CC
78
78
30
30
30
00
00
ENDCHAR
STARTCHAR ycircumflex
ENCODING 375
SWIDTH 426 0
DWIDTH 6 0
BBX 6 13 0 -2
BITMAP
00
00
38
6C
00
CC
CC
CC
DC
6C
0C
CC
78
ENDCHAR
STARTCHAR Ydieresis
ENCODING 376
SWIDTH 426 0
DWIDTH 6 0
BBX 6 13 0 -2
BITMAP
00
CC
CC
00
CC
CC
78
78
30
30
30
00
00
ENDCHAR
STARTCHAR Zacute
ENCODING 377
SWIDTH 426 0
DWIDTH 6 0
BBX 6 13 0 -2
BITMAP
00
18
30
00
FC
0C
18
30
60
C0
FC
00
00
ENDCHAR
STARTCHAR zacute
ENCODING 378
SWIDTH 426 0
DWIDTH 6 0
BBX 6 13 0 -2
BITMAP
00
00
18
30
00
FC
18
30
60
C0
FC
00
00
ENDCHAR
STARTCHAR Zdotaccent
ENCODING 379
SWIDTH 426 0
DWIDTH 6 0
BBX 6 13 0 -2
BITMAP
00
30
30
00
FC
0C
18
30
60
C0
FC
00
00
ENDCHAR
STARTCHAR zdotaccent
ENCODING 380
SWIDTH 426 0
DWIDTH 6 0
BBX 6 13 0 -2
BITMAP
00
00
30
30
00
FC
18
30
60
C0
FC
00
00
ENDCHAR
STARTCHAR Zcaron
ENCODING 381
SWIDTH 426 0
DWIDTH 6 0
BBX 6 13 0 -2
BITMAP
00
6C
38
00
FC
0C
18
30
60
C0
FC
00
00
ENDCHAR
STARTCHAR zcaron
ENCODING 382
SWIDTH 426 0
DWIDTH 6 0
BBX 6 13 0 -2
BITMAP
00
00
6C
38
00
FC
18
30
60
C0
FC
00
00
ENDCHAR
STARTCHAR longs
ENCODING 383
SWIDTH 426 0
DWIDTH 6 0
BBX 6 13 0 -2
BITMAP
00
00
38
6C
60
60
E0
60
60
60
60
00
00
ENDCHAR
STARTCHAR uni0180
ENCODING 384
SWIDTH 426 0
DWIDTH 6 0
BBX 6 13 0 -2
BITMAP
00
00
60
F0
60
78
6C
6C
6C
6C
78
00
00
ENDCHAR
STARTCHAR uni0181
ENCODING 385
SWIDTH 426 0
DWIDTH 6 0
BBX 6 13 0 -2
BITMAP
00
00
78
EC
EC
6C
78
6C
6C
6C
78
00
00
ENDCHAR
STARTCHAR uni0182
ENCODING 386
SWIDTH 426 0
DWIDTH 6 0
BBX 6 13 0 -2
BITMAP
00
00
FC
CC
C0
F8
CC
CC
CC
CC
F8
00
00
ENDCHAR
STARTCHAR uni0183
ENCODING 387
SWIDTH 426 0
DWIDTH 6 0
BBX 6 13 0 -2
BITMAP
00
00
F8
D8
C0
F0
D8
D8
D8
D8
F0
00
00
ENDCHAR
STARTCHAR uni0184
ENCODING 388
SWIDTH 426 0
DWIDTH 6 0
BBX 6 13 0 -2
BITMAP
00
00
60
E0
E0
78
6C
6C
6C
6C
78
00
00
ENDCHAR
STARTCHAR uni0185
ENCODING 389
SWIDTH 426 0
DWIDTH 6 0
BBX 6 13 0 -2
BITMAP
00
00
60
E0
E0
70
68
68
68
68
70
00
00
ENDCHAR
STARTCHAR uni0186
ENCODING 390
SWIDTH 426 0
DWIDTH 6 0
BBX 6 13 0 -2
BITMAP
00
00
78
CC
0C
0C
0C
0C
0C
CC
78
00
00
ENDCHAR
STARTCHAR uni0187
ENCODING 391
SWIDTH 426 0
DWIDTH 6 0
BBX 6 13 0 -2
BITMAP
00
04
78
CC
C0
C0
C0
C0
C0
CC
78
00
00
ENDCHAR
STARTCHAR uni0188
ENCODING 392
SWIDTH 426 0
DWIDTH 6 0
BBX 6 13 0 -2
BITMAP
00
00
00
00
04
78
CC
C0
C0
CC
78
00
00
ENDCHAR
STARTCHAR uni0189
ENCODING 393
SWIDTH 426 0
DWIDTH 6 0
BBX 6 13 0 -2
BITMAP
00
00
F8
6C
6C
6C
FC
6C
6C
6C
F8
00
00
ENDCHAR
STARTCHAR uni018A
ENCODING 394
SWIDTH 426 0
DWIDTH 6 0
BBX 6 13 0 -2
BITMAP
00
00
78
EC
EC
6C
6C
6C
6C
6C
F8
00
00
ENDCHAR
STARTCHAR uni018B
ENCODING 395
SWIDTH 426 0
DWIDTH 6 0
BBX 6 13 0 -2
BITMAP
00
00
FC
CC
0C
7C
CC
CC
CC
CC
7C
00
00
ENDCHAR
STARTCHAR uni018C
ENCODING 396
SWIDTH 426 0
DWIDTH 6 0
BBX 6 13 0 -2
BITMAP
00
00
F8
D8
18
78
D8
D8
D8
D8
78
00
00
ENDCHAR
STARTCHAR uni018D
ENCODING 397
SWIDTH 426 0
DWIDTH 6 0
BBX 6 13 0 -2
BITMAP
00
00
00
00
00
78
CC
CC
CC
78
0C
CC
78
ENDCHAR
STARTCHAR uni018E
ENCODING 398
SWIDTH 426 0
DWIDTH 6 0
BBX 6 13 0 -2
BITMAP
00
00
FC
0C
0C
0C
7C
0C
0C
0C
FC
00
00
ENDCHAR
STARTCHAR uni018F
ENCODING 399
SWIDTH 426 0
DWIDTH 6 0
BBX 6 13 0 -2
BITMAP
00
00
78
CC
0C
0C
FC
CC
CC
CC
78
00
00
ENDCHAR
STARTCHAR uni0190
ENCODING 400
SWIDTH 426 0
DWIDTH 6 0
BBX 6 13 0 -2
BITMAP
00
00
78
CC
C0
C0
70
C0
CC
CC
78
00
00
ENDCHAR
STARTCHAR uni0191
ENCODING 401
SWIDTH 426 0
DWIDTH 6 0
BBX 6 13 0 -2
BITMAP
00
00
7C
60
60
60
7C
60
60
60
60
60
C0
ENDCHAR
STARTCHAR florin
ENCODING 402
SWIDTH 426 0
DWIDTH 6 0
BBX 6 13 0 -2
BITMAP
00
00
38
6C
60
60
F8
60
60
60
60
60
C0
ENDCHAR
STARTCHAR uni0193
ENCODING 403
SWIDTH 426 0
DWIDTH 6 0
BBX 6 13 0 -2
BITMAP
00
04
78
CC
C0
C0
C0
DC
CC
CC
78
00
00
ENDCHAR
STARTCHAR uni0194
ENCODING 404
SWIDTH 426 0
DWIDTH 6 0
BBX 6 13 0 -2
BITMAP
00
00
00
00
00
CC
CC
78
30
30
78
78
30
ENDCHAR
STARTCHAR Ohorn
ENCODING 416
SWIDTH 426 0
DWIDTH 6 0
BBX 6 13 0 -2
BITMAP
00
00
74
DC
D8
D8
D8
D8
D8
D8
70
00
00
ENDCHAR
STARTCHAR ohorn
ENCODING 417
SWIDTH 426 0
DWIDTH 6 0
BBX 6 13 0 -2
BITMAP
00
00
00
00
00
74
DC
D8
D8
D8
70
00
00
ENDCHAR
STARTCHAR Uhorn
ENCODING 431
SWIDTH 426 0
DWIDTH 6 0
BBX 6 13 0 -2
BITMAP
00
00
DC
DC
D8
D8
D8
D8
D8
D8
70
00
00
ENDCHAR
STARTCHAR uhorn
ENCODING 432
SWIDTH 426 0
DWIDTH 6 0
BBX 6 13 0 -2
BITMAP
00
00
00
00
00
DC
DC
D8
D8
F8
78
00
00
ENDCHAR
STARTCHAR uni01C0
ENCODING 448
SWIDTH 426 0
DWIDTH 6 0
BBX 6 13 0 -2
BITMAP
00
00
30
30
30
30
30
30
30
30
30
30
30
ENDCHAR
STARTCHAR uni01C1
ENCODING 449
SWIDTH 426 0
DWIDTH 6 0
BBX 6 13 0 -2
BITMAP
00
00
D8
D8
D8
D8
D8
D8
D8
D8
D8
D8
D8
ENDCHAR
STARTCHAR uni01C2
ENCODING 450
SWIDTH 426 0
DWIDTH 6 0
BBX 6 13 0 -2
BITMAP
00
00
00
00
30
30
FC
30
FC
30
30
00
00
ENDCHAR
STARTCHAR uni01C3
ENCODING 451
SWIDTH 426 0
DWIDTH 6 0
BBX 6 13 0 -2
BITMAP
00
00
30
30
30
30
30
30
30
00
30
00
00
ENDCHAR
STARTCHAR uni01CD
ENCODING 461
SWIDTH 426 0
DWIDTH 6 0
BBX 6 13 0 -2
BITMAP
00
6C
38
00
30
78
CC
CC
FC
CC
CC
00
00
ENDCHAR
STARTCHAR uni01CE
ENCODING 462
SWIDTH 426 0
DWIDTH 6 0
BBX 6 13 0 -2
BITMAP
00
00
6C
38
00
78
0C
7C
CC
DC
6C
00
00
ENDCHAR
STARTCHAR uni01CF
ENCODING 463
SWIDTH 426 0
DWIDTH 6 0
BBX 6 13 0 -2
BITMAP
00
6C
38
00
78
30
30
30
30
30
78
00
00
ENDCHAR
STARTCHAR uni01D0
ENCODING 464
SWIDTH 426 0
DWIDTH 6 0
BBX 6 13 0 -2
BITMAP
00
00
D8
70
00
70
30
30
30
30
78
00
00
ENDCHAR
STARTCHAR uni01D1
ENCODING 465
SWIDTH 426 0
DWIDTH 6 0
BBX 6 13 0 -2
BITMAP
00
6C
38
00
78
CC
CC
CC
CC
CC
78
00
00
ENDCHAR
STARTCHAR uni01D2
ENCODING 466
SWIDTH 426 0
DWIDTH 6 0
BBX 6 13 0 -2
BITMAP
00
00
6C
38
00
78
CC
CC
CC
CC
78
00
00
ENDCHAR
STARTCHAR uni01D3
ENCODING 467
SWIDTH 426 0
DWIDTH 6 0
BBX 6 13 0 -2
BITMAP
00
6C
38
00
CC
CC
CC
CC
CC
CC
78
00
00
ENDCHAR
STARTCHAR uni01D4
ENCODING 468
SWIDTH 426 0
DWIDTH 6 0
BBX 6 13 0 -2
BITMAP
00
00
6C
38
00
CC
CC
CC
CC
DC
6C
00
00
ENDCHAR
STARTCHAR Gcaron
ENCODING 486
SWIDTH 426 0
DWIDTH 6 0
BBX 6 13 0 -2
BITMAP
00
6C
38
00
78
CC
C0
DC
CC
CC
78
00
00
ENDCHAR
STARTCHAR gcaron
ENCODING 487
SWIDTH 426 0
DWIDTH 6 0
BBX 6 13 0 -2
BITMAP
00
6C
38
00
00
7C
CC
CC
CC
7C
0C
CC
78
ENDCHAR
STARTCHAR uni01E8
ENCODING 488
SWIDTH 426 0
DWIDTH 6 0
BBX 6 13 0 -2
BITMAP
00
6C
38
00
CC
D8
F0
E0
F0
D8
CC
00
00
ENDCHAR
STARTCHAR uni01E9
ENCODING 489
SWIDTH 426 0
DWIDTH 6 0
BBX 6 13 0 -2
BITMAP
00
D8
70
00
C0
C0
D8
F0
E0
F0
D8
00
00
ENDCHAR
STARTCHAR Scommaaccent
ENCODING 536
SWIDTH 426 0
DWIDTH 6 0
BBX 6 13 0 -2
BITMAP
00
00
78
CC
C0
C0
78
0C
0C
CC
78
30
60
ENDCHAR
STARTCHAR scommaaccent
ENCODING 537
SWIDTH 426 0
DWIDTH 6 0
BBX 6 13 0 -2
BITMAP
00
00
00
00
00
78
CC
70
18
CC
78
30
60
ENDCHAR
STARTCHAR Tcommaaccent
ENCODING 538
SWIDTH 426 0
DWIDTH 6 0
BBX 6 13 0 -2
BITMAP
00
00
FC
30
30
30
30
30
30
30
30
18
30
ENDCHAR
STARTCHAR tcommaaccent
ENCODING 539
SWIDTH 426 0
DWIDTH 6 0
BBX 6 13 0 -2
BITMAP
00
00
00
60
60
F8
60
60
60
6C
38
18
30
ENDCHAR
STARTCHAR uni0259
ENCODING 601
SWIDTH 426 0
DWIDTH 6 0
BBX 6 13 0 -2
BITMAP
00
00
00
00
00
78
CC
0C
FC
CC
78
00
00
ENDCHAR
STARTCHAR afii57929
ENCODING 700
SWIDTH 426 0
DWIDTH 6 0
BBX 6 13 0 -2
BITMAP
00
00
38
30
60
00
00
00
00
00
00
00
00
ENDCHAR
STARTCHAR afii64937
ENCODING 701
SWIDTH 426 0
DWIDTH 6 0
BBX 6 13 0 -2
BITMAP
00
00
70
30
18
00
00
00
00
00
00
00
00
ENDCHAR
STARTCHAR circumflex
ENCODING 710
SWIDTH 426 0
DWIDTH 6 0
BBX 6 13 0 -2
BITMAP
00
70
D8
00
00
00
00
00
00
00
00
00
00
ENDCHAR
STARTCHAR caron
ENCODING 711
SWIDTH 426 0
DWIDTH 6 0
BBX 6 13 0 -2
BITMAP
00
D8
70
00
00
00
00
00
00
00
00
00
00
ENDCHAR
STARTCHAR breve
ENCODING 728
SWIDTH 426 0
DWIDTH 6 0
BBX 6 13 0 -2
BITMAP
00
D8
70
00
00
00
00
00
00
00
00
00
00
ENDCHAR
STARTCHAR dotaccent
ENCODING 729
SWIDTH 426 0
DWIDTH 6 0
BBX 6 13 0 -2
BITMAP
00
30
30
00
00
00
00
00
00
00
00
00
00
ENDCHAR
STARTCHAR ring
ENCODING 730
SWIDTH 426 0
DWIDTH 6 0
BBX 6 13 0 -2
BITMAP
78
48
78
00
00
00
00
00
00
00
00
00
00
ENDCHAR
STARTCHAR ogonek
ENCODING 731
SWIDTH 426 0
DWIDTH 6 0
BBX 6 13 0 -2
BITMAP
00
00
00
00
00
00
00
00
00
00
00
30
38
ENDCHAR
STARTCHAR tilde
ENCODING 732
SWIDTH 426 0
DWIDTH 6 0
BBX 6 13 0 -2
BITMAP
00
68
B0
00
00
00
00
00
00
00
00
00
00
ENDCHAR
STARTCHAR hungarumlaut
ENCODING 733
SWIDTH 426 0
DWIDTH 6 0
BBX 6 13 0 -2
BITMAP
00
6C
D8
00
00
00
00
00
00
00
00
00
00
ENDCHAR
STARTCHAR gravecomb
ENCODING 768
SWIDTH 426 0
DWIDTH 6 0
BBX 6 13 0 -2
BITMAP
00
60
30
00
00
00
00
00
00
00
00
00
00
ENDCHAR
STARTCHAR acutecomb
ENCODING 769
SWIDTH 426 0
DWIDTH 6 0
BBX 6 13 0 -2
BITMAP
00
30
60
00
00
00
00
00
00
00
00
00
00
ENDCHAR
STARTCHAR uni0302
ENCODING 770
SWIDTH 426 0
DWIDTH 6 0
BBX 6 13 0 -2
BITMAP
00
70
D8
00
00
00
00
00
00
00
00
00
00
ENDCHAR
STARTCHAR tildecomb
ENCODING 771
SWIDTH 426 0
DWIDTH 6 0
BBX 6 13 0 -2
BITMAP
00
68
B0
00
00
00
00
00
00
00
00
00
00
ENDCHAR
STARTCHAR uni0304
ENCODING 772
SWIDTH 426 0
DWIDTH 6 0
BBX 6 13 0 -2
BITMAP
00
00
F8
00
00
00
00
00
00
00
00
00
00
ENDCHAR
STARTCHAR uni0305
ENCODING 773
SWIDTH 426 0
DWIDTH 6 0
BBX 6 13 0 -2
BITMAP
00
00
FC
00
00
00
00
00
00
00
00
00
00
ENDCHAR
STARTCHAR uni0306
ENCODING 774
SWIDTH 426 0
DWIDTH 6 0
BBX 6 13 0 -2
BITMAP
00
CC
78
00
00
00
00
00
00
00
00
00
00
ENDCHAR
STARTCHAR uni0307
ENCODING 775
SWIDTH 426 0
DWIDTH 6 0
BBX 6 13 0 -2
BITMAP
00
30
30
00
00
00
00
00
00
00
00
00
00
ENDCHAR
STARTCHAR uni0308
ENCODING 776
SWIDTH 426 0
DWIDTH 6 0
BBX 6 13 0 -2
BITMAP
00
D8
D8
00
00
00
00
00
00
00
00
00
00
ENDCHAR
STARTCHAR hookabovecomb
ENCODING 777
SWIDTH 426 0
DWIDTH 6 0
BBX 6 13 0 -2
BITMAP
70
D8
18
30
30
00
00
00
00
00
00
00
00
ENDCHAR
STARTCHAR uni030A
ENCODING 778
SWIDTH 426 0
DWIDTH 6 0
BBX 6 13 0 -2
BITMAP
78
48
78
00
00
00
00
00
00
00
00
00
00
ENDCHAR
STARTCHAR uni030B
ENCODING 779
SWIDTH 426 0
DWIDTH 6 0
BBX 6 13 0 -2
BITMAP
00
6C
D8
00
00
00
00
00
00
00
00
00
00
ENDCHAR
STARTCHAR uni030C
ENCODING 780
SWIDTH 426 0
DWIDTH 6 0
BBX 6 13 0 -2
BITMAP
00
D8
70
00
00
00
00
00
00
00
00
00
00
ENDCHAR
STARTCHAR uni030D
ENCODING 781
SWIDTH 426 0
DWIDTH 6 0
BBX 6 13 0 -2
BITMAP
00
30
30
30
00
00
00
00
00
00
00
00
00
ENDCHAR
STARTCHAR uni030E
ENCODING 782
SWIDTH 426 0
DWIDTH 6 0
BBX 6 13 0 -2
BITMAP
00
D8
D8
D8
00
00
00
00
00
00
00
00
00
ENDCHAR
STARTCHAR uni030F
ENCODING 783
SWIDTH 426 0
DWIDTH 6 0
BBX 6 13 0 -2
BITMAP
00
D8
6C
00
00
00
00
00
00
00
00
00
00
ENDCHAR
STARTCHAR uni0310
ENCODING 784
SWIDTH 426 0
DWIDTH 6 0
BBX 6 13 0 -2
BITMAP
30
30
CC
78
00
00
00
00
00
00
00
00
00
ENDCHAR
STARTCHAR uni0311
ENCODING 785
SWIDTH 426 0
DWIDTH 6 0
BBX 6 13 0 -2
BITMAP
00
78
CC
00
00
00
00
00
00
00
00
00
00
ENDCHAR
STARTCHAR uni0312
ENCODING 786
SWIDTH 426 0
DWIDTH 6 0
BBX 6 13 0 -2
BITMAP
00
18
30
70
00
00
00
00
00
00
00
00
00
ENDCHAR
STARTCHAR uni0313
ENCODING 787
SWIDTH 426 0
DWIDTH 6 0
BBX 6 13 0 -2
BITMAP
00
38
30
60
00
00
00
00
00
00
00
00
00
ENDCHAR
STARTCHAR uni0314
ENCODING 788
SWIDTH 426 0
DWIDTH 6 0
BBX 6 13 0 -2
BITMAP
00
70
30
18
00
00
00
00
00
00
00
00
00
ENDCHAR
STARTCHAR uni0315
ENCODING 789
SWIDTH 426 0
DWIDTH 6 0
BBX 6 13 0 -2
BITMAP
00
0C
0C
18
00
00
00
00
00
00
00
00
00
ENDCHAR
STARTCHAR uni0316
ENCODING 790
SWIDTH 426 0
DWIDTH 6 0
BBX 6 13 0 -2
BITMAP
00
00
00
00
00
00
00
00
00
00
00
60
30
ENDCHAR
STARTCHAR uni0317
ENCODING 791
SWIDTH 426 0
DWIDTH 6 0
BBX 6 13 0 -2
BITMAP
00
00
00
00
00
00
00
00
00
00
00
30
60
ENDCHAR
STARTCHAR uni0318
ENCODING 792
SWIDTH 426 0
DWIDTH 6 0
BBX 6 13 0 -2
BITMAP
00
00
00
00
00
00
00
00
00
00
30
70
30
ENDCHAR
STARTCHAR uni0319
ENCODING 793
SWIDTH 426 0
DWIDTH 6 0
BBX 6 13 0 -2
BITMAP
00
00
00
00
00
00
00
00
00
00
60
70
60
ENDCHAR
STARTCHAR uni031A
ENCODING 794
SWIDTH 426 0
DWIDTH 6 0
BBX 6 13 0 -2
BITMAP
00
1C
0C
0C
00
00
00
00
00
00
00
00
00
ENDCHAR
STARTCHAR uni031B
ENCODING 795
SWIDTH 426 0
DWIDTH 6 0
BBX 6 13 0 -2
BITMAP
00
00
0C
0C
18
00
00
00
00
00
00
00
00
ENDCHAR
STARTCHAR uni031C
ENCODING 796
SWIDTH 426 0
DWIDTH 6 0
BBX 6 13 0 -2
BITMAP
00
00
00
00
00
00
00
00
00
00
30
60
30
ENDCHAR
STARTCHAR uni031D
ENCODING 797
SWIDTH 426 0
DWIDTH 6 0
BBX 6 13 0 -2
BITMAP
00
00
00
00
00
00
00
00
00
00
00
30
78
ENDCHAR
STARTCHAR uni031E
ENCODING 798
SWIDTH 426 0
DWIDTH 6 0
BBX 6 13 0 -2
BITMAP
00
00
00
00
00
00
00
00
00
00
00
78
30
ENDCHAR
STARTCHAR uni031F
ENCODING 799
SWIDTH 426 0
DWIDTH 6 0
BBX 6 13 0 -2
BITMAP
00
00
00
00
00
00
00
00
00
00
30
78
30
ENDCHAR
STARTCHAR uni0320
ENCODING 800
SWIDTH 426 0
DWIDTH 6 0
BBX 6 13 0 -2
BITMAP
00
00
00
00
00
00
00
00
00
00
00
00
70
ENDCHAR
STARTCHAR uni0321
ENCODING 801
SWIDTH 426 0
DWIDTH 6 0
BBX 6 13 0 -2
BITMAP
00
00
00
00
00
00
00
00
00
00
0C
3C
18
ENDCHAR
STARTCHAR uni0322
ENCODING 802
SWIDTH 426 0
DWIDTH 6 0
BBX 6 13 0 -2
BITMAP
00
00
00
00
00
00
00
00
00
00
0C
0C
04
ENDCHAR
STARTCHAR dotbelowcomb
ENCODING 803
SWIDTH 426 0
DWIDTH 6 0
BBX 6 13 0 -2
BITMAP
00
00
00
00
00
00
00
00
00
00
00
00
30
ENDCHAR
STARTCHAR uni0324
ENCODING 804
SWIDTH 426 0
DWIDTH 6 0
BBX 6 13 0 -2
BITMAP
00
00
00
00
00
00
00
00
00
00
00
00
D8
ENDCHAR
STARTCHAR uni0325
ENCODING 805
SWIDTH 426 0
DWIDTH 6 0
BBX 6 13 0 -2
BITMAP
00
00
00
00
00
00
00
00
00
00
78
48
78
ENDCHAR
STARTCHAR uni0326
ENCODING 806
SWIDTH 426 0
DWIDTH 6 0
BBX 6 13 0 -2
BITMAP
00
00
00
00
00
00
00
00
00
00
00
30
60
ENDCHAR
STARTCHAR uni0327
ENCODING 807
SWIDTH 426 0
DWIDTH 6 0
BBX 6 13 0 -2
BITMAP
00
00
00
00
00
00
00
00
00
00
00
30
60
ENDCHAR
STARTCHAR uni0328
ENCODING 808
SWIDTH 426 0
DWIDTH 6 0
BBX 6 13 0 -2
BITMAP
00
00
00
00
00
00
00
00
00
00
00
30
38
ENDCHAR
STARTCHAR uni0329
ENCODING 809
SWIDTH 426 0
DWIDTH 6 0
BBX 6 13 0 -2
BITMAP
00
00
00
00
00
00
00
00
00
00
00
30
30
ENDCHAR
STARTCHAR uni032A
ENCODING 810
SWIDTH 426 0
DWIDTH 6 0
BBX 6 13 0 -2
BITMAP
00
00
00
00
00
00
00
00
00
00
00
FC
CC
ENDCHAR
STARTCHAR uni032B
ENCODING 811
SWIDTH 426 0
DWIDTH 6 0
BBX 6 13 0 -2
BITMAP
00
00
00
00
00
00
00
00
00
00
00
B4
78
ENDCHAR
STARTCHAR uni032C
ENCODING 812
SWIDTH 426 0
DWIDTH 6 0
BBX 6 13 0 -2
BITMAP
00
00
00
00
00
00
00
00
00
00
00
D8
70
ENDCHAR
STARTCHAR uni032D
ENCODING 813
SWIDTH 426 0
DWIDTH 6 0
BBX 6 13 0 -2
BITMAP
00
00
00
00
00
00
00
00
00
00
00
70
D8
ENDCHAR
STARTCHAR uni032E
ENCODING 814
SWIDTH 426 0
DWIDTH 6 0
BBX 6 13 0 -2
BITMAP
00
00
00
00
00
00
00
00
00
00
00
CC
78
ENDCHAR
STARTCHAR uni032F
ENCODING 815
SWIDTH 426 0
DWIDTH 6 0
BBX 6 13 0 -2
BITMAP
00
00
00
00
00
00
00
00
00
00
00
78
CC
ENDCHAR
STARTCHAR uni0330
ENCODING 816
SWIDTH 426 0
DWIDTH 6 0
BBX 6 13 0 -2
BITMAP
00
00
00
00
00
00
00
00
00
00
00
68
B0
ENDCHAR
STARTCHAR uni0331
ENCODING 817
SWIDTH 426 0
DWIDTH 6 0
BBX 6 13 0 -2
BITMAP
00
00
00
00
00
00
00
00
00
00
00
00
F8
ENDCHAR
STARTCHAR uni0332
ENCODING 818
SWIDTH 426 0
DWIDTH 6 0
BBX 6 13 0 -2
BITMAP
00
00
00
00
00
00
00
00
00
00
00
00
FC
ENDCHAR
STARTCHAR uni0333
ENCODING 819
SWIDTH 426 0
DWIDTH 6 0
BBX 6 13 0 -2
BITMAP
00
00
00
00
00
00
00
00
00
00
FC
00
FC
ENDCHAR
STARTCHAR uni0334
ENCODING 820
SWIDTH 426 0
DWIDTH 6 0
BBX 6 13 0 -2
BITMAP
00
00
00
00
00
00
00
68
B0
00
00
00
00
ENDCHAR
STARTCHAR uni0335
ENCODING 821
SWIDTH 426 0
DWIDTH 6 0
BBX 6 13 0 -2
BITMAP
00
00
00
00
00
00
00
78
00
00
00
00
00
ENDCHAR
STARTCHAR uni0336
ENCODING 822
SWIDTH 426 0
DWIDTH 6 0
BBX 6 13 0 -2
BITMAP
00
00
00
00
00
00
00
FC
00
00
00
00
00
ENDCHAR
STARTCHAR uni0337
ENCODING 823
SWIDTH 426 0
DWIDTH 6 0
BBX 6 13 0 -2
BITMAP
00
00
00
00
00
00
18
30
60
00
00
00
00
ENDCHAR
STARTCHAR uni0338
ENCODING 824
SWIDTH 426 0
DWIDTH 6 0
BBX 6 13 0 -2
BITMAP
00
00
0C
0C
18
18
30
60
60
C0
C0
00
00
ENDCHAR
STARTCHAR uni0339
ENCODING 825
SWIDTH 426 0
DWIDTH 6 0
BBX 6 13 0 -2
BITMAP
00
00
00
00
00
00
00
00
00
00
60
30
60
ENDCHAR
STARTCHAR uni033A
ENCODING 826
SWIDTH 426 0
DWIDTH 6 0
BBX 6 13 0 -2
BITMAP
00
00
00
00
00
00
00
00
00
00
00
CC
FC
ENDCHAR
STARTCHAR uni033B
ENCODING 827
SWIDTH 426 0
DWIDTH 6 0
BBX 6 13 0 -2
BITMAP
00
00
00
00
00
00
00
00
00
00
F8
D8
F8
ENDCHAR
STARTCHAR uni033C
ENCODING 828
SWIDTH 426 0
DWIDTH 6 0
BBX 6 13 0 -2
BITMAP
00
00
00
00
00
00
00
00
00
00
00
78
B4
ENDCHAR
STARTCHAR uni033D
ENCODING 829
SWIDTH 426 0
DWIDTH 6 0
BBX 6 13 0 -2
BITMAP
CC
30
CC
00
00
00
00
00
00
00
00
00
00
ENDCHAR
STARTCHAR uni033E
ENCODING 830
SWIDTH 426 0
DWIDTH 6 0
BBX 6 13 0 -2
BITMAP
30
60
30
60
00
00
00
00
00
00
00
00
00
ENDCHAR
STARTCHAR uni033F
ENCODING 831
SWIDTH 426 0
DWIDTH 6 0
BBX 6 13 0 -2
BITMAP
FC
00
FC
00
00
00
00
00
00
00
00
00
00
ENDCHAR
STARTCHAR uni0340
ENCODING 832
SWIDTH 426 0
DWIDTH 6 0
BBX 6 13 0 -2
BITMAP
00
C0
60
00
00
00
00
00
00
00
00
00
00
ENDCHAR
STARTCHAR uni0341
ENCODING 833
SWIDTH 426 0
DWIDTH 6 0
BBX 6 13 0 -2
BITMAP
00
18
30
00
00
00
00
00
00
00
00
00
00
ENDCHAR
STARTCHAR uni0342
ENCODING 834
SWIDTH 426 0
DWIDTH 6 0
BBX 6 13 0 -2
BITMAP
68
B0
00
00
00
00
00
00
00
00
00
00
00
ENDCHAR
STARTCHAR uni0343
ENCODING 835
SWIDTH 426 0
DWIDTH 6 0
BBX 6 13 0 -2
BITMAP
00
70
30
60
00
00
00
00
00
00
00
00
00
ENDCHAR
STARTCHAR uni0344
ENCODING 836
SWIDTH 426 0
DWIDTH 6 0
BBX 6 13 0 -2
BITMAP
00
18
30
CC
00
00
00
00
00
00
00
00
00
ENDCHAR
STARTCHAR uni0345
ENCODING 837
SWIDTH 426 0
DWIDTH 6 0
BBX 6 13 0 -2
BITMAP
00
00
00
00
00
00
00
00
00
00
00
00
30
ENDCHAR
STARTCHAR uni0374
ENCODING 884
SWIDTH 426 0
DWIDTH 6 0
BBX 6 13 0 -2
BITMAP
00
00
30
60
00
00
00
00
00
00
00
00
00
ENDCHAR
STARTCHAR uni0375
ENCODING 885
SWIDTH 426 0
DWIDTH 6 0
BBX 6 13 0 -2
BITMAP
00
00
00
00
00
00
00
00
00
00
00
30
60
ENDCHAR
STARTCHAR uni037A
ENCODING 890
SWIDTH 426 0
DWIDTH 6 0
BBX 6 13 0 -2
BITMAP
00
00
00
00
00
00
00
00
00
00
00
60
70
ENDCHAR
STARTCHAR uni037E
ENCODING 894
SWIDTH 426 0
DWIDTH 6 0
BBX 6 13 0 -2
BITMAP
00
00
00
00
30
78
30
00
00
38
30
60
00
ENDCHAR
STARTCHAR tonos
ENCODING 900
SWIDTH 426 0
DWIDTH 6 0
BBX 6 13 0 -2
BITMAP
00
00
30
60
00
00
00
00
00
00
00
00
00
ENDCHAR
STARTCHAR dieresistonos
ENCODING 901
SWIDTH 426 0
DWIDTH 6 0
BBX 6 13 0 -2
BITMAP
00
00
9C
B4
00
00
00
00
00
00
00
00
00
ENDCHAR
STARTCHAR Alphatonos
ENCODING 902
SWIDTH 426 0
DWIDTH 6 0
BBX 6 13 0 -2
BITMAP
00
00
90
B8
6C
6C
6C
7C
6C
6C
6C
00
00
ENDCHAR
STARTCHAR anoteleia
ENCODING 903
SWIDTH 426 0
DWIDTH 6 0
BBX 6 13 0 -2
BITMAP
00
00
00
00
00
30
30
00
00
00
00
00
00
ENDCHAR
STARTCHAR Epsilontonos
ENCODING 904
SWIDTH 426 0
DWIDTH 6 0
BBX 6 13 0 -2
BITMAP
00
00
FC
E0
60
60
78
60
60
60
7C
00
00
ENDCHAR
STARTCHAR Etatonos
ENCODING 905
SWIDTH 426 0
DWIDTH 6 0
BBX 6 13 0 -2
BITMAP
00
00
EC
EC
6C
6C
7C
6C
6C
6C
6C
00
00
ENDCHAR
STARTCHAR Iotatonos
ENCODING 906
SWIDTH 426 0
DWIDTH 6 0
BBX 6 13 0 -2
BITMAP
00
00
F8
B0
30
30
30
30
30
30
78
00
00
ENDCHAR
STARTCHAR Omicrontonos
ENCODING 908
SWIDTH 426 0
DWIDTH 6 0
BBX 6 13 0 -2
BITMAP
00
00
B8
EC
6C
6C
6C
6C
6C
6C
38
00
00
ENDCHAR
STARTCHAR Upsilontonos
ENCODING 910
SWIDTH 426 0
DWIDTH 6 0
BBX 6 13 0 -2
BITMAP
00
00
A4
A4
3C
3C
18
18
18
18
18
00
00
ENDCHAR
STARTCHAR Omegatonos
ENCODING 911
SWIDTH 426 0
DWIDTH 6 0
BBX 6 13 0 -2
BITMAP
00
00
B8
EC
6C
6C
6C
6C
28
28
6C
00
00
ENDCHAR
STARTCHAR iotadieresistonos
ENCODING 912
SWIDTH 426 0
DWIDTH 6 0
BBX 6 13 0 -2
BITMAP
00
00
9C
B4
00
30
30
30
30
3C
18
00
00
ENDCHAR
STARTCHAR Alpha
ENCODING 913
SWIDTH 426 0
DWIDTH 6 0
BBX 6 13 0 -2
BITMAP
00
00
30
78
CC
CC
CC
FC
CC
CC
CC
00
00
ENDCHAR
STARTCHAR Beta
ENCODING 914
SWIDTH 426 0
DWIDTH 6 0
BBX 6 13 0 -2
BITMAP
00
00
F8
CC
CC
CC
F8
CC
CC
CC
F8
00
00
ENDCHAR
STARTCHAR Gamma
ENCODING 915
SWIDTH 426 0
DWIDTH 6 0
BBX 6 13 0 -2
BITMAP
00
00
FC
C0
C0
C0
C0
C0
C0
C0
C0
00
00
ENDCHAR
STARTCHAR Delta
ENCODING 916
SWIDTH 426 0
DWIDTH 6 0
BBX 6 13 0 -2
BITMAP
00
00
30
30
78
78
78
CC
CC
CC
FC
00
00
ENDCHAR
STARTCHAR Epsilon
ENCODING 917
SWIDTH 426 0
DWIDTH 6 0
BBX 6 13 0 -2
BITMAP
00
00
FC
C0
C0
C0
F8
C0
C0
C0
FC
00
00
ENDCHAR
STARTCHAR Zeta
ENCODING 918
SWIDTH 426 0
DWIDTH 6 0
BBX 6 13 0 -2
BITMAP
00
00
FC
0C
18
18
30
60
60
C0
FC
00
00
ENDCHAR
STARTCHAR Eta
ENCODING 919
SWIDTH 426 0
DWIDTH 6 0
BBX 6 13 0 -2
BITMAP
00
00
CC
CC
CC
CC
FC
CC
CC
CC
CC
00
00
ENDCHAR
STARTCHAR Theta
ENCODING 920
SWIDTH 426 0
DWIDTH 6 0
BBX 6 13 0 -2
BITMAP
00
00
78
CC
CC
CC
FC
CC
CC
CC
78
00
00
ENDCHAR
STARTCHAR Iota
ENCODING 921
SWIDTH 426 0
DWIDTH 6 0
BBX 6 13 0 -2
BITMAP
00
00
78
30
30
30
30
30
30
30
78
00
00
ENDCHAR
STARTCHAR Kappa
ENCODING 922
SWIDTH 426 0
DWIDTH 6 0
BBX 6 13 0 -2
BITMAP
00
00
CC
CC
D8
F0
E0
F0
D8
CC
CC
00
00
ENDCHAR
STARTCHAR Lambda
ENCODING 923
SWIDTH 426 0
DWIDTH 6 0
BBX 6 13 0 -2
BITMAP
00
00
30
30
78
78
78
CC
CC
CC
CC
00
00
ENDCHAR
STARTCHAR Mu
ENCODING 924
SWIDTH 426 0
DWIDTH 6 0
BBX 6 13 0 -2
BITMAP
00
00
CC
CC
FC
FC
FC
CC
CC
CC
CC
00
00
ENDCHAR
STARTCHAR Nu
ENCODING 925
SWIDTH 426 0
DWIDTH 6 0
BBX 6 13 0 -2
BITMAP
00
00
CC
EC
EC
FC
FC
DC
DC
CC
CC
00
00
ENDCHAR
STARTCHAR Xi
ENCODING 926
SWIDTH 426 0
DWIDTH 6 0
BBX 6 13 0 -2
BITMAP
00
00
FC
00
00
00
78
00
00
00
FC
00
00
ENDCHAR
STARTCHAR Omicron
ENCODING 927
SWIDTH 426 0
DWIDTH 6 0
BBX 6 13 0 -2
BITMAP
00
00
78
CC
CC
CC
CC
CC
CC
CC
78
00
00
ENDCHAR
STARTCHAR Pi
ENCODING 928
SWIDTH 426 0
DWIDTH 6 0
BBX 6 13 0 -2
BITMAP
00
00
FC
CC
CC
CC
CC
CC
CC
CC
CC
00
00
ENDCHAR
STARTCHAR Rho
ENCODING 929
SWIDTH 426 0
DWIDTH 6 0
BBX 6 13 0 -2
BITMAP
00
00
F8
CC
CC
CC
F8
C0
C0
C0
C0
00
00
ENDCHAR
STARTCHAR Sigma
ENCODING 931
SWIDTH 426 0
DWIDTH 6 0
BBX 6 13 0 -2
BITMAP
00
00
FC
C0
60
30
30
60
C0
C0
FC
00
00
ENDCHAR
STARTCHAR Tau
ENCODING 932
SWIDTH 426 0
DWIDTH 6 0
BBX 6 13 0 -2
BITMAP
00
00
FC
30
30
30
30
30
30
30
30
00
00
ENDCHAR
STARTCHAR Upsilon
ENCODING 933
SWIDTH 426 0
DWIDTH 6 0
BBX 6 13 0 -2
BITMAP
00
00
CC
CC
78
78
30
30
30
30
30
00
00
ENDCHAR
STARTCHAR Phi
ENCODING 934
SWIDTH 426 0
DWIDTH 6 0
BBX 6 13 0 -2
BITMAP
00
00
30
78
FC
B4
B4
B4
FC
78
30
00
00
ENDCHAR
STARTCHAR Chi
ENCODING 935
SWIDTH 426 0
DWIDTH 6 0
BBX 6 13 0 -2
BITMAP
00
00
CC
CC
78
78
30
78
78
CC
CC
00
00
ENDCHAR
STARTCHAR Psi
ENCODING 936
SWIDTH 426 0
DWIDTH 6 0
BBX 6 13 0 -2
BITMAP
00
00
CC
CC
FC
FC
FC
FC
78
30
30
00
00
ENDCHAR
STARTCHAR Omega
ENCODING 937
SWIDTH 426 0
DWIDTH 6 0
BBX 6 13 0 -2
BITMAP
00
00
78
CC
CC
CC
CC
CC
48
48
CC
00
00
ENDCHAR
STARTCHAR Iotadieresis
ENCODING 938
SWIDTH 426 0
DWIDTH 6 0
BBX 6 13 0 -2
BITMAP
00
CC
CC
00
78
30
30
30
30
30
78
00
00
ENDCHAR
STARTCHAR Upsilondieresis
ENCODING 939
SWIDTH 426 0
DWIDTH 6 0
BBX 6 13 0 -2
BITMAP
00
CC
CC
00
CC
48
78
30
30
30
30
00
00
ENDCHAR
STARTCHAR alphatonos
ENCODING 940
SWIDTH 426 0
DWIDTH 6 0
BBX 6 13 0 -2
BITMAP
00
18
30
00
00
78
CC
CC
CC
DC
6C
00
00
ENDCHAR
STARTCHAR epsilontonos
ENCODING 941
SWIDTH 426 0
DWIDTH 6 0
BBX 6 13 0 -2
BITMAP
00
00
18
30
00
78
CC
70
C0
CC
78
00
00
ENDCHAR
STARTCHAR etatonos
ENCODING 942
SWIDTH 426 0
DWIDTH 6 0
BBX 6 13 0 -2
BITMAP
00
00
18
30
00
F8
EC
CC
CC
CC
CC
0C
0C
ENDCHAR
STARTCHAR iotatonos
ENCODING 943
SWIDTH 426 0
DWIDTH 6 0
BBX 6 13 0 -2
BITMAP
00
00
30
60
00
60
60
60
60
78
30
00
00
ENDCHAR
STARTCHAR upsilondieresistonos
ENCODING 944
SWIDTH 426 0
DWIDTH 6 0
BBX 6 13 0 -2
BITMAP
00
00
9C
B4
00
CC
CC
CC
CC
FC
78
00
00
ENDCHAR
STARTCHAR alpha
ENCODING 945
SWIDTH 426 0
DWIDTH 6 0
BBX 6 13 0 -2
BITMAP
00
00
00
00
00
78
CC
CC
CC
DC
6C
00
00
ENDCHAR
STARTCHAR beta
ENCODING 946
SWIDTH 426 0
DWIDTH 6 0
BBX 6 13 0 -2
BITMAP
00
00
70
D8
D8
F8
CC
CC
CC
EC
F8
C0
C0
ENDCHAR
STARTCHAR gamma
ENCODING 947
SWIDTH 426 0
DWIDTH 6 0
BBX 6 13 0 -2
BITMAP
00
00
00
00
00
CC
CC
CC
78
78
30
30
30
ENDCHAR
STARTCHAR delta
ENCODING 948
SWIDTH 426 0
DWIDTH 6 0
BBX 6 13 0 -2
BITMAP
00
00
78
CC
60
78
CC
CC
CC
CC
78
00
00
ENDCHAR
STARTCHAR epsilon
ENCODING 949
SWIDTH 426 0
DWIDTH 6 0
BBX 6 13 0 -2
BITMAP
00
00
00
00
00
78
CC
70
C0
CC
78
00
00
ENDCHAR
STARTCHAR zeta
ENCODING 950
SWIDTH 426 0
DWIDTH 6 0
BBX 6 13 0 -2
BITMAP
00
00
FC
30
60
60
C0
C0
C0
C0
78
0C
38
ENDCHAR
STARTCHAR eta
ENCODING 951
SWIDTH 426 0
DWIDTH 6 0
BBX 6 13 0 -2
BITMAP
00
00
00
00
00
F8
EC
CC
CC
CC
CC
0C
0C
ENDCHAR
STARTCHAR theta
ENCODING 952
SWIDTH 426 0
DWIDTH 6 0
BBX 6 13 0 -2
BITMAP
00
00
70
D8
D8
D8
F8
D8
D8
D8
70
00
00
ENDCHAR
STARTCHAR iota
ENCODING 953
SWIDTH 426 0
DWIDTH 6 0
BBX 6 13 0 -2
BITMAP
00
00
00
00
00
60
60
60
60
78
30
00
00
ENDCHAR
STARTCHAR kappa
ENCODING 954
SWIDTH 426 0
DWIDTH 6 0
BBX 6 13 0 -2
BITMAP
00
00
00
00
00
CC
D8
F0
F0
D8
CC
00
00
ENDCHAR
STARTCHAR lambda
ENCODING 955
SWIDTH 426 0
DWIDTH 6 0
BBX 6 13 0 -2
BITMAP
00
00
78
CC
0C
7C
DC
CC
CC
CC
CC
00
00
ENDCHAR
STARTCHAR mu
ENCODING 956
SWIDTH 426 0
DWIDTH 6 0
BBX 6 13 0 -2
BITMAP
00
00
00
00
00
CC
CC
CC
CC
DC
FC
C0
C0
ENDCHAR
STARTCHAR nu
ENCODING 957
SWIDTH 426 0
DWIDTH 6 0
BBX 6 13 0 -2
BITMAP
00
00
00
00
00
CC
CC
CC
78
78
30
00
00
ENDCHAR
STARTCHAR xi
ENCODING 958
SWIDTH 426 0
DWIDTH 6 0
BBX 6 13 0 -2
BITMAP
00
00
FC
30
60
60
38
60
C0
C0
78
0C
38
ENDCHAR
STARTCHAR omicron
ENCODING 959
SWIDTH 426 0
DWIDTH 6 0
BBX 6 13 0 -2
BITMAP
00
00
00
00
00
78
CC
CC
CC
CC
78
00
00
ENDCHAR
STARTCHAR pi
ENCODING 960
SWIDTH 426 0
DWIDTH 6 0
BBX 6 13 0 -2
BITMAP
00
00
00
00
00
FC
CC
CC
CC
CC
CC
00
00
ENDCHAR
STARTCHAR rho
ENCODING 961
SWIDTH 426 0
DWIDTH 6 0
BBX 6 13 0 -2
BITMAP
00
00
00
00
00
78
CC
CC
CC
EC
F8
C0
C0
ENDCHAR
STARTCHAR sigma1
ENCODING 962
SWIDTH 426 0
DWIDTH 6 0
BBX 6 13 0 -2
BITMAP
00
00
00
00
00
78
CC
C0
C0
C0
78
0C
38
ENDCHAR
STARTCHAR sigma
ENCODING 963
SWIDTH 426 0
DWIDTH 6 0
BBX 6 13 0 -2
BITMAP
00
00
00
00
00
7C
D8
CC
CC
CC
78
00
00
ENDCHAR
STARTCHAR tau
ENCODING 964
SWIDTH 426 0
DWIDTH 6 0
BBX 6 13 0 -2
BITMAP
00
00
00
00
00
FC
30
30
30
3C
18
00
00
ENDCHAR
STARTCHAR upsilon
ENCODING 965
SWIDTH 426 0
DWIDTH 6 0
BBX 6 13 0 -2
BITMAP
00
00
00
00
00
CC
CC
CC
CC
CC
78
00
00
ENDCHAR
STARTCHAR phi
ENCODING 966
SWIDTH 426 0
DWIDTH 6 0
BBX 6 13 0 -2
BITMAP
00
00
00
00
00
78
FC
B4
B4
FC
78
30
30
ENDCHAR
STARTCHAR chi
ENCODING 967
SWIDTH 426 0
DWIDTH 6 0
BBX 6 13 0 -2
BITMAP
00
00
00
00
00
CC
CC
78
30
30
78
CC
CC
ENDCHAR
STARTCHAR psi
ENCODING 968
SWIDTH 426 0
DWIDTH 6 0
BBX 6 13 0 -2
BITMAP
00
00
00
00
00
CC
CC
FC
FC
FC
78
30
30
ENDCHAR
STARTCHAR omega
ENCODING 969
SWIDTH 426 0
DWIDTH 6 0
BBX 6 13 0 -2
BITMAP
00
00
00
00
00
CC
CC
FC
FC
FC
78
00
00
ENDCHAR
STARTCHAR iotadieresis
ENCODING 970
SWIDTH 426 0
DWIDTH 6 0
BBX 6 13 0 -2
BITMAP
00
00
CC
CC
00
30
30
30
30
3C
18
00
00
ENDCHAR
STARTCHAR upsilondieresis
ENCODING 971
SWIDTH 426 0
DWIDTH 6 0
BBX 6 13 0 -2
BITMAP
00
00
CC
CC
00
CC
CC
CC
CC
CC
78
00
00
ENDCHAR
STARTCHAR omicrontonos
ENCODING 972
SWIDTH 426 0
DWIDTH 6 0
BBX 6 13 0 -2
BITMAP
00
00
18
30
00
78
CC
CC
CC
CC
78
00
00
ENDCHAR
STARTCHAR upsilontonos
ENCODING 973
SWIDTH 426 0
DWIDTH 6 0
BBX 6 13 0 -2
BITMAP
00
00
18
30
00
CC
CC
CC
CC
CC
78
00
00
ENDCHAR
STARTCHAR omegatonos
ENCODING 974
SWIDTH 426 0
DWIDTH 6 0
BBX 6 13 0 -2
BITMAP
00
00
18
30
00
CC
CC
FC
FC
FC
78
00
00
ENDCHAR
STARTCHAR uni03D0
ENCODING 976
SWIDTH 426 0
DWIDTH 6 0
BBX 6 13 0 -2
BITMAP
00
00
70
D8
D8
F8
CC
CC
CC
CC
78
00
00
ENDCHAR
STARTCHAR theta1
ENCODING 977
SWIDTH 426 0
DWIDTH 6 0
BBX 6 13 0 -2
BITMAP
00
00
70
D8
D8
7C
18
D8
D8
D8
70
00
00
ENDCHAR
STARTCHAR Upsilon1
ENCODING 978
SWIDTH 426 0
DWIDTH 6 0
BBX 6 13 0 -2
BITMAP
00
00
48
FC
B4
30
30
30
30
30
30
00
00
ENDCHAR
STARTCHAR uni03D3
ENCODING 979
SWIDTH 426 0
DWIDTH 6 0
BBX 6 13 0 -2
BITMAP
00
00
48
FC
B4
30
B0
B0
30
30
30
00
00
ENDCHAR
STARTCHAR uni03D4
ENCODING 980
SWIDTH 426 0
DWIDTH 6 0
BBX 6 13 0 -2
BITMAP
00
CC
CC
00
48
FC
B4
30
30
30
30
00
00
ENDCHAR
STARTCHAR phi1
ENCODING 981
SWIDTH 426 0
DWIDTH 6 0
BBX 6 13 0 -2
BITMAP
00
00
00
30
30
78
FC
B4
B4
FC
78
30
30
ENDCHAR
STARTCHAR omega1
ENCODING 982
SWIDTH 426 0
DWIDTH 6 0
BBX 6 13 0 -2
BITMAP
00
00
00
00
00
FC
CC
FC
FC
FC
78
00
00
ENDCHAR
STARTCHAR uni03D7
ENCODING 983
SWIDTH 426 0
DWIDTH 6 0
BBX 6 13 0 -2
BITMAP
00
00
18
30
00
CC
78
70
60
F4
DC
0C
38
ENDCHAR
STARTCHAR uni03DA
ENCODING 986
SWIDTH 426 0
DWIDTH 6 0
BBX 6 13 0 -2
BITMAP
00
00
38
6C
C0
C0
C0
C0
C0
78
0C
18
00
ENDCHAR
STARTCHAR uni03DB
ENCODING 987
SWIDTH 426 0
DWIDTH 6 0
BBX 6 13 0 -2
BITMAP
00
00
00
00
0C
78
C0
C0
C0
C0
78
0C
38
ENDCHAR
STARTCHAR uni03DC
ENCODING 988
SWIDTH 426 0
DWIDTH 6 0
BBX 6 13 0 -2
BITMAP
00
00
FC
C0
C0
C0
F8
C0
C0
C0
C0
00
00
ENDCHAR
STARTCHAR uni03DD
ENCODING 989
SWIDTH 426 0
DWIDTH 6 0
BBX 6 13 0 -2
BITMAP
00
00
00
00
00
F8
C0
C0
F0
C0
C0
C0
C0
ENDCHAR
STARTCHAR uni03DE
ENCODING 990
SWIDTH 426 0
DWIDTH 6 0
BBX 6 13 0 -2
BITMAP
00
00
C0
CC
DC
DC
FC
EC
EC
CC
0C
00
00
ENDCHAR
STARTCHAR uni03DF
ENCODING 991
SWIDTH 426 0
DWIDTH 6 0
BBX 6 13 0 -2
BITMAP
00
00
60
60
60
C0
C0
FC
0C
0C
18
18
18
ENDCHAR
STARTCHAR uni03E0
ENCODING 992
SWIDTH 426 0
DWIDTH 6 0
BBX 6 13 0 -2
BITMAP
00
00
30
30
78
78
78
CC
DC
DC
DC
00
00
ENDCHAR
STARTCHAR uni03E1
ENCODING 993
SWIDTH 426 0
DWIDTH 6 0
BBX 6 13 0 -2
BITMAP
00
00
E0
30
18
38
6C
5C
3C
2C
0C
0C
0C
ENDCHAR
STARTCHAR uni03F0
ENCODING 1008
SWIDTH 426 0
DWIDTH 6 0
BBX 6 13 0 -2
BITMAP
00
00
00
00
00
CC
78
70
60
F0
DC
00
00
ENDCHAR
STARTCHAR uni03F1
ENCODING 1009
SWIDTH 426 0
DWIDTH 6 0
BBX 6 13 0 -2
BITMAP
00
00
00
00
00
78
CC
CC
CC
EC
F8
C0
78
ENDCHAR
STARTCHAR uni03F2
ENCODING 1010
SWIDTH 426 0
DWIDTH 6 0
BBX 6 13 0 -2
BITMAP
00
00
00
00
00
78
C4
C0
C0
C4
78
00
00
ENDCHAR
STARTCHAR uni03F3
ENCODING 1011
SWIDTH 426 0
DWIDTH 6 0
BBX 6 13 0 -2
BITMAP
00
00
00
18
00
38
18
18
18
18
D8
D8
70
ENDCHAR
STARTCHAR uni03F4
ENCODING 1012
SWIDTH 426 0
DWIDTH 6 0
BBX 6 13 0 -2
BITMAP
00
00
78
CC
CC
CC
FC
CC
CC
CC
78
00
00
ENDCHAR
STARTCHAR uni03F5
ENCODING 1013
SWIDTH 426 0
DWIDTH 6 0
BBX 6 13 0 -2
BITMAP
00
00
00
00
00
78
C0
F0
C0
C0
78
00
00
ENDCHAR
STARTCHAR afii10023
ENCODING 1025
SWIDTH 426 0
DWIDTH 6 0
BBX 6 13 0 -2
BITMAP
00
CC
CC
00
FC
C0
C0
F8
C0
C0
FC
00
00
ENDCHAR
STARTCHAR afii10051
ENCODING 1026
SWIDTH 426 0
DWIDTH 6 0
BBX 6 13 0 -2
BITMAP
00
00
F8
60
60
78
6C
6C
6C
6C
6C
0C
18
ENDCHAR
STARTCHAR afii10052
ENCODING 1027
SWIDTH 426 0
DWIDTH 6 0
BBX 6 13 0 -2
BITMAP
00
30
60
00
FC
C0
C0
C0
C0
C0
C0
00
00
ENDCHAR
STARTCHAR afii10053
ENCODING 1028
SWIDTH 426 0
DWIDTH 6 0
BBX 6 13 0 -2
BITMAP
00
00
3C
60
C0
C0
F8
C0
C0
60
3C
00
00
ENDCHAR
STARTCHAR afii10054
ENCODING 1029
SWIDTH 426 0
DWIDTH 6 0
BBX 6 13 0 -2
BITMAP
00
00
78
CC
C0
C0
78
0C
0C
CC
78
00
00
ENDCHAR
STARTCHAR afii10055
ENCODING 1030
SWIDTH 426 0
DWIDTH 6 0
BBX 6 13 0 -2
BITMAP
00
00
78
30
30
30
30
30
30
30
78
00
00
ENDCHAR
STARTCHAR afii10056
ENCODING 1031
SWIDTH 426 0
DWIDTH 6 0
BBX 6 13 0 -2
BITMAP
00
CC
CC
00
FC
30
30
30
30
30
FC
00
00
ENDCHAR
STARTCHAR afii10057
ENCODING 1032
SWIDTH 426 0
DWIDTH 6 0
BBX 6 13 0 -2
BITMAP
00
00
3C
0C
0C
0C
0C
0C
0C
CC
78
00
00
ENDCHAR
STARTCHAR afii10058
ENCODING 1033
SWIDTH 426 0
DWIDTH 6 0
BBX 6 13 0 -2
BITMAP
00
00
70
50
50
58
DC
D4
94
9C
98
00
00
ENDCHAR
STARTCHAR afii10059
ENCODING 1034
SWIDTH 426 0
DWIDTH 6 0
BBX 6 13 0 -2
BITMAP
00
00
90
90
90
F8
FC
94
94
9C
98
00
00
ENDCHAR
STARTCHAR afii10060
ENCODING 1035
SWIDTH 426 0
DWIDTH 6 0
BBX 6 13 0 -2
BITMAP
00
00
F8
60
60
78
6C
6C
6C
6C
6C
00
00
ENDCHAR
STARTCHAR afii10061
ENCODING 1036
SWIDTH 426 0
DWIDTH 6 0
BBX 6 13 0 -2
BITMAP
18
30
00
CC
D8
F0
E0
F0
D8
CC
CC
00
00
ENDCHAR
STARTCHAR afii10062
ENCODING 1038
SWIDTH 426 0
DWIDTH 6 0
BBX 6 13 0 -2
BITMAP
00
44
38
00
CC
CC
CC
7C
0C
CC
78
00
00
ENDCHAR
STARTCHAR afii10145
ENCODING 1039
SWIDTH 426 0
DWIDTH 6 0
BBX 6 13 0 -2
BITMAP
00
00
CC
CC
CC
CC
CC
CC
CC
CC
FC
30
30
ENDCHAR
STARTCHAR afii10017
ENCODING 1040
SWIDTH 426 0
DWIDTH 6 0
BBX 6 13 0 -2
BITMAP
00
00
30
78
CC
CC
CC
FC
CC
CC
CC
00
00
ENDCHAR
STARTCHAR afii10018
ENCODING 1041
SWIDTH 426 0
DWIDTH 6 0
BBX 6 13 0 -2
BITMAP
00
00
F8
C0
C0
C0
F8
CC
CC
CC
F8
00
00
ENDCHAR
STARTCHAR afii10019
ENCODING 1042
SWIDTH 426 0
DWIDTH 6 0
BBX 6 13 0 -2
BITMAP
00
00
F8
CC
CC
CC
F8
CC
CC
CC
F8
00
00
ENDCHAR
STARTCHAR afii10020
ENCODING 1043
SWIDTH 426 0
DWIDTH 6 0
BBX 6 13 0 -2
BITMAP
00
00
FC
C0
C0
C0
C0
C0
C0
C0
C0
00
00
ENDCHAR
STARTCHAR afii10021
ENCODING 1044
SWIDTH 426 0
DWIDTH 6 0
BBX 6 13 0 -2
BITMAP
00
00
3C
6C
6C
6C
6C
6C
6C
6C
FC
84
00
ENDCHAR
STARTCHAR afii10022
ENCODING 1045
SWIDTH 426 0
DWIDTH 6 0
BBX 6 13 0 -2
BITMAP
00
00
FC
C0
C0
C0
F8
C0
C0
C0
FC
00
00
ENDCHAR
STARTCHAR afii10024
ENCODING 1046
SWIDTH 426 0
DWIDTH 6 0
BBX 6 13 0 -2
BITMAP
00
00
B4
B4
B4
FC
30
FC
B4
B4
B4
00
00
ENDCHAR
STARTCHAR afii10025
ENCODING 1047
SWIDTH 426 0
DWIDTH 6 0
BBX 6 13 0 -2
BITMAP
00
00
78
CC
0C
0C
38
0C
0C
CC
78
00
00
ENDCHAR
STARTCHAR afii10026
ENCODING 1048
SWIDTH 426 0
DWIDTH 6 0
BBX 6 13 0 -2
BITMAP
00
00
CC
DC
DC
FC
FC
EC
EC
CC
CC
00
00
ENDCHAR
STARTCHAR afii10027
ENCODING 1049
SWIDTH 426 0
DWIDTH 6 0
BBX 6 13 0 -2
BITMAP
00
44
38
00
CC
CC
DC
FC
EC
CC
CC
00
00
ENDCHAR
STARTCHAR afii10028
ENCODING 1050
SWIDTH 426 0
DWIDTH 6 0
BBX 6 13 0 -2
BITMAP
00
00
CC
CC
D8
F0
E0
F0
D8
CC
CC
00
00
ENDCHAR
STARTCHAR afii10029
ENCODING 1051
SWIDTH 426 0
DWIDTH 6 0
BBX 6 13 0 -2
BITMAP
00
00
3C
6C
6C
6C
6C
6C
6C
CC
CC
00
00
ENDCHAR
STARTCHAR afii10030
ENCODING 1052
SWIDTH 426 0
DWIDTH 6 0
BBX 6 13 0 -2
BITMAP
00
00
CC
CC
FC
FC
FC
CC
CC
CC
CC
00
00
ENDCHAR
STARTCHAR afii10031
ENCODING 1053
SWIDTH 426 0
DWIDTH 6 0
BBX 6 13 0 -2
BITMAP
00
00
CC
CC
CC
CC
FC
CC
CC
CC
CC
00
00
ENDCHAR
STARTCHAR afii10032
ENCODING 1054
SWIDTH 426 0
DWIDTH 6 0
BBX 6 13 0 -2
BITMAP
00
00
78
CC
CC
CC
CC
CC
CC
CC
78
00
00
ENDCHAR
STARTCHAR afii10033
ENCODING 1055
SWIDTH 426 0
DWIDTH 6 0
BBX 6 13 0 -2
BITMAP
00
00
FC
CC
CC
CC
CC
CC
CC
CC
CC
00
00
ENDCHAR
STARTCHAR afii10034
ENCODING 1056
SWIDTH 426 0
DWIDTH 6 0
BBX 6 13 0 -2
BITMAP
00
00
F8
CC
CC
CC
CC
F8
C0
C0
C0
00
00
ENDCHAR
STARTCHAR afii10035
ENCODING 1057
SWIDTH 426 0
DWIDTH 6 0
BBX 6 13 0 -2
BITMAP
00
00
78
CC
C0
C0
C0
C0
C0
CC
78
00
00
ENDCHAR
STARTCHAR afii10036
ENCODING 1058
SWIDTH 426 0
DWIDTH 6 0
BBX 6 13 0 -2
BITMAP
00
00
FC
30
30
30
30
30
30
30
30
00
00
ENDCHAR
STARTCHAR afii10037
ENCODING 1059
SWIDTH 426 0
DWIDTH 6 0
BBX 6 13 0 -2
BITMAP
00
00
CC
CC
CC
CC
CC
7C
0C
0C
78
00
00
ENDCHAR
STARTCHAR afii10038
ENCODING 1060
SWIDTH 426 0
DWIDTH 6 0
BBX 6 13 0 -2
BITMAP
00
00
78
30
78
B4
B4
B4
78
30
78
00
00
ENDCHAR
STARTCHAR afii10039
ENCODING 1061
SWIDTH 426 0
DWIDTH 6 0
BBX 6 13 0 -2
BITMAP
00
00
CC
CC
78
78
30
78
78
CC
CC
00
00
ENDCHAR
STARTCHAR afii10040
ENCODING 1062
SWIDTH 426 0
DWIDTH 6 0
BBX 6 13 0 -2
BITMAP
00
00
D8
D8
D8
D8
D8
D8
D8
D8
FC
0C
0C
ENDCHAR
STARTCHAR afii10041
ENCODING 1063
SWIDTH 426 0
DWIDTH 6 0
BBX 6 13 0 -2
BITMAP
00
00
CC
CC
CC
CC
7C
0C
0C
0C
0C
00
00
ENDCHAR
STARTCHAR afii10042
ENCODING 1064
SWIDTH 426 0
DWIDTH 6 0
BBX 6 13 0 -2
BITMAP
00
00
AC
AC
AC
AC
AC
AC
AC
AC
FC
00
00
ENDCHAR
STARTCHAR afii10043
ENCODING 1065
SWIDTH 426 0
DWIDTH 6 0
BBX 6 13 0 -2
BITMAP
00
00
AC
AC
AC
AC
AC
AC
AC
AC
FC
0C
0C
ENDCHAR
STARTCHAR afii10044
ENCODING 1066
SWIDTH 426 0
DWIDTH 6 0
BBX 6 13 0 -2
BITMAP
00
00
E0
E0
60
60
78
6C
6C
6C
78
00
00
ENDCHAR
STARTCHAR afii10045
ENCODING 1067
SWIDTH 426 0
DWIDTH 6 0
BBX 6 13 0 -2
BITMAP
00
00
CC
CC
CC
EC
DC
DC
DC
DC
EC
00
00
ENDCHAR
STARTCHAR afii10046
ENCODING 1068
SWIDTH 426 0
DWIDTH 6 0
BBX 6 13 0 -2
BITMAP
00
00
C0
C0
C0
C0
F8
CC
CC
CC
F8
00
00
ENDCHAR
STARTCHAR afii10047
ENCODING 1069
SWIDTH 426 0
DWIDTH 6 0
BBX 6 13 0 -2
BITMAP
00
00
F0
18
0C
0C
7C
0C
0C
18
F0
00
00
ENDCHAR
STARTCHAR afii10048
ENCODING 1070
SWIDTH 426 0
DWIDTH 6 0
BBX 6 13 0 -2
BITMAP
00
00
98
BC
A4
E4
E4
E4
A4
BC
98
00
00
ENDCHAR
STARTCHAR afii10049
ENCODING 1071
SWIDTH 426 0
DWIDTH 6 0
BBX 6 13 0 -2
BITMAP
00
00
7C
CC
CC
CC
7C
3C
6C
CC
CC
00
00
ENDCHAR
STARTCHAR afii10065
ENCODING 1072
SWIDTH 426 0
DWIDTH 6 0
BBX 6 13 0 -2
BITMAP
00
00
00
00
00
78
0C
7C
CC
DC
7C
00
00
ENDCHAR
STARTCHAR afii10066
ENCODING 1073
SWIDTH 426 0
DWIDTH 6 0
BBX 6 13 0 -2
BITMAP
00
00
00
78
C0
C0
F8
CC
CC
CC
78
00
00
ENDCHAR
STARTCHAR afii10067
ENCODING 1074
SWIDTH 426 0
DWIDTH 6 0
BBX 6 13 0 -2
BITMAP
00
00
00
00
00
F8
CC
F8
CC
CC
F8
00
00
ENDCHAR
STARTCHAR afii10068
ENCODING 1075
SWIDTH 426 0
DWIDTH 6 0
BBX 6 13 0 -2
BITMAP
00
00
00
00
00
FC
C0
C0
C0
C0
C0
00
00
ENDCHAR
STARTCHAR afii10069
ENCODING 1076
SWIDTH 426 0
DWIDTH 6 0
BBX 6 13 0 -2
BITMAP
00
00
00
00
00
3C
6C
6C
6C
6C
FC
84
00
ENDCHAR
STARTCHAR afii10070
ENCODING 1077
SWIDTH 426 0
DWIDTH 6 0
BBX 6 13 0 -2
BITMAP
00
00
00
00
00
78
CC
FC
C0
CC
78
00
00
ENDCHAR
STARTCHAR afii10072
ENCODING 1078
SWIDTH 426 0
DWIDTH 6 0
BBX 6 13 0 -2
BITMAP
00
00
00
00
00
B4
B4
78
78
B4
B4
00
00
ENDCHAR
STARTCHAR afii10073
ENCODING 1079
SWIDTH 426 0
DWIDTH 6 0
BBX 6 13 0 -2
BITMAP
00
00
00
00
00
78
CC
18
0C
CC
78
00
00
ENDCHAR
STARTCHAR afii10074
ENCODING 1080
SWIDTH 426 0
DWIDTH 6 0
BBX 6 13 0 -2
BITMAP
00
00
00
00
00
CC
CC
DC
EC
CC
CC
00
00
ENDCHAR
STARTCHAR afii10075
ENCODING 1081
SWIDTH 426 0
DWIDTH 6 0
BBX 6 13 0 -2
BITMAP
00
00
44
38
00
CC
CC
DC
EC
CC
CC
00
00
ENDCHAR
STARTCHAR afii10076
ENCODING 1082
SWIDTH 426 0
DWIDTH 6 0
BBX 6 13 0 -2
BITMAP
00
00
00
00
00
CC
D8
F0
D8
CC
CC
00
00
ENDCHAR
STARTCHAR afii10077
ENCODING 1083
SWIDTH 426 0
DWIDTH 6 0
BBX 6 13 0 -2
BITMAP
00
00
00
00
00
3C
6C
6C
6C
6C
CC
00
00
ENDCHAR
STARTCHAR afii10078
ENCODING 1084
SWIDTH 426 0
DWIDTH 6 0
BBX 6 13 0 -2
BITMAP
00
00
00
00
00
CC
FC
FC
FC
CC
CC
00
00
ENDCHAR
STARTCHAR afii10079
ENCODING 1085
SWIDTH 426 0
DWIDTH 6 0
BBX 6 13 0 -2
BITMAP
00
00
00
00
00
CC
CC
FC
CC
CC
CC
00
00
ENDCHAR
STARTCHAR afii10080
ENCODING 1086
SWIDTH 426 0
DWIDTH 6 0
BBX 6 13 0 -2
BITMAP
00
00
00
00
00
78
CC
CC
CC
CC
78
00
00
ENDCHAR
STARTCHAR afii10081
ENCODING 1087
SWIDTH 426 0
DWIDTH 6 0
BBX 6 13 0 -2
BITMAP
00
00
00
00
00
FC
CC
CC
CC
CC
CC
00
00
ENDCHAR
STARTCHAR afii10082
ENCODING 1088
SWIDTH 426 0
DWIDTH 6 0
BBX 6 13 0 -2
BITMAP
00
00
00
00
00
F8
CC
CC
CC
F8
C0
C0
C0
ENDCHAR
STARTCHAR afii10083
ENCODING 1089
SWIDTH 426 0
DWIDTH 6 0
BBX 6 13 0 -2
BITMAP
00
00
00
00
00
78
CC
C0
C0
CC
78
00
00
ENDCHAR
STARTCHAR afii10084
ENCODING 1090
SWIDTH 426 0
DWIDTH 6 0
BBX 6 13 0 -2
BITMAP
00
00
00
00
00
FC
B4
30
30
30
30
00
00
ENDCHAR
STARTCHAR afii10085
ENCODING 1091
SWIDTH 426 0
DWIDTH 6 0
BBX 6 13 0 -2
BITMAP
00
00
00
00
00
CC
CC
CC
DC
6C
0C
CC
78
ENDCHAR
STARTCHAR afii10086
ENCODING 1092
SWIDTH 426 0
DWIDTH 6 0
BBX 6 13 0 -2
BITMAP
00
00
30
30
30
78
B4
B4
B4
78
30
30
30
ENDCHAR
STARTCHAR afii10087
ENCODING 1093
SWIDTH 426 0
DWIDTH 6 0
BBX 6 13 0 -2
BITMAP
00
00
00
00
00
CC
78
30
78
CC
CC
00
00
ENDCHAR
STARTCHAR afii10088
ENCODING 1094
SWIDTH 426 0
DWIDTH 6 0
BBX 6 13 0 -2
BITMAP
00
00
00
00
00
D8
D8
D8
D8
D8
FC
0C
0C
ENDCHAR
STARTCHAR afii10089
ENCODING 1095
SWIDTH 426 0
DWIDTH 6 0
BBX 6 13 0 -2
BITMAP
00
00
00
00
00
CC
CC
CC
7C
0C
0C
00
00
ENDCHAR
STARTCHAR afii10090
ENCODING 1096
SWIDTH 426 0
DWIDTH 6 0
BBX 6 13 0 -2
BITMAP
00
00
00
00
00
AC
AC
AC
AC
AC
FC
00
00
ENDCHAR
STARTCHAR afii10091
ENCODING 1097
SWIDTH 426 0
DWIDTH 6 0
BBX 6 13 0 -2
BITMAP
00
00
00
00
00
AC
AC
AC
AC
AC
FC
0C
0C
ENDCHAR
STARTCHAR afii10092
ENCODING 1098
SWIDTH 426 0
DWIDTH 6 0
BBX 6 13 0 -2
BITMAP
00
00
00
00
00
E0
60
78
6C
6C
78
00
00
ENDCHAR
STARTCHAR afii10093
ENCODING 1099
SWIDTH 426 0
DWIDTH 6 0
BBX 6 13 0 -2
BITMAP
00
00
00
00
00
8C
8C
EC
BC
BC
EC
00
00
ENDCHAR
STARTCHAR afii10094
ENCODING 1100
SWIDTH 426 0
DWIDTH 6 0
BBX 6 13 0 -2
BITMAP
00
00
00
00
00
C0
C0
F8
CC
CC
F8
00
00
ENDCHAR
STARTCHAR afii10095
ENCODING 1101
SWIDTH 426 0
DWIDTH 6 0
BBX 6 13 0 -2
BITMAP
00
00
00
00
00
F0
18
78
18
18
F0
00
00
ENDCHAR
STARTCHAR afii10096
ENCODING 1102
SWIDTH 426 0
DWIDTH 6 0
BBX 6 13 0 -2
BITMAP
00
00
00
00
00
98
BC
E4
E4
BC
98
00
00
ENDCHAR
STARTCHAR afii10097
ENCODING 1103
SWIDTH 426 0
DWIDTH 6 0
BBX 6 13 0 -2
BITMAP
00
00
00
00
00
7C
CC
CC
7C
6C
CC
00
00
ENDCHAR
STARTCHAR afii10071
ENCODING 1105
SWIDTH 426 0
DWIDTH 6 0
BBX 6 13 0 -2
BITMAP
00
00
CC
CC
00
78
CC
FC
C0
CC
78
00
00
ENDCHAR
STARTCHAR afii10099
ENCODING 1106
SWIDTH 426 0
DWIDTH 6 0
BBX 6 13 0 -2
BITMAP
00
00
60
F8
60
78
6C
6C
6C
6C
6C
0C
18
ENDCHAR
STARTCHAR afii10100
ENCODING 1107
SWIDTH 426 0
DWIDTH 6 0
BBX 6 13 0 -2
BITMAP
00
00
30
60
00
FC
C0
C0
C0
C0
C0
00
00
ENDCHAR
STARTCHAR afii10101
ENCODING 1108
SWIDTH 426 0
DWIDTH 6 0
BBX 6 13 0 -2
BITMAP
00
00
00
00
00
78
C0
F0
C0
C0
78
00
00
ENDCHAR
STARTCHAR afii10102
ENCODING 1109
SWIDTH 426 0
DWIDTH 6 0
BBX 6 13 0 -2
BITMAP
00
00
00
00
00
78
CC
70
18
CC
78
00
00
ENDCHAR
STARTCHAR afii10103
ENCODING 1110
SWIDTH 426 0
DWIDTH 6 0
BBX 6 13 0 -2
BITMAP
00
00
30
30
00
70
30
30
30
30
78
00
00
ENDCHAR
STARTCHAR afii10104
ENCODING 1111
SWIDTH 426 0
DWIDTH 6 0
BBX 6 13 0 -2
BITMAP
00
00
CC
CC
00
70
30
30
30
30
78
00
00
ENDCHAR
STARTCHAR afii10105
ENCODING 1112
SWIDTH 426 0
DWIDTH 6 0
BBX 6 13 0 -2
BITMAP
00
00
18
18
00
38
18
18
18
18
D8
D8
70
ENDCHAR
STARTCHAR afii10106
ENCODING 1113
SWIDTH 426 0
DWIDTH 6 0
BBX 6 13 0 -2
BITMAP
00
00
00
00
00
F0
D0
D8
D4
D4
D8
00
00
ENDCHAR
STARTCHAR afii10107
ENCODING 1114
SWIDTH 426 0
DWIDTH 6 0
BBX 6 13 0 -2
BITMAP
00
00
00
00
00
D0
D0
F8
D4
D4
D8
00
00
ENDCHAR
STARTCHAR afii10108
ENCODING 1115
SWIDTH 426 0
DWIDTH 6 0
BBX 6 13 0 -2
BITMAP
00
00
60
F8
60
78
6C
6C
6C
6C
6C
00
00
ENDCHAR
STARTCHAR afii10109
ENCODING 1116
SWIDTH 426 0
DWIDTH 6 0
BBX 6 13 0 -2
BITMAP
00
00
30
60
00
CC
D8
F0
D8
CC
CC
00
00
ENDCHAR
STARTCHAR afii10110
ENCODING 1118
SWIDTH 426 0
DWIDTH 6 0
BBX 6 13 0 -2
BITMAP
00
00
44
38
00
CC
CC
CC
DC
6C
0C
CC
78
ENDCHAR
STARTCHAR afii10193
ENCODING 1119
SWIDTH 426 0
DWIDTH 6 0
BBX 6 13 0 -2
BITMAP
00
00
00
00
00
CC
CC
CC
CC
CC
FC
30
30
ENDCHAR
STARTCHAR uni0460
ENCODING 1120
SWIDTH 426 0
DWIDTH 6 0
BBX 6 13 0 -2
BITMAP
00
00
48
CC
84
84
B4
B4
FC
FC
48
00
00
ENDCHAR
STARTCHAR uni0461
ENCODING 1121
SWIDTH 426 0
DWIDTH 6 0
BBX 6 13 0 -2
BITMAP
00
00
00
00
00
48
84
B4
B4
FC
48
00
00
ENDCHAR
STARTCHAR afii10146
ENCODING 1122
SWIDTH 426 0
DWIDTH 6 0
BBX 6 13 0 -2
BITMAP
00
00
60
F8
60
60
78
6C
6C
6C
78
00
00
ENDCHAR
STARTCHAR afii10194
ENCODING 1123
SWIDTH 426 0
DWIDTH 6 0
BBX 6 13 0 -2
BITMAP
00
00
60
60
60
F0
60
78
6C
6C
78
00
00
ENDCHAR
STARTCHAR uni0464
ENCODING 1124
SWIDTH 426 0
DWIDTH 6 0
BBX 6 13 0 -2
BITMAP
00
00
CC
D8
D8
D8
FC
D8
D8
D8
CC
00
00
ENDCHAR
STARTCHAR uni0465
ENCODING 1125
SWIDTH 426 0
DWIDTH 6 0
BBX 6 13 0 -2
BITMAP
00
00
00
00
00
CC
D8
FC
D8
D8
CC
00
00
ENDCHAR
STARTCHAR uni0466
ENCODING 1126
SWIDTH 426 0
DWIDTH 6 0
BBX 6 13 0 -2
BITMAP
00
00
30
30
78
48
48
FC
B4
B4
B4
00
00
ENDCHAR
STARTCHAR uni0467
ENCODING 1127
SWIDTH 426 0
DWIDTH 6 0
BBX 6 13 0 -2
BITMAP
00
00
00
00
00
30
78
48
FC
B4
B4
00
00
ENDCHAR
STARTCHAR uni0468
ENCODING 1128
SWIDTH 426 0
DWIDTH 6 0
BBX 6 13 0 -2
BITMAP
00
00
C8
C8
C8
DC
FC
D4
DC
D4
D4
00
00
ENDCHAR
STARTCHAR uni0469
ENCODING 1129
SWIDTH 426 0
DWIDTH 6 0
BBX 6 13 0 -2
BITMAP
00
00
00
00
00
C8
C8
FC
D4
DC
D4
00
00
ENDCHAR
STARTCHAR uni046A
ENCODING 1130
SWIDTH 426 0
DWIDTH 6 0
BBX 6 13 0 -2
BITMAP
00
00
FC
FC
48
48
78
FC
B4
B4
B4
00
00
ENDCHAR
STARTCHAR uni046B
ENCODING 1131
SWIDTH 426 0
DWIDTH 6 0
BBX 6 13 0 -2
BITMAP
00
00
00
00
00
FC
48
48
FC
B4
B4
00
00
ENDCHAR
STARTCHAR uni046C
ENCODING 1132
SWIDTH 426 0
DWIDTH 6 0
BBX 6 13 0 -2
BITMAP
00
00
B8
A8
A8
90
F8
B8
FC
D4
D4
00
00
ENDCHAR
STARTCHAR uni046D
ENCODING 1133
SWIDTH 426 0
DWIDTH 6 0
BBX 6 13 0 -2
BITMAP
00
00
00
00
00
DC
D4
C8
FC
D4
D4
00
00
ENDCHAR
STARTCHAR uni046E
ENCODING 1134
SWIDTH 426 0
DWIDTH 6 0
BBX 6 13 0 -2
BITMAP
00
48
30
00
78
CC
0C
38
0C
0C
78
C0
78
ENDCHAR
STARTCHAR uni046F
ENCODING 1135
SWIDTH 426 0
DWIDTH 6 0
BBX 6 13 0 -2
BITMAP
00
48
30
00
00
78
CC
18
0C
0C
78
C0
78
ENDCHAR
STARTCHAR uni0470
ENCODING 1136
SWIDTH 426 0
DWIDTH 6 0
BBX 6 13 0 -2
BITMAP
00
00
B4
B4
B4
B4
FC
78
30
30
30
00
00
ENDCHAR
STARTCHAR uni0471
ENCODING 1137
SWIDTH 426 0
DWIDTH 6 0
BBX 6 13 0 -2
BITMAP
00
00
00
00
00
B4
B4
B4
B4
FC
78
30
30
ENDCHAR
STARTCHAR afii10147
ENCODING 1138
SWIDTH 426 0
DWIDTH 6 0
BBX 6 13 0 -2
BITMAP
00
00
78
CC
CC
CC
FC
CC
CC
CC
78
00
00
ENDCHAR
STARTCHAR afii10195
ENCODING 1139
SWIDTH 426 0
DWIDTH 6 0
BBX 6 13 0 -2
BITMAP
00
00
00
00
00
70
D8
F8
D8
D8
70
00
00
ENDCHAR
STARTCHAR afii10148
ENCODING 1140
SWIDTH 426 0
DWIDTH 6 0
BBX 6 13 0 -2
BITMAP
00
00
CC
CC
CC
CC
6C
6C
6C
38
38
00
00
ENDCHAR
STARTCHAR afii10196
ENCODING 1141
SWIDTH 426 0
DWIDTH 6 0
BBX 6 13 0 -2
BITMAP
00
00
00
00
00
CC
CC
CC
6C
6C
38
00
00
ENDCHAR
STARTCHAR uni0476
ENCODING 1142
SWIDTH 426 0
DWIDTH 6 0
BBX 6 13 0 -2
BITMAP
90
D8
48
00
CC
CC
6C
6C
6C
38
38
00
00
ENDCHAR
STARTCHAR uni0477
ENCODING 1143
SWIDTH 426 0
DWIDTH 6 0
BBX 6 13 0 -2
BITMAP
00
90
D8
48
00
CC
CC
CC
6C
6C
38
00
00
ENDCHAR
STARTCHAR uni0478
ENCODING 1144
SWIDTH 426 0
DWIDTH 6 0
BBX 6 13 0 -2
BITMAP
00
00
40
E0
A0
B4
B4
B4
BC
EC
44
0C
18
ENDCHAR
STARTCHAR uni0479
ENCODING 1145
SWIDTH 426 0
DWIDTH 6 0
BBX 6 13 0 -2
BITMAP
00
00
00
00
00
54
F4
B4
BC
EC
44
0C
18
ENDCHAR
STARTCHAR uni047A
ENCODING 1146
SWIDTH 426 0
DWIDTH 6 0
BBX 6 13 0 -2
BITMAP
00
30
78
CC
CC
CC
CC
CC
CC
CC
78
30
00
ENDCHAR
STARTCHAR uni047B
ENCODING 1147
SWIDTH 426 0
DWIDTH 6 0
BBX 6 13 0 -2
BITMAP
00
00
00
00
30
78
CC
CC
CC
CC
78
30
00
ENDCHAR
STARTCHAR uni047C
ENCODING 1148
SWIDTH 426 0
DWIDTH 6 0
BBX 6 13 0 -2
BITMAP
0C
FC
C0
00
48
CC
84
B4
B4
FC
48
00
00
ENDCHAR
STARTCHAR uni047D
ENCODING 1149
SWIDTH 426 0
DWIDTH 6 0
BBX 6 13 0 -2
BITMAP
00
0C
FC
C0
00
48
CC
84
B4
FC
48
00
00
ENDCHAR
STARTCHAR uni047E
ENCODING 1150
SWIDTH 426 0
DWIDTH 6 0
BBX 6 13 0 -2
BITMAP
00
FC
B4
00
48
CC
84
B4
B4
FC
48
00
00
ENDCHAR
STARTCHAR uni047F
ENCODING 1151
SWIDTH 426 0
DWIDTH 6 0
BBX 6 13 0 -2
BITMAP
00
00
FC
B4
00
48
CC
84
B4
FC
48
00
00
ENDCHAR
STARTCHAR afii10050
ENCODING 1168
SWIDTH 426 0
DWIDTH 6 0
BBX 6 13 0 -2
BITMAP
00
0C
FC
C0
C0
C0
C0
C0
C0
C0
C0
00
00
ENDCHAR
STARTCHAR afii10098
ENCODING 1169
SWIDTH 426 0
DWIDTH 6 0
BBX 6 13 0 -2
BITMAP
00
00
00
00
0C
FC
C0
C0
C0
C0
C0
00
00
ENDCHAR
STARTCHAR uni0591
ENCODING 1425
SWIDTH 426 0
DWIDTH 6 0
BBX 6 13 0 -2
BITMAP
00
00
00
00
00
00
00
00
00
00
00
30
58
ENDCHAR
STARTCHAR uni0592
ENCODING 1426
SWIDTH 426 0
DWIDTH 6 0
BBX 6 13 0 -2
BITMAP
00
00
20
88
00
00
00
00
00
00
00
00
00
ENDCHAR
STARTCHAR uni0593
ENCODING 1427
SWIDTH 426 0
DWIDTH 6 0
BBX 6 13 0 -2
BITMAP
18
30
18
30
00
00
00
00
00
00
00
00
00
ENDCHAR
STARTCHAR uni0594
ENCODING 1428
SWIDTH 426 0
DWIDTH 6 0
BBX 6 13 0 -2
BITMAP
00
30
00
30
00
00
00
00
00
00
00
00
00
ENDCHAR
STARTCHAR uni0595
ENCODING 1429
SWIDTH 426 0
DWIDTH 6 0
BBX 6 13 0 -2
BITMAP
00
6C
60
6C
00
00
00
00
00
00
00
00
00
ENDCHAR
STARTCHAR uni0596
ENCODING 1430
SWIDTH 426 0
DWIDTH 6 0
BBX 6 13 0 -2
BITMAP
00
00
00
00
00
00
00
00
00
00
00
30
18
ENDCHAR
STARTCHAR uni0597
ENCODING 1431
SWIDTH 426 0
DWIDTH 6 0
BBX 6 13 0 -2
BITMAP
00
20
70
20
00
00
00
00
00
00
00
00
00
ENDCHAR
STARTCHAR uni0598
ENCODING 1432
SWIDTH 426 0
DWIDTH 6 0
BBX 6 13 0 -2
BITMAP
00
48
F8
90
00
00
00
00
00
00
00
00
00
ENDCHAR
STARTCHAR uni0599
ENCODING 1433
SWIDTH 426 0
DWIDTH 6 0
BBX 6 13 0 -2
BITMAP
00
C0
60
60
00
00
00
00
00
00
00
00
00
ENDCHAR
STARTCHAR uni059A
ENCODING 1434
SWIDTH 426 0
DWIDTH 6 0
BBX 6 13 0 -2
BITMAP
00
00
00
00
00
00
00
00
00
00
0C
18
0C
ENDCHAR
STARTCHAR uni059C
ENCODING 1436
SWIDTH 426 0
DWIDTH 6 0
BBX 6 13 0 -2
BITMAP
00
1C
30
30
00
00
00
00
00
00
00
00
00
ENDCHAR
STARTCHAR uni059D
ENCODING 1437
SWIDTH 426 0
DWIDTH 6 0
BBX 6 13 0 -2
BITMAP
00
0C
18
18
00
00
00
00
00
00
00
00
00
ENDCHAR
STARTCHAR uni059E
ENCODING 1438
SWIDTH 426 0
DWIDTH 6 0
BBX 6 13 0 -2
BITMAP
10
24
28
28
08
00
00
00
00
00
00
00
00
ENDCHAR
STARTCHAR uni059F
ENCODING 1439
SWIDTH 426 0
DWIDTH 6 0
BBX 6 13 0 -2
BITMAP
00
50
A8
50
50
00
00
00
00
00
00
00
00
ENDCHAR
STARTCHAR uni05A0
ENCODING 1440
SWIDTH 426 0
DWIDTH 6 0
BBX 6 13 0 -2
BITMAP
00
10
28
10
10
00
00
00
00
00
00
00
00
ENDCHAR
STARTCHAR uni05A1
ENCODING 1441
SWIDTH 426 0
DWIDTH 6 0
BBX 6 13 0 -2
BITMAP
00
50
D0
20
00
00
00
00
00
00
00
00
00
ENDCHAR
STARTCHAR uni05A3
ENCODING 1443
SWIDTH 426 0
DWIDTH 6 0
BBX 6 13 0 -2
BITMAP
00
00
00
00
00
00
00
00
00
00
00
18
78
ENDCHAR
STARTCHAR uni05A4
ENCODING 1444
SWIDTH 426 0
DWIDTH 6 0
BBX 6 13 0 -2
BITMAP
00
00
00
00
00
00
00
00
00
00
30
60
30
ENDCHAR
STARTCHAR uni05A5
ENCODING 1445
SWIDTH 426 0
DWIDTH 6 0
BBX 6 13 0 -2
BITMAP
00
00
00
00
00
00
00
00
00
00
00
18
30
ENDCHAR
STARTCHAR uni05A6
ENCODING 1446
SWIDTH 426 0
DWIDTH 6 0
BBX 6 13 0 -2
BITMAP
00
00
00
00
00
00
00
00
00
00
00
48
D8
ENDCHAR
STARTCHAR uni05A8
ENCODING 1448
SWIDTH 426 0
DWIDTH 6 0
BBX 6 13 0 -2
BITMAP
00
60
30
30
00
00
00
00
00
00
00
00
00
ENDCHAR
STARTCHAR uni05A9
ENCODING 1449
SWIDTH 426 0
DWIDTH 6 0
BBX 6 13 0 -2
BITMAP
00
40
A0
40
40
00
00
00
00
00
00
00
00
ENDCHAR
STARTCHAR uni05AA
ENCODING 1450
SWIDTH 426 0
DWIDTH 6 0
BBX 6 13 0 -2
BITMAP
00
00
00
00
00
00
00
00
00
00
00
58
30
ENDCHAR
STARTCHAR uni05AB
ENCODING 1451
SWIDTH 426 0
DWIDTH 6 0
BBX 6 13 0 -2
BITMAP
00
30
60
30
00
00
00
00
00
00
00
00
00
ENDCHAR
STARTCHAR uni05AC
ENCODING 1452
SWIDTH 426 0
DWIDTH 6 0
BBX 6 13 0 -2
BITMAP
00
18
18
78
00
00
00
00
00
00
00
00
00
ENDCHAR
STARTCHAR uni05AD
ENCODING 1453
SWIDTH 426 0
DWIDTH 6 0
BBX 6 13 0 -2
BITMAP
00
00
00
00
00
00
00
00
00
00
00
18
0C
ENDCHAR
STARTCHAR uni05AF
ENCODING 1455
SWIDTH 426 0
DWIDTH 6 0
BBX 6 13 0 -2
BITMAP
00
30
48
30
00
00
00
00
00
00
00
00
00
ENDCHAR
STARTCHAR afii57799
ENCODING 1456
SWIDTH 426 0
DWIDTH 6 0
BBX 6 13 0 -2
BITMAP
00
00
00
00
00
00
00
00
00
00
30
00
30
ENDCHAR
STARTCHAR afii57800
ENCODING 1458
SWIDTH 426 0
DWIDTH 6 0
BBX 6 13 0 -2
BITMAP
00
00
00
00
00
00
00
00
00
00
0C
E0
0C
ENDCHAR
STARTCHAR afii57802
ENCODING 1459
SWIDTH 426 0
DWIDTH 6 0
BBX 6 13 0 -2
BITMAP
00
00
00
00
00
00
00
00
00
00
0C
E0
4C
ENDCHAR
STARTCHAR afii57793
ENCODING 1460
SWIDTH 426 0
DWIDTH 6 0
BBX 6 13 0 -2
BITMAP
00
00
00
00
00
00
00
00
00
00
00
00
30
ENDCHAR
STARTCHAR afii57794
ENCODING 1461
SWIDTH 426 0
DWIDTH 6 0
BBX 6 13 0 -2
BITMAP
00
00
00
00
00
00
00
00
00
00
00
00
6C
ENDCHAR
STARTCHAR afii57795
ENCODING 1462
SWIDTH 426 0
DWIDTH 6 0
BBX 6 13 0 -2
BITMAP
00
00
00
00
00
00
00
00
00
00
00
88
20
ENDCHAR
STARTCHAR afii57798
ENCODING 1463
SWIDTH 426 0
DWIDTH 6 0
BBX 6 13 0 -2
BITMAP
00
00
00
00
00
00
00
00
00
00
00
70
70
ENDCHAR
STARTCHAR afii57797
ENCODING 1464
SWIDTH 426 0
DWIDTH 6 0
BBX 6 13 0 -2
BITMAP
00
00
00
00
00
00
00
00
00
00
00
78
30
ENDCHAR
STARTCHAR afii57806
ENCODING 1465
SWIDTH 426 0
DWIDTH 6 0
BBX 6 13 0 -2
BITMAP
00
00
60
60
00
00
00
00
00
00
00
00
00
ENDCHAR
STARTCHAR afii57796
ENCODING 1467
SWIDTH 426 0
DWIDTH 6 0
BBX 6 13 0 -2
BITMAP
00
00
00
00
00
00
00
00
00
00
80
20
08
ENDCHAR
STARTCHAR afii57807
ENCODING 1468
SWIDTH 426 0
DWIDTH 6 0
BBX 6 13 0 -2
BITMAP
00
00
00
00
00
00
00
20
00
00
00
00
00
ENDCHAR
STARTCHAR afii57839
ENCODING 1469
SWIDTH 426 0
DWIDTH 6 0
BBX 6 13 0 -2
BITMAP
00
00
00
00
00
00
00
00
00
00
00
20
20
ENDCHAR
STARTCHAR afii57645
ENCODING 1470
SWIDTH 426 0
DWIDTH 6 0
BBX 6 13 0 -2
BITMAP
00
00
00
00
78
78
00
00
00
00
00
00
00
ENDCHAR
STARTCHAR afii57841
ENCODING 1471
SWIDTH 426 0
DWIDTH 6 0
BBX 6 13 0 -2
BITMAP
00
00
70
70
00
00
00
00
00
00
00
00
00
ENDCHAR
STARTCHAR afii57842
ENCODING 1472
SWIDTH 426 0
DWIDTH 6 0
BBX 6 13 0 -2
BITMAP
00
00
00
00
00
30
30
30
30
30
30
00
00
ENDCHAR
STARTCHAR afii57804
ENCODING 1473
SWIDTH 426 0
DWIDTH 6 0
BBX 6 13 0 -2
BITMAP
00
00
18
18
00
00
00
00
00
00
00
00
00
ENDCHAR
STARTCHAR afii57803
ENCODING 1474
SWIDTH 426 0
DWIDTH 6 0
BBX 6 13 0 -2
BITMAP
00
00
C0
C0
00
00
00
00
00
00
00
00
00
ENDCHAR
STARTCHAR afii57658
ENCODING 1475
SWIDTH 426 0
DWIDTH 6 0
BBX 6 13 0 -2
BITMAP
00
00
00
00
00
30
30
00
00
30
30
00
00
ENDCHAR
STARTCHAR uni05C4
ENCODING 1476
SWIDTH 426 0
DWIDTH 6 0
BBX 6 13 0 -2
BITMAP
00
00
30
30
00
00
00
00
00
00
00
00
00
ENDCHAR
STARTCHAR afii57664
ENCODING 1488
SWIDTH 426 0
DWIDTH 6 0
BBX 6 13 0 -2
BITMAP
00
00
00
00
00
98
CC
6C
D8
CC
EC
00
00
ENDCHAR
STARTCHAR afii57665
ENCODING 1489
SWIDTH 426 0
DWIDTH 6 0
BBX 6 13 0 -2
BITMAP
00
00
00
00
00
F0
18
18
18
18
FC
00
00
ENDCHAR
STARTCHAR afii57666
ENCODING 1490
SWIDTH 426 0
DWIDTH 6 0
BBX 6 13 0 -2
BITMAP
00
00
00
00
00
60
30
18
38
6C
CC
00
00
ENDCHAR
STARTCHAR afii57667
ENCODING 1491
SWIDTH 426 0
DWIDTH 6 0
BBX 6 13 0 -2
BITMAP
00
00
00
00
00
FC
18
18
18
18
18
00
00
ENDCHAR
STARTCHAR afii57668
ENCODING 1492
SWIDTH 426 0
DWIDTH 6 0
BBX 6 13 0 -2
BITMAP
00
00
00
00
00
FC
0C
0C
CC
CC
CC
00
00
ENDCHAR
STARTCHAR afii57669
ENCODING 1493
SWIDTH 426 0
DWIDTH 6 0
BBX 6 13 0 -2
BITMAP
00
00
00
00
00
60
30
30
30
30
30
00
00
ENDCHAR
STARTCHAR afii57670
ENCODING 1494
SWIDTH 426 0
DWIDTH 6 0
BBX 6 13 0 -2
BITMAP
00
00
00
00
00
F8
30
30
18
18
18
00
00
ENDCHAR
STARTCHAR afii57671
ENCODING 1495
SWIDTH 426 0
DWIDTH 6 0
BBX 6 13 0 -2
BITMAP
00
00
00
00
00
FC
6C
6C
6C
6C
6C
00
00
ENDCHAR
STARTCHAR afii57672
ENCODING 1496
SWIDTH 426 0
DWIDTH 6 0
BBX 6 13 0 -2
BITMAP
00
00
00
00
00
CC
D4
D4
C4
CC
78
00
00
ENDCHAR
STARTCHAR afii57673
ENCODING 1497
SWIDTH 426 0
DWIDTH 6 0
BBX 6 13 0 -2
BITMAP
00
00
00
00
00
60
30
30
00
00
00
00
00
ENDCHAR
STARTCHAR afii57674
ENCODING 1498
SWIDTH 426 0
DWIDTH 6 0
BBX 6 13 0 -2
BITMAP
00
00
00
00
00
FC
0C
0C
0C
0C
0C
0C
0C
ENDCHAR
STARTCHAR afii57675
ENCODING 1499
SWIDTH 426 0
DWIDTH 6 0
BBX 6 13 0 -2
BITMAP
00
00
00
00
00
FC
0C
0C
0C
0C
F8
00
00
ENDCHAR
STARTCHAR afii57676
ENCODING 1500
SWIDTH 426 0
DWIDTH 6 0
BBX 6 13 0 -2
BITMAP
00
00
C0
C0
C0
FC
0C
0C
0C
18
70
00
00
ENDCHAR
STARTCHAR afii57677
ENCODING 1501
SWIDTH 426 0
DWIDTH 6 0
BBX 6 13 0 -2
BITMAP
00
00
00
00
00
F8
6C
6C
6C
6C
7C
00
00
ENDCHAR
STARTCHAR afii57678
ENCODING 1502
SWIDTH 426 0
DWIDTH 6 0
BBX 6 13 0 -2
BITMAP
00
00
00
00
00
98
FC
6C
CC
8C
BC
00
00
ENDCHAR
STARTCHAR afii57679
ENCODING 1503
SWIDTH 426 0
DWIDTH 6 0
BBX 6 13 0 -2
BITMAP
00
00
00
00
00
70
30
30
30
30
30
30
30
ENDCHAR
STARTCHAR afii57680
ENCODING 1504
SWIDTH 426 0
DWIDTH 6 0
BBX 6 13 0 -2
BITMAP
00
00
00
00
00
38
18
18
18
18
F8
00
00
ENDCHAR
STARTCHAR afii57681
ENCODING 1505
SWIDTH 426 0
DWIDTH 6 0
BBX 6 13 0 -2
BITMAP
00
00
00
00
00
FC
6C
6C
6C
78
70
00
00
ENDCHAR
STARTCHAR afii57682
ENCODING 1506
SWIDTH 426 0
DWIDTH 6 0
BBX 6 13 0 -2
BITMAP
00
00
00
00
00
DC
4C
6C
6C
2C
F8
00
00
ENDCHAR
STARTCHAR afii57683
ENCODING 1507
SWIDTH 426 0
DWIDTH 6 0
BBX 6 13 0 -2
BITMAP
00
00
00
00
00
FC
6C
6C
6C
0C
0C
0C
0C
ENDCHAR
STARTCHAR afii57684
ENCODING 1508
SWIDTH 426 0
DWIDTH 6 0
BBX 6 13 0 -2
BITMAP
00
00
00
00
00
FC
6C
6C
0C
0C
F8
00
00
ENDCHAR
STARTCHAR afii57685
ENCODING 1509
SWIDTH 426 0
DWIDTH 6 0
BBX 6 13 0 -2
BITMAP
00
00
00
00
00
98
CC
CC
D8
F0
C0
C0
C0
ENDCHAR
STARTCHAR afii57686
ENCODING 1510
SWIDTH 426 0
DWIDTH 6 0
BBX 6 13 0 -2
BITMAP
00
00
00
00
00
98
CC
68
30
18
F8
00
00
ENDCHAR
STARTCHAR afii57687
ENCODING 1511
SWIDTH 426 0
DWIDTH 6 0
BBX 6 13 0 -2
BITMAP
00
00
00
00
00
FC
0C
CC
CC
C8
D0
C0
C0
ENDCHAR
STARTCHAR afii57688
ENCODING 1512
SWIDTH 426 0
DWIDTH 6 0
BBX 6 13 0 -2
BITMAP
00
00
00
00
00
F8
0C
0C
0C
0C
0C
00
00
ENDCHAR
STARTCHAR afii57689
ENCODING 1513
SWIDTH 426 0
DWIDTH 6 0
BBX 6 13 0 -2
BITMAP
00
00
00
00
00
AC
AC
AC
EC
8C
F8
00
00
ENDCHAR
STARTCHAR afii57690
ENCODING 1514
SWIDTH 426 0
DWIDTH 6 0
BBX 6 13 0 -2
BITMAP
00
00
00
00
00
FC
6C
6C
6C
6C
CC
00
00
ENDCHAR
STARTCHAR afii57716
ENCODING 1520
SWIDTH 426 0
DWIDTH 6 0
BBX 6 13 0 -2
BITMAP
00
00
00
00
00
D8
6C
6C
6C
6C
6C
00
00
ENDCHAR
STARTCHAR afii57717
ENCODING 1521
SWIDTH 426 0
DWIDTH 6 0
BBX 6 13 0 -2
BITMAP
00
00
00
00
00
D8
6C
6C
0C
0C
0C
00
00
ENDCHAR
STARTCHAR afii57718
ENCODING 1522
SWIDTH 426 0
DWIDTH 6 0
BBX 6 13 0 -2
BITMAP
00
00
00
00
00
D8
6C
6C
00
00
00
00
00
ENDCHAR
STARTCHAR uni05F3
ENCODING 1523
SWIDTH 426 0
DWIDTH 6 0
BBX 6 13 0 -2
BITMAP
00
00
00
00
00
30
60
00
00
00
00
00
00
ENDCHAR
STARTCHAR uni05F4
ENCODING 1524
SWIDTH 426 0
DWIDTH 6 0
BBX 6 13 0 -2
BITMAP
00
00
00
00
00
D8
90
00
00
00
00
00
00
ENDCHAR
STARTCHAR uni1E00
ENCODING 7680
SWIDTH 426 0
DWIDTH 6 0
BBX 6 13 0 -2
BITMAP
00
00
30
78
CC
CC
FC
CC
CC
00
78
48
78
ENDCHAR
STARTCHAR uni1E01
ENCODING 7681
SWIDTH 426 0
DWIDTH 6 0
BBX 6 13 0 -2
BITMAP
00
00
00
00
78
0C
7C
CC
DC
6C
78
48
78
ENDCHAR
STARTCHAR uni1E02
ENCODING 7682
SWIDTH 426 0
DWIDTH 6 0
BBX 6 13 0 -2
BITMAP
00
30
30
00
F8
6C
6C
78
6C
6C
F8
00
00
ENDCHAR
STARTCHAR uni1E03
ENCODING 7683
SWIDTH 426 0
DWIDTH 6 0
BBX 6 13 0 -2
BITMAP
00
18
D8
C0
C0
D8
EC
CC
CC
EC
D8
00
00
ENDCHAR
STARTCHAR uni1E04
ENCODING 7684
SWIDTH 426 0
DWIDTH 6 0
BBX 6 13 0 -2
BITMAP
00
00
F8
6C
6C
78
6C
6C
6C
F8
00
30
30
ENDCHAR
STARTCHAR uni1E05
ENCODING 7685
SWIDTH 426 0
DWIDTH 6 0
BBX 6 13 0 -2
BITMAP
00
00
C0
C0
C0
D8
EC
CC
EC
D8
00
30
30
ENDCHAR
STARTCHAR uni1E06
ENCODING 7686
SWIDTH 426 0
DWIDTH 6 0
BBX 6 13 0 -2
BITMAP
00
00
F8
6C
6C
6C
78
6C
6C
6C
F8
00
78
ENDCHAR
STARTCHAR uni1E07
ENCODING 7687
SWIDTH 426 0
DWIDTH 6 0
BBX 6 13 0 -2
BITMAP
00
00
C0
C0
C0
D8
EC
CC
CC
EC
D8
00
78
ENDCHAR
STARTCHAR uni1E08
ENCODING 7688
SWIDTH 426 0
DWIDTH 6 0
BBX 6 13 0 -2
BITMAP
00
18
30
00
78
CC
C0
C0
C0
CC
78
30
60
ENDCHAR
STARTCHAR uni1E09
ENCODING 7689
SWIDTH 426 0
DWIDTH 6 0
BBX 6 13 0 -2
BITMAP
00
00
18
30
00
78
CC
C0
C0
CC
78
30
60
ENDCHAR
STARTCHAR uni1E0A
ENCODING 7690
SWIDTH 426 0
DWIDTH 6 0
BBX 6 13 0 -2
BITMAP
00
30
30
00
F8
6C
6C
6C
6C
6C
F8
00
00
ENDCHAR
STARTCHAR uni1E0B
ENCODING 7691
SWIDTH 426 0
DWIDTH 6 0
BBX 6 13 0 -2
BITMAP
00
60
6C
0C
0C
6C
DC
CC
CC
DC
6C
00
00
ENDCHAR
STARTCHAR uni1E0C
ENCODING 7692
SWIDTH 426 0
DWIDTH 6 0
BBX 6 13 0 -2
BITMAP
00
00
F8
6C
6C
6C
6C
6C
6C
F8
00
30
30
ENDCHAR
STARTCHAR uni1E0D
ENCODING 7693
SWIDTH 426 0
DWIDTH 6 0
BBX 6 13 0 -2
BITMAP
00
00
0C
0C
0C
6C
DC
CC
DC
6C
00
30
30
ENDCHAR
STARTCHAR uni1E0E
ENCODING 7694
SWIDTH 426 0
DWIDTH 6 0
BBX 6 13 0 -2
BITMAP
00
00
F8
6C
6C
6C
6C
6C
6C
6C
F8
00
78
ENDCHAR
STARTCHAR uni1E0F
ENCODING 7695
SWIDTH 426 0
DWIDTH 6 0
BBX 6 13 0 -2
BITMAP
00
00
0C
0C
0C
6C
DC
CC
CC
DC
6C
00
78
ENDCHAR
STARTCHAR uni1E10
ENCODING 7696
SWIDTH 426 0
DWIDTH 6 0
BBX 6 13 0 -2
BITMAP
00
00
F8
6C
6C
6C
6C
6C
6C
6C
F8
30
60
ENDCHAR
STARTCHAR uni1E11
ENCODING 7697
SWIDTH 426 0
DWIDTH 6 0
BBX 6 13 0 -2
BITMAP
00
00
0C
0C
0C
6C
DC
CC
CC
DC
6C
30
60
ENDCHAR
STARTCHAR uni1E12
ENCODING 7698
SWIDTH 426 0
DWIDTH 6 0
BBX 6 13 0 -2
BITMAP
00
00
F8
6C
6C
6C
6C
6C
6C
F8
00
38
6C
ENDCHAR
STARTCHAR uni1E13
ENCODING 7699
SWIDTH 426 0
DWIDTH 6 0
BBX 6 13 0 -2
BITMAP
00
00
0C
0C
0C
6C
DC
CC
DC
6C
00
38
6C
ENDCHAR
STARTCHAR uni1E14
ENCODING 7700
SWIDTH 426 0
DWIDTH 6 0
BBX 6 13 0 -2
BITMAP
20
10
7C
00
FC
C0
C0
F8
C0
C0
FC
00
00
ENDCHAR
STARTCHAR uni1E15
ENCODING 7701
SWIDTH 426 0
DWIDTH 6 0
BBX 6 13 0 -2
BITMAP
00
20
10
7C
00
78
CC
FC
C0
C0
78
00
00
ENDCHAR
STARTCHAR uni1E16
ENCODING 7702
SWIDTH 426 0
DWIDTH 6 0
BBX 6 13 0 -2
BITMAP
08
10
7C
00
FC
C0
C0
F8
C0
C0
FC
00
00
ENDCHAR
STARTCHAR uni1E17
ENCODING 7703
SWIDTH 426 0
DWIDTH 6 0
BBX 6 13 0 -2
BITMAP
00
08
10
7C
00
78
CC
FC
C0
C0
78
00
00
ENDCHAR
STARTCHAR uni1E18
ENCODING 7704
SWIDTH 426 0
DWIDTH 6 0
BBX 6 13 0 -2
BITMAP
00
00
FC
C0
C0
F8
C0
C0
C0
FC
00
38
6C
ENDCHAR
STARTCHAR uni1E19
ENCODING 7705
SWIDTH 426 0
DWIDTH 6 0
BBX 6 13 0 -2
BITMAP
00
00
00
00
00
78
CC
FC
C0
78
00
38
6C
ENDCHAR
STARTCHAR uni1E1A
ENCODING 7706
SWIDTH 426 0
DWIDTH 6 0
BBX 6 13 0 -2
BITMAP
00
00
FC
C0
C0
F8
C0
C0
C0
FC
00
34
58
ENDCHAR
STARTCHAR uni1E1B
ENCODING 7707
SWIDTH 426 0
DWIDTH 6 0
BBX 6 13 0 -2
BITMAP
00
00
00
00
00
78
CC
FC
C0
78
00
34
58
ENDCHAR
STARTCHAR uni1E1C
ENCODING 7708
SWIDTH 426 0
DWIDTH 6 0
BBX 6 13 0 -2
BITMAP
00
44
38
00
FC
C0
C0
F8
C0
C0
FC
30
60
ENDCHAR
STARTCHAR uni1E1D
ENCODING 7709
SWIDTH 426 0
DWIDTH 6 0
BBX 6 13 0 -2
BITMAP
00
00
44
38
00
78
CC
FC
C0
C0
78
30
60
ENDCHAR
STARTCHAR uni1E1E
ENCODING 7710
SWIDTH 426 0
DWIDTH 6 0
BBX 6 13 0 -2
BITMAP
00
30
30
00
FC
C0
C0
F8
C0
C0
C0
00
00
ENDCHAR
STARTCHAR uni1E1F
ENCODING 7711
SWIDTH 426 0
DWIDTH 6 0
BBX 6 13 0 -2
BITMAP
00
30
30
00
38
6C
60
F8
60
60
60
00
00
ENDCHAR
STARTCHAR uni1E20
ENCODING 7712
SWIDTH 426 0
DWIDTH 6 0
BBX 6 13 0 -2
BITMAP
00
78
00
78
CC
C0
C0
DC
CC
CC
78
00
00
ENDCHAR
STARTCHAR uni1E21
ENCODING 7713
SWIDTH 426 0
DWIDTH 6 0
BBX 6 13 0 -2
BITMAP
00
00
00
78
00
7C
D8
D8
70
C0
78
CC
78
ENDCHAR
STARTCHAR uni1E22
ENCODING 7714
SWIDTH 426 0
DWIDTH 6 0
BBX 6 13 0 -2
BITMAP
00
30
30
00
CC
CC
CC
FC
CC
CC
CC
00
00
ENDCHAR
STARTCHAR uni1E23
ENCODING 7715
SWIDTH 426 0
DWIDTH 6 0
BBX 6 13 0 -2
BITMAP
00
18
18
C0
C0
C0
D8
EC
CC
CC
CC
00
00
ENDCHAR
STARTCHAR uni1E24
ENCODING 7716
SWIDTH 426 0
DWIDTH 6 0
BBX 6 13 0 -2
BITMAP
00
00
CC
CC
CC
FC
CC
CC
CC
CC
00
30
30
ENDCHAR
STARTCHAR uni1E25
ENCODING 7717
SWIDTH 426 0
DWIDTH 6 0
BBX 6 13 0 -2
BITMAP
00
00
C0
C0
C0
D8
EC
CC
CC
CC
00
30
30
ENDCHAR
STARTCHAR uni1E26
ENCODING 7718
SWIDTH 426 0
DWIDTH 6 0
BBX 6 13 0 -2
BITMAP
00
CC
CC
00
CC
CC
CC
FC
CC
CC
CC
00
00
ENDCHAR
STARTCHAR uni1E27
ENCODING 7719
SWIDTH 426 0
DWIDTH 6 0
BBX 6 13 0 -2
BITMAP
00
CC
CC
00
C0
C0
D8
EC
CC
CC
CC
00
00
ENDCHAR
STARTCHAR uni1E28
ENCODING 7720
SWIDTH 426 0
DWIDTH 6 0
BBX 6 13 0 -2
BITMAP
00
00
CC
CC
CC
CC
FC
CC
CC
CC
CC
18
30
ENDCHAR
STARTCHAR uni1E29
ENCODING 7721
SWIDTH 426 0
DWIDTH 6 0
BBX 6 13 0 -2
BITMAP
00
00
C0
C0
C0
D8
EC
CC
CC
CC
CC
18
30
ENDCHAR
STARTCHAR uni1E2A
ENCODING 7722
SWIDTH 426 0
DWIDTH 6 0
BBX 6 13 0 -2
BITMAP
00
00
CC
CC
CC
FC
CC
CC
CC
CC
00
44
38
ENDCHAR
STARTCHAR uni1E2B
ENCODING 7723
SWIDTH 426 0
DWIDTH 6 0
BBX 6 13 0 -2
BITMAP
00
00
C0
C0
C0
D8
EC
CC
CC
CC
00
44
38
ENDCHAR
STARTCHAR uni1E2C
ENCODING 7724
SWIDTH 426 0
DWIDTH 6 0
BBX 6 13 0 -2
BITMAP
00
00
F0
60
60
60
60
60
60
F0
00
68
B0
ENDCHAR
STARTCHAR uni1E2D
ENCODING 7725
SWIDTH 426 0
DWIDTH 6 0
BBX 6 13 0 -2
BITMAP
00
00
60
60
00
E0
60
60
60
F0
00
68
B0
ENDCHAR
STARTCHAR uni1E2E
ENCODING 7726
SWIDTH 426 0
DWIDTH 6 0
BBX 6 13 0 -2
BITMAP
30
20
CC
00
78
30
30
30
30
30
78
00
00
ENDCHAR
STARTCHAR uni1E2F
ENCODING 7727
SWIDTH 426 0
DWIDTH 6 0
BBX 6 13 0 -2
BITMAP
18
30
00
CC
00
70
30
30
30
30
78
00
00
ENDCHAR
STARTCHAR uni1E30
ENCODING 7728
SWIDTH 426 0
DWIDTH 6 0
BBX 6 13 0 -2
BITMAP
00
18
30
00
CC
D8
F0
E0
F0
D8
CC
00
00
ENDCHAR
STARTCHAR uni1E31
ENCODING 7729
SWIDTH 426 0
DWIDTH 6 0
BBX 6 13 0 -2
BITMAP
00
0C
D8
C0
C0
D8
F0
E0
F0
D8
CC
00
00
ENDCHAR
STARTCHAR uni1E32
ENCODING 7730
SWIDTH 426 0
DWIDTH 6 0
BBX 6 13 0 -2
BITMAP
00
00
CC
D8
F0
E0
F0
D8
CC
CC
00
30
30
ENDCHAR
STARTCHAR uni1E33
ENCODING 7731
SWIDTH 426 0
DWIDTH 6 0
BBX 6 13 0 -2
BITMAP
00
00
C0
C0
D8
F0
E0
F0
D8
CC
00
30
30
ENDCHAR
STARTCHAR uni1E34
ENCODING 7732
SWIDTH 426 0
DWIDTH 6 0
BBX 6 13 0 -2
BITMAP
00
00
CC
CC
D8
F0
E0
F0
D8
CC
CC
00
78
ENDCHAR
STARTCHAR uni1E35
ENCODING 7733
SWIDTH 426 0
DWIDTH 6 0
BBX 6 13 0 -2
BITMAP
00
00
C0
C0
C0
D8
F0
E0
F0
D8
CC
00
78
ENDCHAR
STARTCHAR uni1E36
ENCODING 7734
SWIDTH 426 0
DWIDTH 6 0
BBX 6 13 0 -2
BITMAP
00
00
C0
C0
C0
C0
C0
C0
C0
FC
00
30
30
ENDCHAR
STARTCHAR uni1E37
ENCODING 7735
SWIDTH 426 0
DWIDTH 6 0
BBX 6 13 0 -2
BITMAP
00
00
70
30
30
30
30
30
30
78
00
30
30
ENDCHAR
STARTCHAR uni1E38
ENCODING 7736
SWIDTH 426 0
DWIDTH 6 0
BBX 6 13 0 -2
BITMAP
00
78
00
C0
C0
C0
C0
C0
C0
FC
00
30
30
ENDCHAR
STARTCHAR uni1E39
ENCODING 7737
SWIDTH 426 0
DWIDTH 6 0
BBX 6 13 0 -2
BITMAP
00
78
00
70
30
30
30
30
30
78
00
30
30
ENDCHAR
STARTCHAR uni1E3A
ENCODING 7738
SWIDTH 426 0
DWIDTH 6 0
BBX 6 13 0 -2
BITMAP
00
00
C0
C0
C0
C0
C0
C0
C0
C0
FC
00
78
ENDCHAR
STARTCHAR uni1E3B
ENCODING 7739
SWIDTH 426 0
DWIDTH 6 0
BBX 6 13 0 -2
BITMAP
00
00
70
30
30
30
30
30
30
30
78
00
78
ENDCHAR
STARTCHAR uni1E3C
ENCODING 7740
SWIDTH 426 0
DWIDTH 6 0
BBX 6 13 0 -2
BITMAP
00
00
C0
C0
C0
C0
C0
C0
C0
FC
00
70
D8
ENDCHAR
STARTCHAR uni1E3D
ENCODING 7741
SWIDTH 426 0
DWIDTH 6 0
BBX 6 13 0 -2
BITMAP
00
00
E0
60
60
60
60
60
60
F0
00
70
D8
ENDCHAR
STARTCHAR uni1E3E
ENCODING 7742
SWIDTH 426 0
DWIDTH 6 0
BBX 6 13 0 -2
BITMAP
18
30
00
CC
CC
FC
FC
FC
CC
CC
CC
00
00
ENDCHAR
STARTCHAR uni1E3F
ENCODING 7743
SWIDTH 426 0
DWIDTH 6 0
BBX 6 13 0 -2
BITMAP
00
00
18
30
00
F8
FC
FC
FC
FC
CC
00
00
ENDCHAR
STARTCHAR uni1E40
ENCODING 7744
SWIDTH 426 0
DWIDTH 6 0
BBX 6 13 0 -2
BITMAP
30
30
00
CC
CC
FC
FC
FC
CC
CC
CC
00
00
ENDCHAR
STARTCHAR uni1E41
ENCODING 7745
SWIDTH 426 0
DWIDTH 6 0
BBX 6 13 0 -2
BITMAP
00
00
30
30
00
F8
FC
FC
FC
FC
CC
00
00
ENDCHAR
STARTCHAR uni1E42
ENCODING 7746
SWIDTH 426 0
DWIDTH 6 0
BBX 6 13 0 -2
BITMAP
00
00
CC
CC
FC
FC
FC
CC
CC
CC
00
30
30
ENDCHAR
STARTCHAR uni1E43
ENCODING 7747
SWIDTH 426 0
DWIDTH 6 0
BBX 6 13 0 -2
BITMAP
00
00
00
00
00
F8
FC
FC
FC
CC
00
30
30
ENDCHAR
STARTCHAR uni1E44
ENCODING 7748
SWIDTH 426 0
DWIDTH 6 0
BBX 6 13 0 -2
BITMAP
00
30
30
00
EC
EC
FC
FC
DC
DC
CC
00
00
ENDCHAR
STARTCHAR uni1E45
ENCODING 7749
SWIDTH 426 0
DWIDTH 6 0
BBX 6 13 0 -2
BITMAP
00
00
30
30
00
D8
EC
CC
CC
CC
CC
00
00
ENDCHAR
STARTCHAR uni1E46
ENCODING 7750
SWIDTH 426 0
DWIDTH 6 0
BBX 6 13 0 -2
BITMAP
00
00
CC
EC
EC
FC
FC
DC
DC
CC
00
30
30
ENDCHAR
STARTCHAR uni1E47
ENCODING 7751
SWIDTH 426 0
DWIDTH 6 0
BBX 6 13 0 -2
BITMAP
00
00
00
00
00
D8
EC
CC
CC
CC
00
30
30
ENDCHAR
STARTCHAR uni1E48
ENCODING 7752
SWIDTH 426 0
DWIDTH 6 0
BBX 6 13 0 -2
BITMAP
00
00
CC
EC
EC
FC
FC
DC
DC
CC
CC
00
78
ENDCHAR
STARTCHAR uni1E49
ENCODING 7753
SWIDTH 426 0
DWIDTH 6 0
BBX 6 13 0 -2
BITMAP
00
00
00
00
00
D8
EC
CC
CC
CC
CC
00
78
ENDCHAR
STARTCHAR uni1E4A
ENCODING 7754
SWIDTH 426 0
DWIDTH 6 0
BBX 6 13 0 -2
BITMAP
00
00
CC
EC
EC
FC
FC
DC
DC
CC
00
38
6C
ENDCHAR
STARTCHAR uni1E4B
ENCODING 7755
SWIDTH 426 0
DWIDTH 6 0
BBX 6 13 0 -2
BITMAP
00
00
00
00
00
D8
EC
CC
CC
CC
00
38
6C
ENDCHAR
STARTCHAR uni1E4C
ENCODING 7756
SWIDTH 426 0
DWIDTH 6 0
BBX 6 13 0 -2
BITMAP
10
20
34
58
00
78
CC
CC
CC
CC
CC
78
00
ENDCHAR
STARTCHAR uni1E4D
ENCODING 7757
SWIDTH 426 0
DWIDTH 6 0
BBX 6 13 0 -2
BITMAP
18
30
00
34
58
00
78
CC
CC
CC
78
00
00
ENDCHAR
STARTCHAR uni1E4E
ENCODING 7758
SWIDTH 426 0
DWIDTH 6 0
BBX 6 13 0 -2
BITMAP
6C
00
34
58
00
78
CC
CC
CC
CC
CC
78
00
ENDCHAR
STARTCHAR uni1E4F
ENCODING 7759
SWIDTH 426 0
DWIDTH 6 0
BBX 6 13 0 -2
BITMAP
00
6C
00
34
58
00
78
CC
CC
CC
78
00
00
ENDCHAR
STARTCHAR uni1E50
ENCODING 7760
SWIDTH 426 0
DWIDTH 6 0
BBX 6 13 0 -2
BITMAP
40
20
F8
00
78
CC
CC
CC
CC
CC
78
00
00
ENDCHAR
STARTCHAR uni1E51
ENCODING 7761
SWIDTH 426 0
DWIDTH 6 0
BBX 6 13 0 -2
BITMAP
00
40
20
F8
00
78
CC
CC
CC
CC
78
00
00
ENDCHAR
STARTCHAR uni1E52
ENCODING 7762
SWIDTH 426 0
DWIDTH 6 0
BBX 6 13 0 -2
BITMAP
08
10
7C
00
78
CC
CC
CC
CC
CC
78
00
00
ENDCHAR
STARTCHAR uni1E53
ENCODING 7763
SWIDTH 426 0
DWIDTH 6 0
BBX 6 13 0 -2
BITMAP
00
08
10
7C
00
78
CC
CC
CC
CC
78
00
00
ENDCHAR
STARTCHAR uni1E54
ENCODING 7764
SWIDTH 426 0
DWIDTH 6 0
BBX 6 13 0 -2
BITMAP
00
18
30
00
F8
CC
CC
F8
C0
C0
C0
00
00
ENDCHAR
STARTCHAR uni1E55
ENCODING 7765
SWIDTH 426 0
DWIDTH 6 0
BBX 6 13 0 -2
BITMAP
00
00
18
30
00
D8
EC
CC
EC
D8
C0
C0
C0
ENDCHAR
STARTCHAR uni1E56
ENCODING 7766
SWIDTH 426 0
DWIDTH 6 0
BBX 6 13 0 -2
BITMAP
00
30
30
00
F8
CC
CC
F8
C0
C0
C0
00
00
ENDCHAR
STARTCHAR uni1E57
ENCODING 7767
SWIDTH 426 0
DWIDTH 6 0
BBX 6 13 0 -2
BITMAP
00
00
30
30
00
D8
EC
CC
EC
D8
C0
C0
C0
ENDCHAR
STARTCHAR uni1E58
ENCODING 7768
SWIDTH 426 0
DWIDTH 6 0
BBX 6 13 0 -2
BITMAP
00
30
30
00
F8
CC
CC
F8
F0
D8
CC
00
00
ENDCHAR
STARTCHAR uni1E59
ENCODING 7769
SWIDTH 426 0
DWIDTH 6 0
BBX 6 13 0 -2
BITMAP
00
00
30
30
00
D8
EC
C0
C0
C0
C0
00
00
ENDCHAR
STARTCHAR uni1E5A
ENCODING 7770
SWIDTH 426 0
DWIDTH 6 0
BBX 6 13 0 -2
BITMAP
00
00
F8
CC
CC
F8
F0
D8
CC
CC
00
30
30
ENDCHAR
STARTCHAR uni1E5B
ENCODING 7771
SWIDTH 426 0
DWIDTH 6 0
BBX 6 13 0 -2
BITMAP
00
00
00
00
00
D8
EC
C0
C0
C0
00
30
30
ENDCHAR
STARTCHAR uni1E5C
ENCODING 7772
SWIDTH 426 0
DWIDTH 6 0
BBX 6 13 0 -2
BITMAP
00
78
00
F8
CC
CC
F8
F0
D8
CC
00
30
30
ENDCHAR
STARTCHAR uni1E5D
ENCODING 7773
SWIDTH 426 0
DWIDTH 6 0
BBX 6 13 0 -2
BITMAP
00
00
00
78
00
D8
EC
C0
C0
C0
00
30
30
ENDCHAR
STARTCHAR uni1E5E
ENCODING 7774
SWIDTH 426 0
DWIDTH 6 0
BBX 6 13 0 -2
BITMAP
00
00
F8
CC
CC
CC
F8
F0
D8
CC
CC
00
78
ENDCHAR
STARTCHAR uni1E5F
ENCODING 7775
SWIDTH 426 0
DWIDTH 6 0
BBX 6 13 0 -2
BITMAP
00
00
00
00
00
D8
EC
C0
C0
C0
C0
00
78
ENDCHAR
STARTCHAR uni1E60
ENCODING 7776
SWIDTH 426 0
DWIDTH 6 0
BBX 6 13 0 -2
BITMAP
00
30
30
00
78
CC
C0
78
0C
CC
78
00
00
ENDCHAR
STARTCHAR uni1E61
ENCODING 7777
SWIDTH 426 0
DWIDTH 6 0
BBX 6 13 0 -2
BITMAP
00
00
30
30
00
78
CC
70
18
CC
78
00
00
ENDCHAR
STARTCHAR uni1E62
ENCODING 7778
SWIDTH 426 0
DWIDTH 6 0
BBX 6 13 0 -2
BITMAP
00
00
78
CC
C0
78
0C
0C
CC
78
00
30
30
ENDCHAR
STARTCHAR uni1E63
ENCODING 7779
SWIDTH 426 0
DWIDTH 6 0
BBX 6 13 0 -2
BITMAP
00
00
00
00
78
CC
60
38
CC
78
00
30
30
ENDCHAR
STARTCHAR uni1E64
ENCODING 7780
SWIDTH 426 0
DWIDTH 6 0
BBX 6 13 0 -2
BITMAP
C0
CC
18
00
78
CC
C0
78
0C
CC
78
00
00
ENDCHAR
STARTCHAR uni1E65
ENCODING 7781
SWIDTH 426 0
DWIDTH 6 0
BBX 6 13 0 -2
BITMAP
00
C0
CC
18
00
78
CC
70
18
CC
78
00
00
ENDCHAR
STARTCHAR uni1E66
ENCODING 7782
SWIDTH 426 0
DWIDTH 6 0
BBX 6 13 0 -2
BITMAP
30
00
68
30
78
CC
C0
78
0C
CC
78
00
00
ENDCHAR
STARTCHAR uni1E67
ENCODING 7783
SWIDTH 426 0
DWIDTH 6 0
BBX 6 13 0 -2
BITMAP
30
00
68
30
00
78
CC
70
18
CC
78
00
00
ENDCHAR
STARTCHAR uni1E68
ENCODING 7784
SWIDTH 426 0
DWIDTH 6 0
BBX 6 13 0 -2
BITMAP
30
30
00
78
CC
C0
78
0C
CC
78
00
30
30
ENDCHAR
STARTCHAR uni1E69
ENCODING 7785
SWIDTH 426 0
DWIDTH 6 0
BBX 6 13 0 -2
BITMAP
00
30
30
00
78
CC
70
18
CC
78
00
30
30
ENDCHAR
STARTCHAR uni1E6A
ENCODING 7786
SWIDTH 426 0
DWIDTH 6 0
BBX 6 13 0 -2
BITMAP
00
30
30
00
FC
30
30
30
30
30
30
00
00
ENDCHAR
STARTCHAR uni1E6B
ENCODING 7787
SWIDTH 426 0
DWIDTH 6 0
BBX 6 13 0 -2
BITMAP
00
30
30
00
60
F8
60
60
60
6C
38
00
00
ENDCHAR
STARTCHAR uni1E6C
ENCODING 7788
SWIDTH 426 0
DWIDTH 6 0
BBX 6 13 0 -2
BITMAP
00
00
FC
30
30
30
30
30
30
30
00
30
30
ENDCHAR
STARTCHAR uni1E6D
ENCODING 7789
SWIDTH 426 0
DWIDTH 6 0
BBX 6 13 0 -2
BITMAP
00
00
00
60
60
F8
60
60
6C
38
00
30
30
ENDCHAR
STARTCHAR uni1E6E
ENCODING 7790
SWIDTH 426 0
DWIDTH 6 0
BBX 6 13 0 -2
BITMAP
00
00
FC
30
30
30
30
30
30
30
30
00
78
ENDCHAR
STARTCHAR uni1E6F
ENCODING 7791
SWIDTH 426 0
DWIDTH 6 0
BBX 6 13 0 -2
BITMAP
00
00
00
60
60
F8
60
60
60
6C
38
00
78
ENDCHAR
STARTCHAR uni1E70
ENCODING 7792
SWIDTH 426 0
DWIDTH 6 0
BBX 6 13 0 -2
BITMAP
00
00
FC
30
30
30
30
30
30
30
00
30
68
ENDCHAR
STARTCHAR uni1E71
ENCODING 7793
SWIDTH 426 0
DWIDTH 6 0
BBX 6 13 0 -2
BITMAP
00
00
00
60
60
F8
60
60
6C
38
00
30
68
ENDCHAR
STARTCHAR uni1E72
ENCODING 7794
SWIDTH 426 0
DWIDTH 6 0
BBX 6 13 0 -2
BITMAP
00
00
CC
CC
CC
CC
CC
CC
CC
78
00
CC
CC
ENDCHAR
STARTCHAR uni1E73
ENCODING 7795
SWIDTH 426 0
DWIDTH 6 0
BBX 6 13 0 -2
BITMAP
00
00
00
00
00
CC
CC
CC
DC
6C
00
CC
CC
ENDCHAR
STARTCHAR uni1E74
ENCODING 7796
SWIDTH 426 0
DWIDTH 6 0
BBX 6 13 0 -2
BITMAP
00
00
CC
CC
CC
CC
CC
CC
CC
78
00
34
58
ENDCHAR
STARTCHAR uni1E75
ENCODING 7797
SWIDTH 426 0
DWIDTH 6 0
BBX 6 13 0 -2
BITMAP
00
00
00
00
00
CC
CC
CC
DC
6C
00
34
58
ENDCHAR
STARTCHAR uni1E76
ENCODING 7798
SWIDTH 426 0
DWIDTH 6 0
BBX 6 13 0 -2
BITMAP
00
00
CC
CC
CC
CC
CC
CC
CC
78
00
38
6C
ENDCHAR
STARTCHAR uni1E77
ENCODING 7799
SWIDTH 426 0
DWIDTH 6 0
BBX 6 13 0 -2
BITMAP
00
00
00
00
00
CC
CC
CC
DC
6C
00
38
6C
ENDCHAR
STARTCHAR uni1E78
ENCODING 7800
SWIDTH 426 0
DWIDTH 6 0
BBX 6 13 0 -2
BITMAP
08
10
34
58
00
CC
CC
CC
CC
CC
78
00
00
ENDCHAR
STARTCHAR uni1E79
ENCODING 7801
SWIDTH 426 0
DWIDTH 6 0
BBX 6 13 0 -2
BITMAP
18
30
00
34
58
00
CC
CC
CC
DC
6C
00
00
ENDCHAR
STARTCHAR uni1E7A
ENCODING 7802
SWIDTH 426 0
DWIDTH 6 0
BBX 6 13 0 -2
BITMAP
CC
00
34
58
00
CC
CC
CC
CC
CC
78
00
00
ENDCHAR
STARTCHAR uni1E7B
ENCODING 7803
SWIDTH 426 0
DWIDTH 6 0
BBX 6 13 0 -2
BITMAP
CC
CC
00
34
58
00
CC
CC
CC
DC
6C
00
00
ENDCHAR
STARTCHAR uni1E7C
ENCODING 7804
SWIDTH 426 0
DWIDTH 6 0
BBX 6 13 0 -2
BITMAP
00
34
58
00
CC
CC
CC
78
78
30
30
00
00
ENDCHAR
STARTCHAR uni1E7D
ENCODING 7805
SWIDTH 426 0
DWIDTH 6 0
BBX 6 13 0 -2
BITMAP
00
00
34
58
00
CC
CC
CC
78
78
30
00
00
ENDCHAR
STARTCHAR uni1E7E
ENCODING 7806
SWIDTH 426 0
DWIDTH 6 0
BBX 6 13 0 -2
BITMAP
00
00
CC
CC
CC
78
78
78
30
30
00
30
30
ENDCHAR
STARTCHAR uni1E7F
ENCODING 7807
SWIDTH 426 0
DWIDTH 6 0
BBX 6 13 0 -2
BITMAP
00
00
CC
CC
CC
CC
FC
FC
FC
FC
CC
00
00
ENDCHAR
STARTCHAR Wgrave
ENCODING 7808
SWIDTH 426 0
DWIDTH 6 0
BBX 6 13 0 -2
BITMAP
60
30
00
CC
CC
CC
FC
FC
FC
FC
CC
00
00
ENDCHAR
STARTCHAR wgrave
ENCODING 7809
SWIDTH 426 0
DWIDTH 6 0
BBX 6 13 0 -2
BITMAP
00
00
60
30
00
CC
CC
FC
FC
FC
48
00
00
ENDCHAR
STARTCHAR Wacute
ENCODING 7810
SWIDTH 426 0
DWIDTH 6 0
BBX 6 13 0 -2
BITMAP
18
30
00
CC
CC
CC
FC
FC
FC
FC
CC
00
00
ENDCHAR
STARTCHAR wacute
ENCODING 7811
SWIDTH 426 0
DWIDTH 6 0
BBX 6 13 0 -2
BITMAP
00
00
18
30
00
CC
CC
FC
FC
FC
48
00
00
ENDCHAR
STARTCHAR Wdieresis
ENCODING 7812
SWIDTH 426 0
DWIDTH 6 0
BBX 6 13 0 -2
BITMAP
00
CC
CC
00
CC
CC
CC
FC
FC
FC
CC
00
00
ENDCHAR
STARTCHAR wdieresis
ENCODING 7813
SWIDTH 426 0
DWIDTH 6 0
BBX 6 13 0 -2
BITMAP
00
00
CC
CC
00
CC
CC
FC
FC
FC
48
00
00
ENDCHAR
STARTCHAR uni1E86
ENCODING 7814
SWIDTH 426 0
DWIDTH 6 0
BBX 6 13 0 -2
BITMAP
00
30
30
00
CC
CC
CC
FC
FC
FC
CC
00
00
ENDCHAR
STARTCHAR uni1E87
ENCODING 7815
SWIDTH 426 0
DWIDTH 6 0
BBX 6 13 0 -2
BITMAP
00
00
30
30
00
CC
CC
FC
FC
FC
48
00
00
ENDCHAR
STARTCHAR uni1E88
ENCODING 7816
SWIDTH 426 0
DWIDTH 6 0
BBX 6 13 0 -2
BITMAP
00
00
CC
CC
CC
FC
FC
FC
FC
CC
00
30
30
ENDCHAR
STARTCHAR uni1E89
ENCODING 7817
SWIDTH 426 0
DWIDTH 6 0
BBX 6 13 0 -2
BITMAP
00
00
00
00
00
CC
CC
FC
FC
48
00
30
30
ENDCHAR
STARTCHAR uni1E8A
ENCODING 7818
SWIDTH 426 0
DWIDTH 6 0
BBX 6 13 0 -2
BITMAP
00
30
30
00
CC
78
78
30
78
78
CC
00
00
ENDCHAR
STARTCHAR uni1E8B
ENCODING 7819
SWIDTH 426 0
DWIDTH 6 0
BBX 6 13 0 -2
BITMAP
00
00
30
30
00
CC
78
30
30
78
CC
00
00
ENDCHAR
STARTCHAR uni1E8C
ENCODING 7820
SWIDTH 426 0
DWIDTH 6 0
BBX 6 13 0 -2
BITMAP
00
CC
CC
00
CC
78
78
30
78
78
CC
00
00
ENDCHAR
STARTCHAR uni1E8D
ENCODING 7821
SWIDTH 426 0
DWIDTH 6 0
BBX 6 13 0 -2
BITMAP
00
00
CC
CC
00
CC
78
30
30
78
CC
00
00
ENDCHAR
STARTCHAR uni1E8E
ENCODING 7822
SWIDTH 426 0
DWIDTH 6 0
BBX 6 13 0 -2
BITMAP
00
30
30
00
CC
CC
78
78
30
30
30
00
00
ENDCHAR
STARTCHAR uni1E8F
ENCODING 7823
SWIDTH 426 0
DWIDTH 6 0
BBX 6 13 0 -2
BITMAP
00
00
30
30
00
CC
CC
CC
DC
7C
0C
CC
78
ENDCHAR
STARTCHAR uni1E90
ENCODING 7824
SWIDTH 426 0
DWIDTH 6 0
BBX 6 13 0 -2
BITMAP
00
38
6C
00
FC
0C
18
30
60
C0
FC
00
00
ENDCHAR
STARTCHAR uni1E91
ENCODING 7825
SWIDTH 426 0
DWIDTH 6 0
BBX 6 13 0 -2
BITMAP
00
00
38
6C
00
FC
18
30
60
C0
FC
00
00
ENDCHAR
STARTCHAR uni1E92
ENCODING 7826
SWIDTH 426 0
DWIDTH 6 0
BBX 6 13 0 -2
BITMAP
00
00
FC
0C
18
30
60
60
C0
FC
00
30
30
ENDCHAR
STARTCHAR uni1E93
ENCODING 7827
SWIDTH 426 0
DWIDTH 6 0
BBX 6 13 0 -2
BITMAP
00
00
00
00
00
FC
18
30
60
FC
00
30
30
ENDCHAR
STARTCHAR uni1E94
ENCODING 7828
SWIDTH 426 0
DWIDTH 6 0
BBX 6 13 0 -2
BITMAP
00
00
FC
0C
18
18
30
60
60
C0
FC
00
78
ENDCHAR
STARTCHAR uni1E95
ENCODING 7829
SWIDTH 426 0
DWIDTH 6 0
BBX 6 13 0 -2
BITMAP
00
00
00
00
00
FC
18
30
60
C0
FC
00
78
ENDCHAR
STARTCHAR uni1E96
ENCODING 7830
SWIDTH 426 0
DWIDTH 6 0
BBX 6 13 0 -2
BITMAP
00
00
C0
C0
C0
D8
EC
CC
CC
CC
CC
00
78
ENDCHAR
STARTCHAR uni1E97
ENCODING 7831
SWIDTH 426 0
DWIDTH 6 0
BBX 6 13 0 -2
BITMAP
00
CC
CC
00
60
F8
60
60
60
6C
38
00
00
ENDCHAR
STARTCHAR uni1E98
ENCODING 7832
SWIDTH 426 0
DWIDTH 6 0
BBX 6 13 0 -2
BITMAP
00
78
48
78
00
CC
CC
FC
FC
FC
48
00
00
ENDCHAR
STARTCHAR uni1E99
ENCODING 7833
SWIDTH 426 0
DWIDTH 6 0
BBX 6 13 0 -2
BITMAP
00
78
48
78
00
CC
CC
CC
DC
7C
0C
CC
78
ENDCHAR
STARTCHAR uni1E9A
ENCODING 7834
SWIDTH 426 0
DWIDTH 6 0
BBX 6 13 0 -2
BITMAP
18
0C
0C
18
00
78
0C
7C
CC
DC
6C
00
00
ENDCHAR
STARTCHAR uni1E9B
ENCODING 7835
SWIDTH 426 0
DWIDTH 6 0
BBX 6 13 0 -2
BITMAP
00
30
30
00
38
6C
60
E0
60
60
60
00
00
ENDCHAR
STARTCHAR Ygrave
ENCODING 7922
SWIDTH 426 0
DWIDTH 6 0
BBX 6 13 0 -2
BITMAP
00
60
30
00
CC
CC
78
30
30
30
30
00
00
ENDCHAR
STARTCHAR ygrave
ENCODING 7923
SWIDTH 426 0
DWIDTH 6 0
BBX 6 13 0 -2
BITMAP
00
00
60
30
00
CC
CC
CC
DC
6C
0C
8C
78
ENDCHAR
STARTCHAR uni1F00
ENCODING 7936
SWIDTH 426 0
DWIDTH 6 0
BBX 6 13 0 -2
BITMAP
00
38
18
30
00
78
CC
CC
CC
DC
6C
00
00
ENDCHAR
STARTCHAR uni1F01
ENCODING 7937
SWIDTH 426 0
DWIDTH 6 0
BBX 6 13 0 -2
BITMAP
00
38
30
18
00
78
CC
CC
CC
DC
6C
00
00
ENDCHAR
STARTCHAR uni1F02
ENCODING 7938
SWIDTH 426 0
DWIDTH 6 0
BBX 6 13 0 -2
BITMAP
00
F8
6C
C0
00
78
CC
CC
CC
DC
6C
00
00
ENDCHAR
STARTCHAR uni1F03
ENCODING 7939
SWIDTH 426 0
DWIDTH 6 0
BBX 6 13 0 -2
BITMAP
00
F8
CC
60
00
78
CC
CC
CC
DC
6C
00
00
ENDCHAR
STARTCHAR uni1F04
ENCODING 7940
SWIDTH 426 0
DWIDTH 6 0
BBX 6 13 0 -2
BITMAP
00
EC
78
C0
00
78
CC
CC
CC
DC
6C
00
00
ENDCHAR
STARTCHAR uni1F05
ENCODING 7941
SWIDTH 426 0
DWIDTH 6 0
BBX 6 13 0 -2
BITMAP
00
EC
D8
60
00
78
CC
CC
CC
DC
6C
00
00
ENDCHAR
STARTCHAR uni1F06
ENCODING 7942
SWIDTH 426 0
DWIDTH 6 0
BBX 6 13 0 -2
BITMAP
64
B8
18
30
00
78
CC
CC
CC
DC
6C
00
00
ENDCHAR
STARTCHAR uni1F07
ENCODING 7943
SWIDTH 426 0
DWIDTH 6 0
BBX 6 13 0 -2
BITMAP
64
B8
30
18
00
78
CC
CC
CC
DC
6C
00
00
ENDCHAR
STARTCHAR uni1F08
ENCODING 7944
SWIDTH 426 0
DWIDTH 6 0
BBX 6 13 0 -2
BITMAP
00
00
90
B8
6C
6C
6C
7C
6C
6C
6C
00
00
ENDCHAR
STARTCHAR uni1F09
ENCODING 7945
SWIDTH 426 0
DWIDTH 6 0
BBX 6 13 0 -2
BITMAP
00
00
90
B8
6C
6C
6C
7C
6C
6C
6C
00
00
ENDCHAR
STARTCHAR uni1F0A
ENCODING 7946
SWIDTH 426 0
DWIDTH 6 0
BBX 6 13 0 -2
BITMAP
00
00
90
B8
6C
6C
6C
7C
6C
6C
6C
00
00
ENDCHAR
STARTCHAR uni1F0B
ENCODING 7947
SWIDTH 426 0
DWIDTH 6 0
BBX 6 13 0 -2
BITMAP
00
00
90
B8
6C
6C
6C
7C
6C
6C
6C
00
00
ENDCHAR
STARTCHAR uni1F0C
ENCODING 7948
SWIDTH 426 0
DWIDTH 6 0
BBX 6 13 0 -2
BITMAP
00
00
90
B8
6C
6C
6C
7C
6C
6C
6C
00
00
ENDCHAR
STARTCHAR uni1F0D
ENCODING 7949
SWIDTH 426 0
DWIDTH 6 0
BBX 6 13 0 -2
BITMAP
00
00
90
B8
6C
6C
6C
7C
6C
6C
6C
00
00
ENDCHAR
STARTCHAR uni1F0E
ENCODING 7950
SWIDTH 426 0
DWIDTH 6 0
BBX 6 13 0 -2
BITMAP
00
00
90
B8
6C
6C
6C
7C
6C
6C
6C
00
00
ENDCHAR
STARTCHAR uni1F0F
ENCODING 7951
SWIDTH 426 0
DWIDTH 6 0
BBX 6 13 0 -2
BITMAP
00
00
90
B8
6C
6C
6C
7C
6C
6C
6C
00
00
ENDCHAR
STARTCHAR uni1F10
ENCODING 7952
SWIDTH 426 0
DWIDTH 6 0
BBX 6 13 0 -2
BITMAP
00
38
18
30
00
78
CC
70
C0
CC
78
00
00
ENDCHAR
STARTCHAR uni1F11
ENCODING 7953
SWIDTH 426 0
DWIDTH 6 0
BBX 6 13 0 -2
BITMAP
00
38
30
18
00
78
CC
70
C0
CC
78
00
00
ENDCHAR
STARTCHAR uni1F12
ENCODING 7954
SWIDTH 426 0
DWIDTH 6 0
BBX 6 13 0 -2
BITMAP
00
F8
6C
C0
00
78
CC
70
C0
CC
78
00
00
ENDCHAR
STARTCHAR uni1F13
ENCODING 7955
SWIDTH 426 0
DWIDTH 6 0
BBX 6 13 0 -2
BITMAP
00
F8
CC
60
00
78
CC
70
C0
CC
78
00
00
ENDCHAR
STARTCHAR uni1F14
ENCODING 7956
SWIDTH 426 0
DWIDTH 6 0
BBX 6 13 0 -2
BITMAP
00
EC
78
C0
00
78
CC
70
C0
CC
78
00
00
ENDCHAR
STARTCHAR uni1F15
ENCODING 7957
SWIDTH 426 0
DWIDTH 6 0
BBX 6 13 0 -2
BITMAP
00
EC
D8
60
00
78
CC
70
C0
CC
78
00
00
ENDCHAR
STARTCHAR uni1F18
ENCODING 7960
SWIDTH 426 0
DWIDTH 6 0
BBX 6 13 0 -2
BITMAP
00
00
FC
E0
60
60
78
60
60
60
7C
00
00
ENDCHAR
STARTCHAR uni1F19
ENCODING 7961
SWIDTH 426 0
DWIDTH 6 0
BBX 6 13 0 -2
BITMAP
00
00
FC
E0
60
60
78
60
60
60
7C
00
00
ENDCHAR
STARTCHAR uni1F1A
ENCODING 7962
SWIDTH 426 0
DWIDTH 6 0
BBX 6 13 0 -2
BITMAP
00
00
FC
E0
60
60
78
60
60
60
7C
00
00
ENDCHAR
STARTCHAR uni1F1B
ENCODING 7963
SWIDTH 426 0
DWIDTH 6 0
BBX 6 13 0 -2
BITMAP
00
00
FC
E0
60
60
78
60
60
60
7C
00
00
ENDCHAR
STARTCHAR uni1F1C
ENCODING 7964
SWIDTH 426 0
DWIDTH 6 0
BBX 6 13 0 -2
BITMAP
00
00
FC
E0
60
60
78
60
60
60
7C
00
00
ENDCHAR
STARTCHAR uni1F1D
ENCODING 7965
SWIDTH 426 0
DWIDTH 6 0
BBX 6 13 0 -2
BITMAP
00
00
FC
E0
60
60
78
60
60
60
7C
00
00
ENDCHAR
STARTCHAR uni1F20
ENCODING 7968
SWIDTH 426 0
DWIDTH 6 0
BBX 6 13 0 -2
BITMAP
00
38
18
30
00
D8
EC
CC
CC
CC
CC
0C
0C
ENDCHAR
STARTCHAR uni1F21
ENCODING 7969
SWIDTH 426 0
DWIDTH 6 0
BBX 6 13 0 -2
BITMAP
00
38
30
18
00
D8
EC
CC
CC
CC
CC
0C
0C
ENDCHAR
STARTCHAR uni1F22
ENCODING 7970
SWIDTH 426 0
DWIDTH 6 0
BBX 6 13 0 -2
BITMAP
00
F8
6C
C0
00
D8
EC
CC
CC
CC
CC
0C
0C
ENDCHAR
STARTCHAR uni1F23
ENCODING 7971
SWIDTH 426 0
DWIDTH 6 0
BBX 6 13 0 -2
BITMAP
00
F8
CC
60
00
D8
EC
CC
CC
CC
CC
0C
0C
ENDCHAR
STARTCHAR uni1F24
ENCODING 7972
SWIDTH 426 0
DWIDTH 6 0
BBX 6 13 0 -2
BITMAP
00
EC
78
C0
00
D8
EC
CC
CC
CC
CC
0C
0C
ENDCHAR
STARTCHAR uni1F25
ENCODING 7973
SWIDTH 426 0
DWIDTH 6 0
BBX 6 13 0 -2
BITMAP
00
EC
D8
60
00
D8
EC
CC
CC
CC
CC
0C
0C
ENDCHAR
STARTCHAR uni1F26
ENCODING 7974
SWIDTH 426 0
DWIDTH 6 0
BBX 6 13 0 -2
BITMAP
64
B8
18
30
00
D8
EC
CC
CC
CC
CC
0C
0C
ENDCHAR
STARTCHAR uni1F27
ENCODING 7975
SWIDTH 426 0
DWIDTH 6 0
BBX 6 13 0 -2
BITMAP
64
B8
30
18
00
D8
EC
CC
CC
CC
CC
0C
0C
ENDCHAR
STARTCHAR uni1F28
ENCODING 7976
SWIDTH 426 0
DWIDTH 6 0
BBX 6 13 0 -2
BITMAP
00
00
EC
EC
6C
6C
7C
6C
6C
6C
6C
00
00
ENDCHAR
STARTCHAR uni1F29
ENCODING 7977
SWIDTH 426 0
DWIDTH 6 0
BBX 6 13 0 -2
BITMAP
00
00
EC
EC
6C
6C
7C
6C
6C
6C
6C
00
00
ENDCHAR
STARTCHAR uni1F2A
ENCODING 7978
SWIDTH 426 0
DWIDTH 6 0
BBX 6 13 0 -2
BITMAP
00
00
EC
EC
6C
6C
7C
6C
6C
6C
6C
00
00
ENDCHAR
STARTCHAR uni1F2B
ENCODING 7979
SWIDTH 426 0
DWIDTH 6 0
BBX 6 13 0 -2
BITMAP
00
00
EC
EC
6C
6C
7C
6C
6C
6C
6C
00
00
ENDCHAR
STARTCHAR uni1F2C
ENCODING 7980
SWIDTH 426 0
DWIDTH 6 0
BBX 6 13 0 -2
BITMAP
00
00
EC
EC
6C
6C
7C
6C
6C
6C
6C
00
00
ENDCHAR
STARTCHAR uni1F2D
ENCODING 7981
SWIDTH 426 0
DWIDTH 6 0
BBX 6 13 0 -2
BITMAP
00
00
EC
EC
6C
6C
7C
6C
6C
6C
6C
00
00
ENDCHAR
STARTCHAR uni1F2E
ENCODING 7982
SWIDTH 426 0
DWIDTH 6 0
BBX 6 13 0 -2
BITMAP
00
00
EC
EC
6C
6C
7C
6C
6C
6C
6C
00
00
ENDCHAR
STARTCHAR uni1F2F
ENCODING 7983
SWIDTH 426 0
DWIDTH 6 0
BBX 6 13 0 -2
BITMAP
00
00
EC
EC
6C
6C
7C
6C
6C
6C
6C
00
00
ENDCHAR
STARTCHAR uni1F30
ENCODING 7984
SWIDTH 426 0
DWIDTH 6 0
BBX 6 13 0 -2
BITMAP
00
70
30
60
00
60
60
60
60
78
30
00
00
ENDCHAR
STARTCHAR uni1F31
ENCODING 7985
SWIDTH 426 0
DWIDTH 6 0
BBX 6 13 0 -2
BITMAP
00
70
60
30
00
60
60
60
60
78
30
00
00
ENDCHAR
STARTCHAR uni1F32
ENCODING 7986
SWIDTH 426 0
DWIDTH 6 0
BBX 6 13 0 -2
BITMAP
00
F8
6C
C0
00
30
30
30
30
3C
18
00
00
ENDCHAR
STARTCHAR uni1F33
ENCODING 7987
SWIDTH 426 0
DWIDTH 6 0
BBX 6 13 0 -2
BITMAP
00
F8
CC
60
00
30
30
30
30
3C
18
00
00
ENDCHAR
STARTCHAR uni1F34
ENCODING 7988
SWIDTH 426 0
DWIDTH 6 0
BBX 6 13 0 -2
BITMAP
00
EC
78
C0
00
30
30
30
30
3C
18
00
00
ENDCHAR
STARTCHAR uni1F35
ENCODING 7989
SWIDTH 426 0
DWIDTH 6 0
BBX 6 13 0 -2
BITMAP
00
EC
D8
60
00
30
30
30
30
3C
18
00
00
ENDCHAR
STARTCHAR uni1F36
ENCODING 7990
SWIDTH 426 0
DWIDTH 6 0
BBX 6 13 0 -2
BITMAP
64
B8
18
30
00
30
30
30
30
3C
18
00
00
ENDCHAR
STARTCHAR uni1F37
ENCODING 7991
SWIDTH 426 0
DWIDTH 6 0
BBX 6 13 0 -2
BITMAP
64
B8
30
18
00
30
30
30
30
3C
18
00
00
ENDCHAR
STARTCHAR uni1F38
ENCODING 7992
SWIDTH 426 0
DWIDTH 6 0
BBX 6 13 0 -2
BITMAP
00
00
F8
B0
30
30
30
30
30
30
78
00
00
ENDCHAR
STARTCHAR uni1F39
ENCODING 7993
SWIDTH 426 0
DWIDTH 6 0
BBX 6 13 0 -2
BITMAP
00
00
F8
B0
30
30
30
30
30
30
78
00
00
ENDCHAR
STARTCHAR uni1F3A
ENCODING 7994
SWIDTH 426 0
DWIDTH 6 0
BBX 6 13 0 -2
BITMAP
00
00
F8
B0
30
30
30
30
30
30
78
00
00
ENDCHAR
STARTCHAR uni1F3B
ENCODING 7995
SWIDTH 426 0
DWIDTH 6 0
BBX 6 13 0 -2
BITMAP
00
00
F8
B0
30
30
30
30
30
30
78
00
00
ENDCHAR
STARTCHAR uni1F3C
ENCODING 7996
SWIDTH 426 0
DWIDTH 6 0
BBX 6 13 0 -2
BITMAP
00
00
F8
B0
30
30
30
30
30
30
78
00
00
ENDCHAR
STARTCHAR uni1F3D
ENCODING 7997
SWIDTH 426 0
DWIDTH 6 0
BBX 6 13 0 -2
BITMAP
00
00
F8
B0
30
30
30
30
30
30
78
00
00
ENDCHAR
STARTCHAR uni1F3E
ENCODING 7998
SWIDTH 426 0
DWIDTH 6 0
BBX 6 13 0 -2
BITMAP
00
00
F8
B0
30
30
30
30
30
30
78
00
00
ENDCHAR
STARTCHAR uni1F3F
ENCODING 7999
SWIDTH 426 0
DWIDTH 6 0
BBX 6 13 0 -2
BITMAP
00
00
F8
B0
30
30
30
30
30
30
78
00
00
ENDCHAR
STARTCHAR uni1F40
ENCODING 8000
SWIDTH 426 0
DWIDTH 6 0
BBX 6 13 0 -2
BITMAP
00
38
18
30
00
78
CC
CC
CC
CC
78
00
00
ENDCHAR
STARTCHAR uni1F41
ENCODING 8001
SWIDTH 426 0
DWIDTH 6 0
BBX 6 13 0 -2
BITMAP
00
38
30
18
00
78
CC
CC
CC
CC
78
00
00
ENDCHAR
STARTCHAR uni1F42
ENCODING 8002
SWIDTH 426 0
DWIDTH 6 0
BBX 6 13 0 -2
BITMAP
00
F8
6C
C0
00
78
CC
CC
CC
CC
78
00
00
ENDCHAR
STARTCHAR uni1F43
ENCODING 8003
SWIDTH 426 0
DWIDTH 6 0
BBX 6 13 0 -2
BITMAP
00
F8
CC
60
00
78
CC
CC
CC
CC
78
00
00
ENDCHAR
STARTCHAR uni1F44
ENCODING 8004
SWIDTH 426 0
DWIDTH 6 0
BBX 6 13 0 -2
BITMAP
00
EC
78
C0
00
78
CC
CC
CC
CC
78
00
00
ENDCHAR
STARTCHAR uni1F45
ENCODING 8005
SWIDTH 426 0
DWIDTH 6 0
BBX 6 13 0 -2
BITMAP
00
EC
D8
60
00
78
CC
CC
CC
CC
78
00
00
ENDCHAR
STARTCHAR uni1F48
ENCODING 8008
SWIDTH 426 0
DWIDTH 6 0
BBX 6 13 0 -2
BITMAP
00
00
B8
EC
6C
6C
6C
6C
6C
6C
38
00
00
ENDCHAR
STARTCHAR uni1F49
ENCODING 8009
SWIDTH 426 0
DWIDTH 6 0
BBX 6 13 0 -2
BITMAP
00
00
B8
EC
6C
6C
6C
6C
6C
6C
38
00
00
ENDCHAR
STARTCHAR uni1F4A
ENCODING 8010
SWIDTH 426 0
DWIDTH 6 0
BBX 6 13 0 -2
BITMAP
00
00
B8
EC
6C
6C
6C
6C
6C
6C
38
00
00
ENDCHAR
STARTCHAR uni1F4B
ENCODING 8011
SWIDTH 426 0
DWIDTH 6 0
BBX 6 13 0 -2
BITMAP
00
00
B8
EC
6C
6C
6C
6C
6C
6C
38
00
00
ENDCHAR
STARTCHAR uni1F4C
ENCODING 8012
SWIDTH 426 0
DWIDTH 6 0
BBX 6 13 0 -2
BITMAP
00
00
B8
EC
6C
6C
6C
6C
6C
6C
38
00
00
ENDCHAR
STARTCHAR uni1F4D
ENCODING 8013
SWIDTH 426 0
DWIDTH 6 0
BBX 6 13 0 -2
BITMAP
00
00
B8
EC
6C
6C
6C
6C
6C
6C
38
00
00
ENDCHAR
STARTCHAR uni1F50
ENCODING 8016
SWIDTH 426 0
DWIDTH 6 0
BBX 6 13 0 -2
BITMAP
00
38
18
30
00
CC
CC
CC
CC
CC
78
00
00
ENDCHAR
STARTCHAR uni1F51
ENCODING 8017
SWIDTH 426 0
DWIDTH 6 0
BBX 6 13 0 -2
BITMAP
00
38
30
18
00
CC
CC
CC
CC
CC
78
00
00
ENDCHAR
STARTCHAR uni1F52
ENCODING 8018
SWIDTH 426 0
DWIDTH 6 0
BBX 6 13 0 -2
BITMAP
00
F8
6C
C0
00
CC
CC
CC
CC
CC
78
00
00
ENDCHAR
STARTCHAR uni1F53
ENCODING 8019
SWIDTH 426 0
DWIDTH 6 0
BBX 6 13 0 -2
BITMAP
00
F8
CC
60
00
CC
CC
CC
CC
CC
78
00
00
ENDCHAR
STARTCHAR uni1F54
ENCODING 8020
SWIDTH 426 0
DWIDTH 6 0
BBX 6 13 0 -2
BITMAP
00
EC
78
C0
00
CC
CC
CC
CC
CC
78
00
00
ENDCHAR
STARTCHAR uni1F55
ENCODING 8021
SWIDTH 426 0
DWIDTH 6 0
BBX 6 13 0 -2
BITMAP
00
EC
D8
60
00
CC
CC
CC
CC
CC
78
00
00
ENDCHAR
STARTCHAR uni1F56
ENCODING 8022
SWIDTH 426 0
DWIDTH 6 0
BBX 6 13 0 -2
BITMAP
64
B8
18
30
00
CC
CC
CC
CC
CC
78
00
00
ENDCHAR
STARTCHAR uni1F57
ENCODING 8023
SWIDTH 426 0
DWIDTH 6 0
BBX 6 13 0 -2
BITMAP
64
B8
30
18
00
CC
CC
CC
CC
CC
78
00
00
ENDCHAR
STARTCHAR uni1F59
ENCODING 8025
SWIDTH 426 0
DWIDTH 6 0
BBX 6 13 0 -2
BITMAP
00
00
A4
A4
3C
3C
18
18
18
18
18
00
00
ENDCHAR
STARTCHAR uni1F5B
ENCODING 8027
SWIDTH 426 0
DWIDTH 6 0
BBX 6 13 0 -2
BITMAP
00
00
A4
A4
3C
3C
18
18
18
18
18
00
00
ENDCHAR
STARTCHAR uni1F5D
ENCODING 8029
SWIDTH 426 0
DWIDTH 6 0
BBX 6 13 0 -2
BITMAP
00
00
A4
A4
3C
3C
18
18
18
18
18
00
00
ENDCHAR
STARTCHAR uni1F5F
ENCODING 8031
SWIDTH 426 0
DWIDTH 6 0
BBX 6 13 0 -2
BITMAP
00
00
A4
A4
3C
3C
18
18
18
18
18
00
00
ENDCHAR
STARTCHAR uni1F60
ENCODING 8032
SWIDTH 426 0
DWIDTH 6 0
BBX 6 13 0 -2
BITMAP
00
38
18
30
00
CC
CC
FC
FC
FC
48
00
00
ENDCHAR
STARTCHAR uni1F61
ENCODING 8033
SWIDTH 426 0
DWIDTH 6 0
BBX 6 13 0 -2
BITMAP
00
38
30
18
00
CC
CC
FC
FC
FC
48
00
00
ENDCHAR
STARTCHAR uni1F62
ENCODING 8034
SWIDTH 426 0
DWIDTH 6 0
BBX 6 13 0 -2
BITMAP
00
F8
6C
C0
00
CC
CC
FC
FC
FC
48
00
00
ENDCHAR
STARTCHAR uni1F63
ENCODING 8035
SWIDTH 426 0
DWIDTH 6 0
BBX 6 13 0 -2
BITMAP
00
F8
CC
60
00
CC
CC
FC
FC
FC
48
00
00
ENDCHAR
STARTCHAR uni1F64
ENCODING 8036
SWIDTH 426 0
DWIDTH 6 0
BBX 6 13 0 -2
BITMAP
00
EC
78
C0
00
CC
CC
FC
FC
FC
48
00
00
ENDCHAR
STARTCHAR uni1F65
ENCODING 8037
SWIDTH 426 0
DWIDTH 6 0
BBX 6 13 0 -2
BITMAP
00
EC
D8
60
00
CC
CC
FC
FC
FC
48
00
00
ENDCHAR
STARTCHAR uni1F66
ENCODING 8038
SWIDTH 426 0
DWIDTH 6 0
BBX 6 13 0 -2
BITMAP
64
B8
18
30
00
CC
CC
FC
FC
FC
48
00
00
ENDCHAR
STARTCHAR uni1F67
ENCODING 8039
SWIDTH 426 0
DWIDTH 6 0
BBX 6 13 0 -2
BITMAP
64
B8
30
18
00
CC
CC
FC
FC
FC
48
00
00
ENDCHAR
STARTCHAR uni1F68
ENCODING 8040
SWIDTH 426 0
DWIDTH 6 0
BBX 6 13 0 -2
BITMAP
00
00
B8
EC
6C
6C
6C
6C
28
28
6C
00
00
ENDCHAR
STARTCHAR uni1F69
ENCODING 8041
SWIDTH 426 0
DWIDTH 6 0
BBX 6 13 0 -2
BITMAP
00
00
B8
EC
6C
6C
6C
6C
28
28
6C
00
00
ENDCHAR
STARTCHAR uni1F6A
ENCODING 8042
SWIDTH 426 0
DWIDTH 6 0
BBX 6 13 0 -2
BITMAP
00
00
B8
EC
6C
6C
6C
6C
28
28
6C
00
00
ENDCHAR
STARTCHAR uni1F6B
ENCODING 8043
SWIDTH 426 0
DWIDTH 6 0
BBX 6 13 0 -2
BITMAP
00
00
B8
EC
6C
6C
6C
6C
28
28
6C
00
00
ENDCHAR
STARTCHAR uni1F6C
ENCODING 8044
SWIDTH 426 0
DWIDTH 6 0
BBX 6 13 0 -2
BITMAP
00
00
B8
EC
6C
6C
6C
6C
28
28
6C
00
00
ENDCHAR
STARTCHAR uni1F6D
ENCODING 8045
SWIDTH 426 0
DWIDTH 6 0
BBX 6 13 0 -2
BITMAP
00
00
B8
EC
6C
6C
6C
6C
28
28
6C
00
00
ENDCHAR
STARTCHAR uni1F6E
ENCODING 8046
SWIDTH 426 0
DWIDTH 6 0
BBX 6 13 0 -2
BITMAP
00
00
B8
EC
6C
6C
6C
6C
28
28
6C
00
00
ENDCHAR
STARTCHAR uni1F6F
ENCODING 8047
SWIDTH 426 0
DWIDTH 6 0
BBX 6 13 0 -2
BITMAP
00
00
B8
EC
6C
6C
6C
6C
28
28
6C
00
00
ENDCHAR
STARTCHAR uni1F70
ENCODING 8048
SWIDTH 426 0
DWIDTH 6 0
BBX 6 13 0 -2
BITMAP
00
00
60
30
00
78
CC
CC
CC
DC
6C
00
00
ENDCHAR
STARTCHAR uni1F71
ENCODING 8049
SWIDTH 426 0
DWIDTH 6 0
BBX 6 13 0 -2
BITMAP
00
00
18
30
00
78
CC
CC
CC
DC
6C
00
00
ENDCHAR
STARTCHAR uni1F72
ENCODING 8050
SWIDTH 426 0
DWIDTH 6 0
BBX 6 13 0 -2
BITMAP
00
00
60
30
00
78
CC
70
C0
CC
78
00
00
ENDCHAR
STARTCHAR uni1F73
ENCODING 8051
SWIDTH 426 0
DWIDTH 6 0
BBX 6 13 0 -2
BITMAP
00
00
18
30
00
78
CC
70
C0
CC
78
00
00
ENDCHAR
STARTCHAR uni1F74
ENCODING 8052
SWIDTH 426 0
DWIDTH 6 0
BBX 6 13 0 -2
BITMAP
00
00
60
30
00
F8
EC
CC
CC
CC
CC
0C
0C
ENDCHAR
STARTCHAR uni1F75
ENCODING 8053
SWIDTH 426 0
DWIDTH 6 0
BBX 6 13 0 -2
BITMAP
00
00
18
30
00
F8
EC
CC
CC
CC
CC
0C
0C
ENDCHAR
STARTCHAR uni1F76
ENCODING 8054
SWIDTH 426 0
DWIDTH 6 0
BBX 6 13 0 -2
BITMAP
00
00
C0
60
00
60
60
60
60
78
30
00
00
ENDCHAR
STARTCHAR uni1F77
ENCODING 8055
SWIDTH 426 0
DWIDTH 6 0
BBX 6 13 0 -2
BITMAP
00
00
30
60
00
60
60
60
60
78
30
00
00
ENDCHAR
STARTCHAR uni1F78
ENCODING 8056
SWIDTH 426 0
DWIDTH 6 0
BBX 6 13 0 -2
BITMAP
00
00
60
30
00
78
CC
CC
CC
CC
78
00
00
ENDCHAR
STARTCHAR uni1F79
ENCODING 8057
SWIDTH 426 0
DWIDTH 6 0
BBX 6 13 0 -2
BITMAP
00
00
18
30
00
78
CC
CC
CC
CC
78
00
00
ENDCHAR
STARTCHAR uni1F7A
ENCODING 8058
SWIDTH 426 0
DWIDTH 6 0
BBX 6 13 0 -2
BITMAP
00
00
60
30
00
CC
CC
CC
CC
CC
78
00
00
ENDCHAR
STARTCHAR uni1F7B
ENCODING 8059
SWIDTH 426 0
DWIDTH 6 0
BBX 6 13 0 -2
BITMAP
00
00
18
30
00
CC
CC
CC
CC
CC
78
00
00
ENDCHAR
STARTCHAR uni1F7C
ENCODING 8060
SWIDTH 426 0
DWIDTH 6 0
BBX 6 13 0 -2
BITMAP
00
00
60
30
00
CC
CC
FC
FC
FC
48
00
00
ENDCHAR
STARTCHAR uni1F7D
ENCODING 8061
SWIDTH 426 0
DWIDTH 6 0
BBX 6 13 0 -2
BITMAP
00
00
18
30
00
CC
CC
FC
FC
FC
48
00
00
ENDCHAR
STARTCHAR uni1F80
ENCODING 8064
SWIDTH 426 0
DWIDTH 6 0
BBX 6 13 0 -2
BITMAP
00
38
18
30
00
78
CC
CC
CC
DC
6C
00
30
ENDCHAR
STARTCHAR uni1F81
ENCODING 8065
SWIDTH 426 0
DWIDTH 6 0
BBX 6 13 0 -2
BITMAP
00
38
30
18
00
78
CC
CC
CC
DC
6C
00
30
ENDCHAR
STARTCHAR uni1F82
ENCODING 8066
SWIDTH 426 0
DWIDTH 6 0
BBX 6 13 0 -2
BITMAP
00
F8
6C
C0
00
78
CC
CC
CC
DC
6C
00
30
ENDCHAR
STARTCHAR uni1F83
ENCODING 8067
SWIDTH 426 0
DWIDTH 6 0
BBX 6 13 0 -2
BITMAP
00
F8
CC
60
00
78
CC
CC
CC
DC
6C
00
30
ENDCHAR
STARTCHAR uni1F84
ENCODING 8068
SWIDTH 426 0
DWIDTH 6 0
BBX 6 13 0 -2
BITMAP
00
EC
78
C0
00
78
CC
CC
CC
DC
6C
00
30
ENDCHAR
STARTCHAR uni1F85
ENCODING 8069
SWIDTH 426 0
DWIDTH 6 0
BBX 6 13 0 -2
BITMAP
00
EC
D8
60
00
78
CC
CC
CC
DC
6C
00
30
ENDCHAR
STARTCHAR uni1F86
ENCODING 8070
SWIDTH 426 0
DWIDTH 6 0
BBX 6 13 0 -2
BITMAP
64
B8
18
30
00
78
CC
CC
CC
DC
6C
00
30
ENDCHAR
STARTCHAR uni1F87
ENCODING 8071
SWIDTH 426 0
DWIDTH 6 0
BBX 6 13 0 -2
BITMAP
64
B8
30
18
00
78
CC
CC
CC
DC
6C
00
30
ENDCHAR
STARTCHAR uni1F88
ENCODING 8072
SWIDTH 426 0
DWIDTH 6 0
BBX 6 13 0 -2
BITMAP
00
00
90
B8
6C
6C
6C
7C
6C
6C
6C
00
18
ENDCHAR
STARTCHAR uni1F89
ENCODING 8073
SWIDTH 426 0
DWIDTH 6 0
BBX 6 13 0 -2
BITMAP
00
00
90
B8
6C
6C
6C
7C
6C
6C
6C
00
18
ENDCHAR
STARTCHAR uni1F8A
ENCODING 8074
SWIDTH 426 0
DWIDTH 6 0
BBX 6 13 0 -2
BITMAP
00
00
90
B8
6C
6C
6C
7C
6C
6C
6C
00
18
ENDCHAR
STARTCHAR uni1F8B
ENCODING 8075
SWIDTH 426 0
DWIDTH 6 0
BBX 6 13 0 -2
BITMAP
00
00
90
B8
6C
6C
6C
7C
6C
6C
6C
00
18
ENDCHAR
STARTCHAR uni1F8C
ENCODING 8076
SWIDTH 426 0
DWIDTH 6 0
BBX 6 13 0 -2
BITMAP
00
00
90
B8
6C
6C
6C
7C
6C
6C
6C
00
18
ENDCHAR
STARTCHAR uni1F8D
ENCODING 8077
SWIDTH 426 0
DWIDTH 6 0
BBX 6 13 0 -2
BITMAP
00
00
90
B8
6C
6C
6C
7C
6C
6C
6C
00
18
ENDCHAR
STARTCHAR uni1F8E
ENCODING 8078
SWIDTH 426 0
DWIDTH 6 0
BBX 6 13 0 -2
BITMAP
00
00
90
B8
6C
6C
6C
7C
6C
6C
6C
00
18
ENDCHAR
STARTCHAR uni1F8F
ENCODING 8079
SWIDTH 426 0
DWIDTH 6 0
BBX 6 13 0 -2
BITMAP
00
00
90
B8
6C
6C
6C
7C
6C
6C
6C
00
18
ENDCHAR
STARTCHAR uni1F90
ENCODING 8080
SWIDTH 426 0
DWIDTH 6 0
BBX 6 13 0 -2
BITMAP
00
38
18
30
00
D8
EC
CC
CC
CC
CC
0C
CC
ENDCHAR
STARTCHAR uni1F91
ENCODING 8081
SWIDTH 426 0
DWIDTH 6 0
BBX 6 13 0 -2
BITMAP
00
38
30
18
00
D8
EC
CC
CC
CC
CC
0C
CC
ENDCHAR
STARTCHAR uni1F92
ENCODING 8082
SWIDTH 426 0
DWIDTH 6 0
BBX 6 13 0 -2
BITMAP
00
F8
6C
C0
00
D8
EC
CC
CC
CC
CC
0C
CC
ENDCHAR
STARTCHAR uni1F93
ENCODING 8083
SWIDTH 426 0
DWIDTH 6 0
BBX 6 13 0 -2
BITMAP
00
F8
CC
60
00
D8
EC
CC
CC
CC
CC
0C
CC
ENDCHAR
STARTCHAR uni1F94
ENCODING 8084
SWIDTH 426 0
DWIDTH 6 0
BBX 6 13 0 -2
BITMAP
00
EC
78
C0
00
D8
EC
CC
CC
CC
CC
0C
CC
ENDCHAR
STARTCHAR uni1F95
ENCODING 8085
SWIDTH 426 0
DWIDTH 6 0
BBX 6 13 0 -2
BITMAP
00
EC
D8
60
00
D8
EC
CC
CC
CC
CC
0C
CC
ENDCHAR
STARTCHAR uni1F96
ENCODING 8086
SWIDTH 426 0
DWIDTH 6 0
BBX 6 13 0 -2
BITMAP
64
B8
18
30
00
D8
EC
CC
CC
CC
CC
0C
CC
ENDCHAR
STARTCHAR uni1F97
ENCODING 8087
SWIDTH 426 0
DWIDTH 6 0
BBX 6 13 0 -2
BITMAP
64
B8
30
18
00
D8
EC
CC
CC
CC
CC
0C
CC
ENDCHAR
STARTCHAR uni1F98
ENCODING 8088
SWIDTH 426 0
DWIDTH 6 0
BBX 6 13 0 -2
BITMAP
00
00
EC
EC
6C
6C
7C
6C
6C
6C
6C
00
18
ENDCHAR
STARTCHAR uni1F99
ENCODING 8089
SWIDTH 426 0
DWIDTH 6 0
BBX 6 13 0 -2
BITMAP
00
00
EC
EC
6C
6C
7C
6C
6C
6C
6C
00
18
ENDCHAR
STARTCHAR uni1F9A
ENCODING 8090
SWIDTH 426 0
DWIDTH 6 0
BBX 6 13 0 -2
BITMAP
00
00
EC
EC
6C
6C
7C
6C
6C
6C
6C
00
18
ENDCHAR
STARTCHAR uni1F9B
ENCODING 8091
SWIDTH 426 0
DWIDTH 6 0
BBX 6 13 0 -2
BITMAP
00
00
EC
EC
6C
6C
7C
6C
6C
6C
6C
00
18
ENDCHAR
STARTCHAR uni1F9C
ENCODING 8092
SWIDTH 426 0
DWIDTH 6 0
BBX 6 13 0 -2
BITMAP
00
00
EC
EC
6C
6C
7C
6C
6C
6C
6C
00
18
ENDCHAR
STARTCHAR uni1F9D
ENCODING 8093
SWIDTH 426 0
DWIDTH 6 0
BBX 6 13 0 -2
BITMAP
00
00
EC
EC
6C
6C
7C
6C
6C
6C
6C
00
18
ENDCHAR
STARTCHAR uni1F9E
ENCODING 8094
SWIDTH 426 0
DWIDTH 6 0
BBX 6 13 0 -2
BITMAP
00
00
EC
EC
6C
6C
7C
6C
6C
6C
6C
00
18
ENDCHAR
STARTCHAR uni1F9F
ENCODING 8095
SWIDTH 426 0
DWIDTH 6 0
BBX 6 13 0 -2
BITMAP
00
00
EC
EC
6C
6C
7C
6C
6C
6C
6C
00
18
ENDCHAR
STARTCHAR uni1FA0
ENCODING 8096
SWIDTH 426 0
DWIDTH 6 0
BBX 6 13 0 -2
BITMAP
00
38
18
30
00
CC
CC
FC
FC
FC
48
00
30
ENDCHAR
STARTCHAR uni1FA1
ENCODING 8097
SWIDTH 426 0
DWIDTH 6 0
BBX 6 13 0 -2
BITMAP
00
38
30
18
00
CC
CC
FC
FC
FC
48
00
30
ENDCHAR
STARTCHAR uni1FA2
ENCODING 8098
SWIDTH 426 0
DWIDTH 6 0
BBX 6 13 0 -2
BITMAP
00
F8
6C
C0
00
CC
CC
FC
FC
FC
48
00
30
ENDCHAR
STARTCHAR uni1FA3
ENCODING 8099
SWIDTH 426 0
DWIDTH 6 0
BBX 6 13 0 -2
BITMAP
00
F8
CC
60
00
CC
CC
FC
FC
FC
48
00
30
ENDCHAR
STARTCHAR uni1FA4
ENCODING 8100
SWIDTH 426 0
DWIDTH 6 0
BBX 6 13 0 -2
BITMAP
00
EC
78
C0
00
CC
CC
FC
FC
FC
48
00
30
ENDCHAR
STARTCHAR uni1FA5
ENCODING 8101
SWIDTH 426 0
DWIDTH 6 0
BBX 6 13 0 -2
BITMAP
00
EC
D8
60
00
CC
CC
FC
FC
FC
48
00
30
ENDCHAR
STARTCHAR uni1FA6
ENCODING 8102
SWIDTH 426 0
DWIDTH 6 0
BBX 6 13 0 -2
BITMAP
64
B8
18
30
00
CC
CC
FC
FC
FC
48
00
30
ENDCHAR
STARTCHAR uni1FA7
ENCODING 8103
SWIDTH 426 0
DWIDTH 6 0
BBX 6 13 0 -2
BITMAP
64
B8
30
18
00
CC
CC
FC
FC
FC
48
00
30
ENDCHAR
STARTCHAR uni1FA8
ENCODING 8104
SWIDTH 426 0
DWIDTH 6 0
BBX 6 13 0 -2
BITMAP
00
00
B8
EC
6C
6C
6C
6C
28
28
6C
00
18
ENDCHAR
STARTCHAR uni1FA9
ENCODING 8105
SWIDTH 426 0
DWIDTH 6 0
BBX 6 13 0 -2
BITMAP
00
00
B8
EC
6C
6C
6C
6C
28
28
6C
00
18
ENDCHAR
STARTCHAR uni1FAA
ENCODING 8106
SWIDTH 426 0
DWIDTH 6 0
BBX 6 13 0 -2
BITMAP
00
00
B8
EC
6C
6C
6C
6C
28
28
6C
00
18
ENDCHAR
STARTCHAR uni1FAB
ENCODING 8107
SWIDTH 426 0
DWIDTH 6 0
BBX 6 13 0 -2
BITMAP
00
00
B8
EC
6C
6C
6C
6C
28
28
6C
00
18
ENDCHAR
STARTCHAR uni1FAC
ENCODING 8108
SWIDTH 426 0
DWIDTH 6 0
BBX 6 13 0 -2
BITMAP
00
00
B8
EC
6C
6C
6C
6C
28
28
6C
00
18
ENDCHAR
STARTCHAR uni1FAD
ENCODING 8109
SWIDTH 426 0
DWIDTH 6 0
BBX 6 13 0 -2
BITMAP
00
00
B8
EC
6C
6C
6C
6C
28
28
6C
00
18
ENDCHAR
STARTCHAR uni1FAE
ENCODING 8110
SWIDTH 426 0
DWIDTH 6 0
BBX 6 13 0 -2
BITMAP
00
00
B8
EC
6C
6C
6C
6C
28
28
6C
00
18
ENDCHAR
STARTCHAR uni1FAF
ENCODING 8111
SWIDTH 426 0
DWIDTH 6 0
BBX 6 13 0 -2
BITMAP
00
00
B8
EC
6C
6C
6C
6C
28
28
6C
00
18
ENDCHAR
STARTCHAR uni1FB0
ENCODING 8112
SWIDTH 426 0
DWIDTH 6 0
BBX 6 13 0 -2
BITMAP
00
00
CC
78
00
78
CC
CC
CC
DC
6C
00
00
ENDCHAR
STARTCHAR uni1FB1
ENCODING 8113
SWIDTH 426 0
DWIDTH 6 0
BBX 6 13 0 -2
BITMAP
00
00
00
FC
00
78
CC
CC
CC
DC
6C
00
00
ENDCHAR
STARTCHAR uni1FB2
ENCODING 8114
SWIDTH 426 0
DWIDTH 6 0
BBX 6 13 0 -2
BITMAP
00
00
60
30
00
78
CC
CC
CC
DC
6C
00
30
ENDCHAR
STARTCHAR uni1FB3
ENCODING 8115
SWIDTH 426 0
DWIDTH 6 0
BBX 6 13 0 -2
BITMAP
00
00
00
00
00
78
CC
CC
CC
DC
6C
00
30
ENDCHAR
STARTCHAR uni1FB4
ENCODING 8116
SWIDTH 426 0
DWIDTH 6 0
BBX 6 13 0 -2
BITMAP
00
00
18
30
00
78
CC
CC
CC
DC
6C
00
30
ENDCHAR
STARTCHAR uni1FB6
ENCODING 8118
SWIDTH 426 0
DWIDTH 6 0
BBX 6 13 0 -2
BITMAP
00
24
7C
58
00
78
CC
CC
CC
DC
6C
00
00
ENDCHAR
STARTCHAR uni1FB7
ENCODING 8119
SWIDTH 426 0
DWIDTH 6 0
BBX 6 13 0 -2
BITMAP
00
24
7C
58
00
78
CC
CC
CC
DC
6C
00
30
ENDCHAR
STARTCHAR uni1FB8
ENCODING 8120
SWIDTH 426 0
DWIDTH 6 0
BBX 6 13 0 -2
BITMAP
00
CC
78
00
30
78
CC
CC
FC
CC
CC
00
00
ENDCHAR
STARTCHAR uni1FB9
ENCODING 8121
SWIDTH 426 0
DWIDTH 6 0
BBX 6 13 0 -2
BITMAP
00
FC
00
30
78
CC
CC
FC
CC
CC
CC
00
00
ENDCHAR
STARTCHAR uni1FBA
ENCODING 8122
SWIDTH 426 0
DWIDTH 6 0
BBX 6 13 0 -2
BITMAP
00
00
90
B8
6C
6C
6C
7C
6C
6C
6C
00
00
ENDCHAR
STARTCHAR uni1FBB
ENCODING 8123
SWIDTH 426 0
DWIDTH 6 0
BBX 6 13 0 -2
BITMAP
00
00
90
B8
6C
6C
6C
7C
6C
6C
6C
00
00
ENDCHAR
STARTCHAR uni1FBC
ENCODING 8124
SWIDTH 426 0
DWIDTH 6 0
BBX 6 13 0 -2
BITMAP
00
00
30
78
CC
CC
CC
FC
CC
CC
CC
30
38
ENDCHAR
STARTCHAR uni1FBD
ENCODING 8125
SWIDTH 426 0
DWIDTH 6 0
BBX 6 13 0 -2
BITMAP
00
00
70
30
60
00
00
00
00
00
00
00
00
ENDCHAR
STARTCHAR uni1FBE
ENCODING 8126
SWIDTH 426 0
DWIDTH 6 0
BBX 6 13 0 -2
BITMAP
00
00
00
00
00
00
00
60
60
60
30
00
00
ENDCHAR
STARTCHAR uni1FBF
ENCODING 8127
SWIDTH 426 0
DWIDTH 6 0
BBX 6 13 0 -2
BITMAP
00
00
70
30
60
00
00
00
00
00
00
00
00
ENDCHAR
STARTCHAR uni1FC0
ENCODING 8128
SWIDTH 426 0
DWIDTH 6 0
BBX 6 13 0 -2
BITMAP
00
00
48
F8
B0
00
00
00
00
00
00
00
00
ENDCHAR
STARTCHAR uni1FC1
ENCODING 8129
SWIDTH 426 0
DWIDTH 6 0
BBX 6 13 0 -2
BITMAP
00
48
F8
B0
D8
00
00
00
00
00
00
00
00
ENDCHAR
STARTCHAR uni1FC2
ENCODING 8130
SWIDTH 426 0
DWIDTH 6 0
BBX 6 13 0 -2
BITMAP
00
00
60
30
00
D8
EC
CC
CC
CC
CC
0C
CC
ENDCHAR
STARTCHAR uni1FC3
ENCODING 8131
SWIDTH 426 0
DWIDTH 6 0
BBX 6 13 0 -2
BITMAP
00
00
00
00
00
D8
EC
CC
CC
CC
CC
0C
CC
ENDCHAR
STARTCHAR uni1FC4
ENCODING 8132
SWIDTH 426 0
DWIDTH 6 0
BBX 6 13 0 -2
BITMAP
00
00
18
30
00
D8
EC
CC
CC
CC
CC
0C
CC
ENDCHAR
STARTCHAR uni1FC6
ENCODING 8134
SWIDTH 426 0
DWIDTH 6 0
BBX 6 13 0 -2
BITMAP
00
24
7C
58
00
F8
EC
CC
CC
CC
CC
0C
0C
ENDCHAR
STARTCHAR uni1FC7
ENCODING 8135
SWIDTH 426 0
DWIDTH 6 0
BBX 6 13 0 -2
BITMAP
00
24
7C
58
00
F8
EC
CC
CC
CC
CC
0C
CC
ENDCHAR
STARTCHAR uni1FC8
ENCODING 8136
SWIDTH 426 0
DWIDTH 6 0
BBX 6 13 0 -2
BITMAP
00
00
FC
E0
60
60
78
60
60
60
7C
00
00
ENDCHAR
STARTCHAR uni1FC9
ENCODING 8137
SWIDTH 426 0
DWIDTH 6 0
BBX 6 13 0 -2
BITMAP
00
00
FC
E0
60
60
78
60
60
60
7C
00
00
ENDCHAR
STARTCHAR uni1FCA
ENCODING 8138
SWIDTH 426 0
DWIDTH 6 0
BBX 6 13 0 -2
BITMAP
00
00
EC
EC
6C
6C
7C
6C
6C
6C
6C
00
00
ENDCHAR
STARTCHAR uni1FCB
ENCODING 8139
SWIDTH 426 0
DWIDTH 6 0
BBX 6 13 0 -2
BITMAP
00
00
EC
EC
6C
6C
7C
6C
6C
6C
6C
00
00
ENDCHAR
STARTCHAR uni1FCC
ENCODING 8140
SWIDTH 426 0
DWIDTH 6 0
BBX 6 13 0 -2
BITMAP
00
00
CC
CC
CC
CC
FC
CC
CC
CC
CC
30
38
ENDCHAR
STARTCHAR uni1FCD
ENCODING 8141
SWIDTH 426 0
DWIDTH 6 0
BBX 6 13 0 -2
BITMAP
00
00
F8
6C
C0
00
00
00
00
00
00
00
00
ENDCHAR
STARTCHAR uni1FCE
ENCODING 8142
SWIDTH 426 0
DWIDTH 6 0
BBX 6 13 0 -2
BITMAP
00
00
EC
78
C0
00
00
00
00
00
00
00
00
ENDCHAR
STARTCHAR uni1FCF
ENCODING 8143
SWIDTH 426 0
DWIDTH 6 0
BBX 6 13 0 -2
BITMAP
00
00
64
B8
18
30
00
00
00
00
00
00
00
ENDCHAR
STARTCHAR uni1FD0
ENCODING 8144
SWIDTH 426 0
DWIDTH 6 0
BBX 6 13 0 -2
BITMAP
00
00
CC
78
00
30
30
30
30
3C
18
00
00
ENDCHAR
STARTCHAR uni1FD1
ENCODING 8145
SWIDTH 426 0
DWIDTH 6 0
BBX 6 13 0 -2
BITMAP
00
00
00
FC
00
30
30
30
30
3C
18
00
00
ENDCHAR
STARTCHAR uni1FD2
ENCODING 8146
SWIDTH 426 0
DWIDTH 6 0
BBX 6 13 0 -2
BITMAP
00
00
E4
B4
00
30
30
30
30
3C
18
00
00
ENDCHAR
STARTCHAR uni1FD3
ENCODING 8147
SWIDTH 426 0
DWIDTH 6 0
BBX 6 13 0 -2
BITMAP
00
00
9C
B4
00
30
30
30
30
3C
18
00
00
ENDCHAR
STARTCHAR uni1FD6
ENCODING 8150
SWIDTH 426 0
DWIDTH 6 0
BBX 6 13 0 -2
BITMAP
00
48
F8
B0
00
60
60
60
60
78
30
00
00
ENDCHAR
STARTCHAR uni1FD7
ENCODING 8151
SWIDTH 426 0
DWIDTH 6 0
BBX 6 13 0 -2
BITMAP
48
F8
B0
D8
00
60
60
60
60
78
30
00
00
ENDCHAR
STARTCHAR uni1FD8
ENCODING 8152
SWIDTH 426 0
DWIDTH 6 0
BBX 6 13 0 -2
BITMAP
00
CC
78
00
78
30
30
30
30
30
78
00
00
ENDCHAR
STARTCHAR uni1FD9
ENCODING 8153
SWIDTH 426 0
DWIDTH 6 0
BBX 6 13 0 -2
BITMAP
00
FC
00
78
30
30
30
30
30
30
78
00
00
ENDCHAR
STARTCHAR uni1FDA
ENCODING 8154
SWIDTH 426 0
DWIDTH 6 0
BBX 6 13 0 -2
BITMAP
00
00
F8
B0
30
30
30
30
30
30
78
00
00
ENDCHAR
STARTCHAR uni1FDB
ENCODING 8155
SWIDTH 426 0
DWIDTH 6 0
BBX 6 13 0 -2
BITMAP
00
00
F8
B0
30
30
30
30
30
30
78
00
00
ENDCHAR
STARTCHAR uni1FDD
ENCODING 8157
SWIDTH 426 0
DWIDTH 6 0
BBX 6 13 0 -2
BITMAP
00
00
F8
CC
60
00
00
00
00
00
00
00
00
ENDCHAR
STARTCHAR uni1FDE
ENCODING 8158
SWIDTH 426 0
DWIDTH 6 0
BBX 6 13 0 -2
BITMAP
00
00
EC
D8
60
00
00
00
00
00
00
00
00
ENDCHAR
STARTCHAR uni1FDF
ENCODING 8159
SWIDTH 426 0
DWIDTH 6 0
BBX 6 13 0 -2
BITMAP
00
00
64
B8
30
18
00
00
00
00
00
00
00
ENDCHAR
STARTCHAR uni1FE0
ENCODING 8160
SWIDTH 426 0
DWIDTH 6 0
BBX 6 13 0 -2
BITMAP
00
00
CC
78
00
CC
CC
CC
CC
CC
78
00
00
ENDCHAR
STARTCHAR uni1FE1
ENCODING 8161
SWIDTH 426 0
DWIDTH 6 0
BBX 6 13 0 -2
BITMAP
00
00
00
FC
00
CC
CC
CC
CC
CC
78
00
00
ENDCHAR
STARTCHAR uni1FE2
ENCODING 8162
SWIDTH 426 0
DWIDTH 6 0
BBX 6 13 0 -2
BITMAP
00
00
E4
B4
00
CC
CC
CC
CC
CC
78
00
00
ENDCHAR
STARTCHAR uni1FE3
ENCODING 8163
SWIDTH 426 0
DWIDTH 6 0
BBX 6 13 0 -2
BITMAP
00
00
9C
B4
00
CC
CC
CC
CC
CC
78
00
00
ENDCHAR
STARTCHAR uni1FE4
ENCODING 8164
SWIDTH 426 0
DWIDTH 6 0
BBX 6 13 0 -2
BITMAP
00
38
18
30
00
78
CC
CC
CC
EC
F8
C0
C0
ENDCHAR
STARTCHAR uni1FE5
ENCODING 8165
SWIDTH 426 0
DWIDTH 6 0
BBX 6 13 0 -2
BITMAP
00
38
30
18
00
78
CC
CC
CC
EC
F8
C0
C0
ENDCHAR
STARTCHAR uni1FE6
ENCODING 8166
SWIDTH 426 0
DWIDTH 6 0
BBX 6 13 0 -2
BITMAP
00
24
7C
58
00
CC
CC
CC
CC
CC
78
00
00
ENDCHAR
STARTCHAR uni1FE7
ENCODING 8167
SWIDTH 426 0
DWIDTH 6 0
BBX 6 13 0 -2
BITMAP
64
FC
98
CC
00
CC
CC
CC
CC
CC
78
00
00
ENDCHAR
STARTCHAR uni1FE8
ENCODING 8168
SWIDTH 426 0
DWIDTH 6 0
BBX 6 13 0 -2
BITMAP
00
CC
78
00
CC
48
78
30
30
30
30
00
00
ENDCHAR
STARTCHAR uni1FE9
ENCODING 8169
SWIDTH 426 0
DWIDTH 6 0
BBX 6 13 0 -2
BITMAP
00
00
FC
00
CC
48
78
30
30
30
30
00
00
ENDCHAR
STARTCHAR uni1FEA
ENCODING 8170
SWIDTH 426 0
DWIDTH 6 0
BBX 6 13 0 -2
BITMAP
00
00
A4
A4
3C
3C
18
18
18
18
18
00
00
ENDCHAR
STARTCHAR uni1FEB
ENCODING 8171
SWIDTH 426 0
DWIDTH 6 0
BBX 6 13 0 -2
BITMAP
00
00
A4
A4
3C
3C
18
18
18
18
18
00
00
ENDCHAR
STARTCHAR uni1FEC
ENCODING 8172
SWIDTH 426 0
DWIDTH 6 0
BBX 6 13 0 -2
BITMAP
00
00
F8
EC
6C
6C
78
60
60
60
60
00
00
ENDCHAR
STARTCHAR uni1FED
ENCODING 8173
SWIDTH 426 0
DWIDTH 6 0
BBX 6 13 0 -2
BITMAP
00
00
E4
B4
00
00
00
00
00
00
00
00
00
ENDCHAR
STARTCHAR uni1FEE
ENCODING 8174
SWIDTH 426 0
DWIDTH 6 0
BBX 6 13 0 -2
BITMAP
00
00
9C
B4
00
00
00
00
00
00
00
00
00
ENDCHAR
STARTCHAR uni1FEF
ENCODING 8175
SWIDTH 426 0
DWIDTH 6 0
BBX 6 13 0 -2
BITMAP
00
00
60
30
00
00
00
00
00
00
00
00
00
ENDCHAR
STARTCHAR uni1FF2
ENCODING 8178
SWIDTH 426 0
DWIDTH 6 0
BBX 6 13 0 -2
BITMAP
00
00
60
30
00
CC
CC
FC
FC
FC
48
00
30
ENDCHAR
STARTCHAR uni1FF3
ENCODING 8179
SWIDTH 426 0
DWIDTH 6 0
BBX 6 13 0 -2
BITMAP
00
00
00
00
00
CC
CC
FC
FC
FC
48
00
30
ENDCHAR
STARTCHAR uni1FF4
ENCODING 8180
SWIDTH 426 0
DWIDTH 6 0
BBX 6 13 0 -2
BITMAP
00
00
18
30
00
CC
CC
FC
FC
FC
48
00
30
ENDCHAR
STARTCHAR uni1FF6
ENCODING 8182
SWIDTH 426 0
DWIDTH 6 0
BBX 6 13 0 -2
BITMAP
00
24
7C
58
00
CC
CC
FC
FC
FC
48
00
00
ENDCHAR
STARTCHAR uni1FF7
ENCODING 8183
SWIDTH 426 0
DWIDTH 6 0
BBX 6 13 0 -2
BITMAP
00
24
7C
58
00
CC
CC
FC
FC
FC
48
00
30
ENDCHAR
STARTCHAR uni1FF8
ENCODING 8184
SWIDTH 426 0
DWIDTH 6 0
BBX 6 13 0 -2
BITMAP
00
00
B8
EC
6C
6C
6C
6C
6C
6C
38
00
00
ENDCHAR
STARTCHAR uni1FF9
ENCODING 8185
SWIDTH 426 0
DWIDTH 6 0
BBX 6 13 0 -2
BITMAP
00
00
B8
EC
6C
6C
6C
6C
6C
6C
38
00
00
ENDCHAR
STARTCHAR uni1FFA
ENCODING 8186
SWIDTH 426 0
DWIDTH 6 0
BBX 6 13 0 -2
BITMAP
00
00
B8
EC
6C
6C
6C
6C
28
28
6C
00
00
ENDCHAR
STARTCHAR uni1FFB
ENCODING 8187
SWIDTH 426 0
DWIDTH 6 0
BBX 6 13 0 -2
BITMAP
00
00
B8
EC
6C
6C
6C
6C
28
28
6C
00
00
ENDCHAR
STARTCHAR uni1FFC
ENCODING 8188
SWIDTH 426 0
DWIDTH 6 0
BBX 6 13 0 -2
BITMAP
00
00
78
CC
CC
CC
CC
CC
48
48
CC
30
38
ENDCHAR
STARTCHAR uni1FFD
ENCODING 8189
SWIDTH 426 0
DWIDTH 6 0
BBX 6 13 0 -2
BITMAP
00
00
30
60
00
00
00
00
00
00
00
00
00
ENDCHAR
STARTCHAR uni1FFE
ENCODING 8190
SWIDTH 426 0
DWIDTH 6 0
BBX 6 13 0 -2
BITMAP
00
00
70
60
30
00
00
00
00
00
00
00
00
ENDCHAR
STARTCHAR uni2010
ENCODING 8208
SWIDTH 426 0
DWIDTH 6 0
BBX 6 13 0 -2
BITMAP
00
00
00
00
00
00
78
00
00
00
00
00
00
ENDCHAR
STARTCHAR uni2011
ENCODING 8209
SWIDTH 426 0
DWIDTH 6 0
BBX 6 13 0 -2
BITMAP
00
00
00
00
00
00
78
00
00
00
00
00
00
ENDCHAR
STARTCHAR figuredash
ENCODING 8210
SWIDTH 426 0
DWIDTH 6 0
BBX 6 13 0 -2
BITMAP
00
00
00
00
00
00
FC
00
00
00
00
00
00
ENDCHAR
STARTCHAR endash
ENCODING 8211
SWIDTH 426 0
DWIDTH 6 0
BBX 6 13 0 -2
BITMAP
00
00
00
00
00
00
F8
00
00
00
00
00
00
ENDCHAR
STARTCHAR emdash
ENCODING 8212
SWIDTH 426 0
DWIDTH 6 0
BBX 6 13 0 -2
BITMAP
00
00
00
00
00
00
FC
00
00
00
00
00
00
ENDCHAR
STARTCHAR afii00208
ENCODING 8213
SWIDTH 426 0
DWIDTH 6 0
BBX 6 13 0 -2
BITMAP
00
00
00
00
00
00
FC
00
00
00
00
00
00
ENDCHAR
STARTCHAR uni2016
ENCODING 8214
SWIDTH 426 0
DWIDTH 6 0
BBX 6 13 0 -2
BITMAP
00
00
D8
D8
D8
D8
D8
D8
D8
D8
D8
00
00
ENDCHAR
STARTCHAR underscoredbl
ENCODING 8215
SWIDTH 426 0
DWIDTH 6 0
BBX 6 13 0 -2
BITMAP
00
00
00
00
00
00
00
00
00
00
FC
00
FC
ENDCHAR
STARTCHAR quoteleft
ENCODING 8216
SWIDTH 426 0
DWIDTH 6 0
BBX 6 13 0 -2
BITMAP
00
00
30
60
70
00
00
00
00
00
00
00
00
ENDCHAR
STARTCHAR quoteright
ENCODING 8217
SWIDTH 426 0
DWIDTH 6 0
BBX 6 13 0 -2
BITMAP
00
00
70
30
60
00
00
00
00
00
00
00
00
ENDCHAR
STARTCHAR quotesinglbase
ENCODING 8218
SWIDTH 426 0
DWIDTH 6 0
BBX 6 13 0 -2
BITMAP
00
00
00
00
00
00
00
00
00
70
30
60
00
ENDCHAR
STARTCHAR quotereversed
ENCODING 8219
SWIDTH 426 0
DWIDTH 6 0
BBX 6 13 0 -2
BITMAP
00
00
70
60
30
00
00
00
00
00
00
00
00
ENDCHAR
STARTCHAR quotedblleft
ENCODING 8220
SWIDTH 426 0
DWIDTH 6 0
BBX 6 13 0 -2
BITMAP
00
00
6C
D8
FC
00
00
00
00
00
00
00
00
ENDCHAR
STARTCHAR quotedblright
ENCODING 8221
SWIDTH 426 0
DWIDTH 6 0
BBX 6 13 0 -2
BITMAP
00
00
FC
6C
D8
00
00
00
00
00
00
00
00
ENDCHAR
STARTCHAR quotedblbase
ENCODING 8222
SWIDTH 426 0
DWIDTH 6 0
BBX 6 13 0 -2
BITMAP
00
00
00
00
00
00
00
00
00
FC
6C
D8
00
ENDCHAR
STARTCHAR uni201F
ENCODING 8223
SWIDTH 426 0
DWIDTH 6 0
BBX 6 13 0 -2
BITMAP
00
00
FC
D8
6C
00
00
00
00
00
00
00
00
ENDCHAR
STARTCHAR dagger
ENCODING 8224
SWIDTH 426 0
DWIDTH 6 0
BBX 6 13 0 -2
BITMAP
00
00
30
30
FC
30
30
30
30
30
30
00
00
ENDCHAR
STARTCHAR daggerdbl
ENCODING 8225
SWIDTH 426 0
DWIDTH 6 0
BBX 6 13 0 -2
BITMAP
00
00
30
30
FC
30
30
30
FC
30
30
00
00
ENDCHAR
STARTCHAR bullet
ENCODING 8226
SWIDTH 426 0
DWIDTH 6 0
BBX 6 13 0 -2
BITMAP
00
00
00
00
00
30
78
78
30
00
00
00
00
ENDCHAR
STARTCHAR ellipsis
ENCODING 8230
SWIDTH 426 0
DWIDTH 6 0
BBX 6 13 0 -2
BITMAP
00
00
00
00
00
00
00
00
00
00
A8
00
00
ENDCHAR
STARTCHAR perthousand
ENCODING 8240
SWIDTH 426 0
DWIDTH 6 0
BBX 6 13 0 -2
BITMAP
00
00
6C
7C
18
18
30
60
60
FC
FC
00
00
ENDCHAR
STARTCHAR guilsinglleft
ENCODING 8249
SWIDTH 426 0
DWIDTH 6 0
BBX 6 13 0 -2
BITMAP
00
00
00
00
00
00
18
30
60
30
18
00
00
ENDCHAR
STARTCHAR guilsinglright
ENCODING 8250
SWIDTH 426 0
DWIDTH 6 0
BBX 6 13 0 -2
BITMAP
00
00
00
00
00
00
60
30
18
30
60
00
00
ENDCHAR
STARTCHAR uni203E
ENCODING 8254
SWIDTH 426 0
DWIDTH 6 0
BBX 6 13 0 -2
BITMAP
00
FC
00
00
00
00
00
00
00
00
00
00
00
ENDCHAR
STARTCHAR zerosuperior
ENCODING 8304
SWIDTH 426 0
DWIDTH 6 0
BBX 6 13 0 -2
BITMAP
00
70
D8
D8
D8
D8
70
00
00
00
00
00
00
ENDCHAR
STARTCHAR foursuperior
ENCODING 8308
SWIDTH 426 0
DWIDTH 6 0
BBX 6 13 0 -2
BITMAP
00
30
70
70
D8
F8
30
00
00
00
00
00
00
ENDCHAR
STARTCHAR fivesuperior
ENCODING 8309
SWIDTH 426 0
DWIDTH 6 0
BBX 6 13 0 -2
BITMAP
00
F0
C0
E0
30
30
E0
00
00
00
00
00
00
ENDCHAR
STARTCHAR sixsuperior
ENCODING 8310
SWIDTH 426 0
DWIDTH 6 0
BBX 6 13 0 -2
BITMAP
00
38
60
F8
D8
D8
70
00
00
00
00
00
00
ENDCHAR
STARTCHAR sevensuperior
ENCODING 8311
SWIDTH 426 0
DWIDTH 6 0
BBX 6 13 0 -2
BITMAP
00
F0
30
30
60
60
60
00
00
00
00
00
00
ENDCHAR
STARTCHAR eightsuperior
ENCODING 8312
SWIDTH 426 0
DWIDTH 6 0
BBX 6 13 0 -2
BITMAP
00
70
D8
70
70
D8
70
00
00
00
00
00
00
ENDCHAR
STARTCHAR ninesuperior
ENCODING 8313
SWIDTH 426 0
DWIDTH 6 0
BBX 6 13 0 -2
BITMAP
00
70
D8
D8
F8
30
E0
00
00
00
00
00
00
ENDCHAR
STARTCHAR zeroinferior
ENCODING 8320
SWIDTH 426 0
DWIDTH 6 0
BBX 6 13 0 -2
BITMAP
00
00
00
00
00
00
70
D8
D8
D8
D8
70
00
ENDCHAR
STARTCHAR oneinferior
ENCODING 8321
SWIDTH 426 0
DWIDTH 6 0
BBX 6 13 0 -2
BITMAP
00
00
00
00
00
00
60
E0
60
60
60
F0
00
ENDCHAR
STARTCHAR twoinferior
ENCODING 8322
SWIDTH 426 0
DWIDTH 6 0
BBX 6 13 0 -2
BITMAP
00
00
00
00
00
00
E0
B0
30
60
C0
F0
00
ENDCHAR
STARTCHAR threeinferior
ENCODING 8323
SWIDTH 426 0
DWIDTH 6 0
BBX 6 13 0 -2
BITMAP
00
00
00
00
00
00
E0
B0
60
30
B0
E0
00
ENDCHAR
STARTCHAR fourinferior
ENCODING 8324
SWIDTH 426 0
DWIDTH 6 0
BBX 6 13 0 -2
BITMAP
00
00
00
00
00
00
30
70
70
D8
F8
30
00
ENDCHAR
STARTCHAR fiveinferior
ENCODING 8325
SWIDTH 426 0
DWIDTH 6 0
BBX 6 13 0 -2
BITMAP
00
00
00
00
00
00
F0
C0
E0
30
30
E0
00
ENDCHAR
STARTCHAR sixinferior
ENCODING 8326
SWIDTH 426 0
DWIDTH 6 0
BBX 6 13 0 -2
BITMAP
00
00
00
00
00
00
38
60
F8
D8
D8
70
00
ENDCHAR
STARTCHAR seveninferior
ENCODING 8327
SWIDTH 426 0
DWIDTH 6 0
BBX 6 13 0 -2
BITMAP
00
00
00
00
00
00
F0
30
30
60
60
60
00
ENDCHAR
STARTCHAR eightinferior
ENCODING 8328
SWIDTH 426 0
DWIDTH 6 0
BBX 6 13 0 -2
BITMAP
00
00
00
00
00
00
70
D8
70
70
D8
70
00
ENDCHAR
STARTCHAR nineinferior
ENCODING 8329
SWIDTH 426 0
DWIDTH 6 0
BBX 6 13 0 -2
BITMAP
00
00
00
00
00
00
70
D8
D8
F8
30
E0
00
ENDCHAR
STARTCHAR dong
ENCODING 8363
SWIDTH 426 0
DWIDTH 6 0
BBX 6 13 0 -2
BITMAP
00
00
0C
3C
0C
6C
DC
CC
CC
DC
6C
00
FC
ENDCHAR
STARTCHAR Euro
ENCODING 8364
SWIDTH 426 0
DWIDTH 6 0
BBX 6 13 0 -2
BITMAP
00
00
38
7C
60
F0
60
F0
60
7C
38
00
00
ENDCHAR
STARTCHAR uni20AF
ENCODING 8367
SWIDTH 426 0
DWIDTH 6 0
BBX 6 13 0 -2
BITMAP
00
00
60
78
EC
6C
6C
6C
6C
FC
D8
00
00
ENDCHAR
STARTCHAR afii61352
ENCODING 8470
SWIDTH 426 0
DWIDTH 6 0
BBX 6 13 0 -2
BITMAP
00
00
98
98
D8
D8
DC
BC
BC
9C
9C
00
00
ENDCHAR
STARTCHAR trademark
ENCODING 8482
SWIDTH 426 0
DWIDTH 6 0
BBX 6 13 0 -2
BITMAP
FC
5C
54
00
00
00
00
00
00
00
00
00
00
ENDCHAR
STARTCHAR Omega
ENCODING 8486
SWIDTH 426 0
DWIDTH 6 0
BBX 6 13 0 -2
BITMAP
00
00
78
CC
CC
CC
CC
CC
48
48
CC
00
00
ENDCHAR
STARTCHAR oneeighth
ENCODING 8539
SWIDTH 426 0
DWIDTH 6 0
BBX 6 13 0 -2
BITMAP
00
60
E0
60
60
F0
18
3C
18
3C
18
00
00
ENDCHAR
STARTCHAR threeeighths
ENCODING 8540
SWIDTH 426 0
DWIDTH 6 0
BBX 6 13 0 -2
BITMAP
00
E0
B0
60
30
B0
F8
3C
18
3C
18
00
00
ENDCHAR
STARTCHAR fiveeighths
ENCODING 8541
SWIDTH 426 0
DWIDTH 6 0
BBX 6 13 0 -2
BITMAP
00
F0
C0
E0
30
30
F8
3C
18
3C
18
00
00
ENDCHAR
STARTCHAR seveneighths
ENCODING 8542
SWIDTH 426 0
DWIDTH 6 0
BBX 6 13 0 -2
BITMAP
00
F0
30
60
60
60
18
3C
18
3C
18
00
00
ENDCHAR
STARTCHAR arrowleft
ENCODING 8592
SWIDTH 426 0
DWIDTH 6 0
BBX 6 13 0 -2
BITMAP
00
00
00
00
00
20
60
FC
FC
60
20
00
00
ENDCHAR
STARTCHAR arrowup
ENCODING 8593
SWIDTH 426 0
DWIDTH 6 0
BBX 6 13 0 -2
BITMAP
00
00
00
00
30
78
FC
30
30
30
30
00
00
ENDCHAR
STARTCHAR arrowright
ENCODING 8594
SWIDTH 426 0
DWIDTH 6 0
BBX 6 13 0 -2
BITMAP
00
00
00
00
00
10
18
FC
FC
18
10
00
00
ENDCHAR
STARTCHAR arrowdown
ENCODING 8595
SWIDTH 426 0
DWIDTH 6 0
BBX 6 13 0 -2
BITMAP
00
00
00
00
30
30
30
30
FC
78
30
00
00
ENDCHAR
STARTCHAR universal
ENCODING 8704
SWIDTH 426 0
DWIDTH 6 0
BBX 6 13 0 -2
BITMAP
00
00
CC
CC
CC
FC
CC
CC
78
78
30
00
00
ENDCHAR
STARTCHAR uni2201
ENCODING 8705
SWIDTH 426 0
DWIDTH 6 0
BBX 6 13 0 -2
BITMAP
00
00
70
D8
C0
C0
C0
C0
C0
D8
70
00
00
ENDCHAR
STARTCHAR partialdiff
ENCODING 8706
SWIDTH 426 0
DWIDTH 6 0
BBX 6 13 0 -2
BITMAP
00
00
00
70
D8
18
78
D8
D8
D8
70
00
00
ENDCHAR
STARTCHAR existential
ENCODING 8707
SWIDTH 426 0
DWIDTH 6 0
BBX 6 13 0 -2
BITMAP
00
00
F8
18
18
18
78
18
18
18
F8
00
00
ENDCHAR
STARTCHAR element
ENCODING 8712
SWIDTH 426 0
DWIDTH 6 0
BBX 6 13 0 -2
BITMAP
00
00
00
00
38
60
C0
F0
C0
60
38
00
00
ENDCHAR
STARTCHAR suchthat
ENCODING 8715
SWIDTH 426 0
DWIDTH 6 0
BBX 6 13 0 -2
BITMAP
00
00
00
00
E0
30
18
78
18
30
E0
00
00
ENDCHAR
STARTCHAR minus
ENCODING 8722
SWIDTH 426 0
DWIDTH 6 0
BBX 6 13 0 -2
BITMAP
00
00
00
00
00
00
FC
00
00
00
00
00
00
ENDCHAR
STARTCHAR uni2213
ENCODING 8723
SWIDTH 426 0
DWIDTH 6 0
BBX 6 13 0 -2
BITMAP
00
00
00
FC
00
30
30
FC
30
30
00
00
00
ENDCHAR
STARTCHAR logicaland
ENCODING 8743
SWIDTH 426 0
DWIDTH 6 0
BBX 6 13 0 -2
BITMAP
00
00
00
00
00
00
30
30
78
78
CC
00
00
ENDCHAR
STARTCHAR logicalor
ENCODING 8744
SWIDTH 426 0
DWIDTH 6 0
BBX 6 13 0 -2
BITMAP
00
00
00
00
00
00
CC
78
78
30
30
00
00
ENDCHAR
STARTCHAR intersection
ENCODING 8745
SWIDTH 426 0
DWIDTH 6 0
BBX 6 13 0 -2
BITMAP
00
00
00
00
00
78
CC
CC
CC
CC
CC
00
00
ENDCHAR
STARTCHAR union
ENCODING 8746
SWIDTH 426 0
DWIDTH 6 0
BBX 6 13 0 -2
BITMAP
00
00
00
00
00
CC
CC
CC
CC
CC
78
00
00
ENDCHAR
STARTCHAR notequal
ENCODING 8800
SWIDTH 426 0
DWIDTH 6 0
BBX 6 13 0 -2
BITMAP
00
00
00
00
00
0C
FC
30
FC
C0
00
00
00
ENDCHAR
STARTCHAR lessequal
ENCODING 8804
SWIDTH 426 0
DWIDTH 6 0
BBX 6 13 0 -2
BITMAP
00
00
00
1C
70
C0
70
1C
00
FC
00
00
00
ENDCHAR
STARTCHAR greaterequal
ENCODING 8805
SWIDTH 426 0
DWIDTH 6 0
BBX 6 13 0 -2
BITMAP
00
00
00
E0
38
0C
38
E0
00
FC
00
00
00
ENDCHAR
STARTCHAR propersubset
ENCODING 8834
SWIDTH 426 0
DWIDTH 6 0
BBX 6 13 0 -2
BITMAP
00
00
00
00
00
7C
C0
C0
C0
7C
00
00
00
ENDCHAR
STARTCHAR propersuperset
ENCODING 8835
SWIDTH 426 0
DWIDTH 6 0
BBX 6 13 0 -2
BITMAP
00
00
00
00
00
F8
0C
0C
0C
F8
00
00
00
ENDCHAR
STARTCHAR notsubset
ENCODING 8836
SWIDTH 426 0
DWIDTH 6 0
BBX 6 13 0 -2
BITMAP
00
00
00
00
18
7C
D8
D8
D8
7C
18
00
00
ENDCHAR
STARTCHAR uni2285
ENCODING 8837
SWIDTH 426 0
DWIDTH 6 0
BBX 6 13 0 -2
BITMAP
00
00
00
00
60
F8
6C
6C
6C
F8
60
00
00
ENDCHAR
STARTCHAR dotmath
ENCODING 8901
SWIDTH 426 0
DWIDTH 6 0
BBX 6 13 0 -2
BITMAP
00
00
00
00
00
00
30
00
00
00
00
00
00
ENDCHAR
STARTCHAR uni22EE
ENCODING 8942
SWIDTH 426 0
DWIDTH 6 0
BBX 6 13 0 -2
BITMAP
00
00
00
30
00
00
30
00
00
30
00
00
00
ENDCHAR
STARTCHAR uni22EF
ENCODING 8943
SWIDTH 426 0
DWIDTH 6 0
BBX 6 13 0 -2
BITMAP
00
00
00
00
00
00
A8
00
00
00
00
00
00
ENDCHAR
STARTCHAR uni22F0
ENCODING 8944
SWIDTH 426 0
DWIDTH 6 0
BBX 6 13 0 -2
BITMAP
00
00
00
00
0C
00
30
00
C0
00
00
00
00
ENDCHAR
STARTCHAR uni22F1
ENCODING 8945
SWIDTH 426 0
DWIDTH 6 0
BBX 6 13 0 -2
BITMAP
00
00
00
00
C0
00
30
00
0C
00
00
00
00
ENDCHAR
STARTCHAR uni2308
ENCODING 8968
SWIDTH 426 0
DWIDTH 6 0
BBX 6 13 0 -2
BITMAP
00
78
60
60
60
60
60
60
60
60
60
60
00
ENDCHAR
STARTCHAR uni2309
ENCODING 8969
SWIDTH 426 0
DWIDTH 6 0
BBX 6 13 0 -2
BITMAP
00
78
18
18
18
18
18
18
18
18
18
18
00
ENDCHAR
STARTCHAR uni230A
ENCODING 8970
SWIDTH 426 0
DWIDTH 6 0
BBX 6 13 0 -2
BITMAP
00
60
60
60
60
60
60
60
60
60
60
78
00
ENDCHAR
STARTCHAR uni230B
ENCODING 8971
SWIDTH 426 0
DWIDTH 6 0
BBX 6 13 0 -2
BITMAP
00
18
18
18
18
18
18
18
18
18
18
78
00
ENDCHAR
STARTCHAR angleleft
ENCODING 9001
SWIDTH 426 0
DWIDTH 6 0
BBX 6 13 0 -2
BITMAP
00
18
30
30
60
60
C0
60
60
30
30
18
00
ENDCHAR
STARTCHAR angleright
ENCODING 9002
SWIDTH 426 0
DWIDTH 6 0
BBX 6 13 0 -2
BITMAP
00
C0
60
60
30
30
18
30
30
60
60
C0
00
ENDCHAR
STARTCHAR uni23BA
ENCODING 9146
SWIDTH 426 0
DWIDTH 6 0
BBX 6 13 0 -2
BITMAP
FC
FC
00
00
00
00
00
00
00
00
00
00
00
ENDCHAR
STARTCHAR uni23BB
ENCODING 9147
SWIDTH 426 0
DWIDTH 6 0
BBX 6 13 0 -2
BITMAP
00
00
00
FC
FC
00
00
00
00
00
00
00
00
ENDCHAR
STARTCHAR uni23BC
ENCODING 9148
SWIDTH 426 0
DWIDTH 6 0
BBX 6 13 0 -2
BITMAP
00
00
00
00
00
00
00
00
FC
FC
00
00
00
ENDCHAR
STARTCHAR uni23BD
ENCODING 9149
SWIDTH 426 0
DWIDTH 6 0
BBX 6 13 0 -2
BITMAP
00
00
00
00
00
00
00
00
00
00
00
FC
FC
ENDCHAR
STARTCHAR uni2408
ENCODING 9224
SWIDTH 426 0
DWIDTH 6 0
BBX 6 13 0 -2
BITMAP
00
F0
D8
F0
D8
F0
1C
30
18
0C
38
00
00
ENDCHAR
STARTCHAR uni2409
ENCODING 9225
SWIDTH 426 0
DWIDTH 6 0
BBX 6 13 0 -2
BITMAP
00
D8
D8
F8
D8
D8
3C
18
18
18
18
00
00
ENDCHAR
STARTCHAR uni240A
ENCODING 9226
SWIDTH 426 0
DWIDTH 6 0
BBX 6 13 0 -2
BITMAP
00
C0
C0
C0
C0
F0
3C
30
38
30
30
00
00
ENDCHAR
STARTCHAR uni240B
ENCODING 9227
SWIDTH 426 0
DWIDTH 6 0
BBX 6 13 0 -2
BITMAP
00
D8
D8
D8
70
20
3C
18
18
18
18
00
00
ENDCHAR
STARTCHAR uni240C
ENCODING 9228
SWIDTH 426 0
DWIDTH 6 0
BBX 6 13 0 -2
BITMAP
00
F0
C0
E0
C0
C0
3C
30
38
30
30
00
00
ENDCHAR
STARTCHAR uni240D
ENCODING 9229
SWIDTH 426 0
DWIDTH 6 0
BBX 6 13 0 -2
BITMAP
00
78
C8
C0
C8
78
78
6C
78
68
6C
00
00
ENDCHAR
STARTCHAR uni2420
ENCODING 9248
SWIDTH 426 0
DWIDTH 6 0
BBX 6 13 0 -2
BITMAP
00
70
C0
60
30
E0
78
6C
78
60
60
00
00
ENDCHAR
STARTCHAR uni2422
ENCODING 9250
SWIDTH 426 0
DWIDTH 6 0
BBX 6 13 0 -2
BITMAP
00
00
68
70
60
60
F8
6C
6C
6C
78
00
00
ENDCHAR
STARTCHAR uni2423
ENCODING 9251
SWIDTH 426 0
DWIDTH 6 0
BBX 6 13 0 -2
BITMAP
00
00
00
00
00
00
00
00
00
CC
FC
00
00
ENDCHAR
STARTCHAR uni2424
ENCODING 9252
SWIDTH 426 0
DWIDTH 6 0
BBX 6 13 0 -2
BITMAP
00
00
00
D8
F8
F8
D8
D8
30
30
30
30
3C
ENDCHAR
STARTCHAR uni2440
ENCODING 9280
SWIDTH 426 0
DWIDTH 6 0
BBX 6 13 0 -2
BITMAP
00
00
3C
34
34
34
30
B0
B0
B0
F0
00
00
ENDCHAR
STARTCHAR uni2441
ENCODING 9281
SWIDTH 426 0
DWIDTH 6 0
BBX 6 13 0 -2
BITMAP
00
00
0C
0C
0C
0C
FC
CC
CC
CC
CC
00
00
ENDCHAR
STARTCHAR uni2442
ENCODING 9282
SWIDTH 426 0
DWIDTH 6 0
BBX 6 13 0 -2
BITMAP
00
00
CC
CC
CC
CC
FC
30
30
30
30
00
00
ENDCHAR
STARTCHAR uni2443
ENCODING 9283
SWIDTH 426 0
DWIDTH 6 0
BBX 6 13 0 -2
BITMAP
00
00
30
30
30
30
FC
CC
CC
CC
CC
00
00
ENDCHAR
STARTCHAR uni2444
ENCODING 9284
SWIDTH 426 0
DWIDTH 6 0
BBX 6 13 0 -2
BITMAP
00
00
FC
B4
B4
30
30
30
B4
B4
FC
00
00
ENDCHAR
STARTCHAR uni2445
ENCODING 9285
SWIDTH 426 0
DWIDTH 6 0
BBX 6 13 0 -2
BITMAP
00
00
D8
F8
A8
F8
D8
00
00
00
00
00
00
ENDCHAR
STARTCHAR uni2446
ENCODING 9286
SWIDTH 426 0
DWIDTH 6 0
BBX 6 13 0 -2
BITMAP
00
00
00
1C
1C
DC
C0
C0
DC
1C
1C
00
00
ENDCHAR
STARTCHAR uni2447
ENCODING 9287
SWIDTH 426 0
DWIDTH 6 0
BBX 6 13 0 -2
BITMAP
00
00
1C
1C
1C
30
30
30
E0
E0
E0
00
00
ENDCHAR
STARTCHAR uni2448
ENCODING 9288
SWIDTH 426 0
DWIDTH 6 0
BBX 6 13 0 -2
BITMAP
00
00
00
0C
AC
AC
AC
A0
A0
00
00
00
00
ENDCHAR
STARTCHAR uni2449
ENCODING 9289
SWIDTH 426 0
DWIDTH 6 0
BBX 6 13 0 -2
BITMAP
00
00
00
00
AC
AC
AC
AC
00
00
00
00
00
ENDCHAR
STARTCHAR uni244A
ENCODING 9290
SWIDTH 426 0
DWIDTH 6 0
BBX 6 13 0 -2
BITMAP
00
00
00
D8
D8
D8
D8
6C
6C
6C
6C
00
00
ENDCHAR
STARTCHAR SF100000
ENCODING 9472
SWIDTH 426 0
DWIDTH 6 0
BBX 6 13 0 -2
BITMAP
00
00
00
00
00
00
FC
FC
00
00
00
00
00
ENDCHAR
STARTCHAR SF110000
ENCODING 9474
SWIDTH 426 0
DWIDTH 6 0
BBX 6 13 0 -2
BITMAP
30
30
30
30
30
30
30
30
30
30
30
30
30
ENDCHAR
STARTCHAR SF010000
ENCODING 9484
SWIDTH 426 0
DWIDTH 6 0
BBX 6 13 0 -2
BITMAP
00
00
00
00
00
00
3C
3C
30
30
30
30
30
ENDCHAR
STARTCHAR SF030000
ENCODING 9488
SWIDTH 426 0
DWIDTH 6 0
BBX 6 13 0 -2
BITMAP
00
00
00
00
00
00
F0
F0
30
30
30
30
30
ENDCHAR
STARTCHAR SF020000
ENCODING 9492
SWIDTH 426 0
DWIDTH 6 0
BBX 6 13 0 -2
BITMAP
30
30
30
30
30
30
3C
3C
00
00
00
00
00
ENDCHAR
STARTCHAR SF040000
ENCODING 9496
SWIDTH 426 0
DWIDTH 6 0
BBX 6 13 0 -2
BITMAP
30
30
30
30
30
30
F0
F0
00
00
00
00
00
ENDCHAR
STARTCHAR SF080000
ENCODING 9500
SWIDTH 426 0
DWIDTH 6 0
BBX 6 13 0 -2
BITMAP
30
30
30
30
30
30
3C
3C
30
30
30
30
30
ENDCHAR
STARTCHAR SF090000
ENCODING 9508
SWIDTH 426 0
DWIDTH 6 0
BBX 6 13 0 -2
BITMAP
30
30
30
30
30
30
F0
F0
30
30
30
30
30
ENDCHAR
STARTCHAR SF060000
ENCODING 9516
SWIDTH 426 0
DWIDTH 6 0
BBX 6 13 0 -2
BITMAP
00
00
00
00
00
00
FC
FC
30
30
30
30
30
ENDCHAR
STARTCHAR SF070000
ENCODING 9524
SWIDTH 426 0
DWIDTH 6 0
BBX 6 13 0 -2
BITMAP
30
30
30
30
30
30
FC
FC
00
00
00
00
00
ENDCHAR
STARTCHAR SF050000
ENCODING 9532
SWIDTH 426 0
DWIDTH 6 0
BBX 6 13 0 -2
BITMAP
30
30
30
30
30
30
FC
FC
30
30
30
30
30
ENDCHAR
STARTCHAR uni256D
ENCODING 9581
SWIDTH 426 0
DWIDTH 6 0
BBX 6 13 0 -2
BITMAP
00
00
00
00
00
00
0C
1C
38
30
30
30
30
ENDCHAR
STARTCHAR uni256E
ENCODING 9582
SWIDTH 426 0
DWIDTH 6 0
BBX 6 13 0 -2
BITMAP
00
00
00
00
00
00
C0
E0
70
30
30
30
30
ENDCHAR
STARTCHAR uni256F
ENCODING 9583
SWIDTH 426 0
DWIDTH 6 0
BBX 6 13 0 -2
BITMAP
30
30
30
30
30
60
E0
80
00
00
00
00
00
ENDCHAR
STARTCHAR uni2570
ENCODING 9584
SWIDTH 426 0
DWIDTH 6 0
BBX 6 13 0 -2
BITMAP
30
30
30
30
30
38
1C
0C
00
00
00
00
00
ENDCHAR
STARTCHAR uni2571
ENCODING 9585
SWIDTH 426 0
DWIDTH 6 0
BBX 6 13 0 -2
BITMAP
0C
0C
18
18
18
30
30
30
60
60
60
C0
C0
ENDCHAR
STARTCHAR uni2572
ENCODING 9586
SWIDTH 426 0
DWIDTH 6 0
BBX 6 13 0 -2
BITMAP
C0
C0
60
60
60
30
30
30
18
18
18
0C
0C
ENDCHAR
STARTCHAR uni2573
ENCODING 9587
SWIDTH 426 0
DWIDTH 6 0
BBX 6 13 0 -2
BITMAP
CC
CC
78
78
78
30
30
30
78
78
78
CC
CC
ENDCHAR
STARTCHAR uni2574
ENCODING 9588
SWIDTH 426 0
DWIDTH 6 0
BBX 6 13 0 -2
BITMAP
00
00
00
00
00
00
E0
E0
00
00
00
00
00
ENDCHAR
STARTCHAR uni2575
ENCODING 9589
SWIDTH 426 0
DWIDTH 6 0
BBX 6 13 0 -2
BITMAP
30
30
30
30
30
30
30
00
00
00
00
00
00
ENDCHAR
STARTCHAR uni2576
ENCODING 9590
SWIDTH 426 0
DWIDTH 6 0
BBX 6 13 0 -2
BITMAP
00
00
00
00
00
00
3C
3C
00
00
00
00
00
ENDCHAR
STARTCHAR uni2577
ENCODING 9591
SWIDTH 426 0
DWIDTH 6 0
BBX 6 13 0 -2
BITMAP
00
00
00
00
00
00
30
30
30
30
30
30
30
ENDCHAR
STARTCHAR shade
ENCODING 9618
SWIDTH 426 0
DWIDTH 6 0
BBX 6 13 0 -2
BITMAP
A8
54
A8
54
A8
54
A8
54
A8
54
A8
54
A8
ENDCHAR
STARTCHAR uni25AE
ENCODING 9646
SWIDTH 426 0
DWIDTH 6 0
BBX 6 13 0 -2
BITMAP
00
F8
F8
F8
F8
F8
F8
F8
F8
F8
F8
F8
00
ENDCHAR
STARTCHAR uni25C6
ENCODING 9670
SWIDTH 426 0
DWIDTH 6 0
BBX 6 13 0 -2
BITMAP
00
00
00
00
30
78
FC
78
30
00
00
00
00
ENDCHAR
STARTCHAR uni2669
ENCODING 9833
SWIDTH 426 0
DWIDTH 6 0
BBX 6 13 0 -2
BITMAP
00
00
18
18
18
18
18
18
78
F8
70
00
00
ENDCHAR
STARTCHAR musicalnote
ENCODING 9834
SWIDTH 426 0
DWIDTH 6 0
BBX 6 13 0 -2
BITMAP
00
00
10
18
1C
1C
18
18
78
F8
70
00
00
ENDCHAR
STARTCHAR musicalnotedbl
ENCODING 9835
SWIDTH 426 0
DWIDTH 6 0
BBX 6 13 0 -2
BITMAP
00
00
60
70
78
6C
6C
EC
CC
1C
18
00
00
ENDCHAR
STARTCHAR uni266C
ENCODING 9836
SWIDTH 426 0
DWIDTH 6 0
BBX 6 13 0 -2
BITMAP
00
00
60
70
78
6C
7C
EC
CC
1C
18
00
00
ENDCHAR
STARTCHAR uni266D
ENCODING 9837
SWIDTH 426 0
DWIDTH 6 0
BBX 6 13 0 -2
BITMAP
00
00
C0
C0
C0
D8
FC
CC
CC
D8
F0
00
00
ENDCHAR
STARTCHAR uni266E
ENCODING 9838
SWIDTH 426 0
DWIDTH 6 0
BBX 6 13 0 -2
BITMAP
00
00
C0
CC
DC
EC
CC
DC
EC
CC
CC
0C
00
ENDCHAR
STARTCHAR uni266F
ENCODING 9839
SWIDTH 426 0
DWIDTH 6 0
BBX 6 13 0 -2
BITMAP
00
00
10
58
78
F0
D8
78
F0
D0
40
00
00
ENDCHAR
STARTCHAR uniFFFD
ENCODING 65533
SWIDTH 426 0
DWIDTH 6 0
BBX 6 13 0 -2
BITMAP
00
00
78
CC
84
E4
CC
CC
FC
CC
78
00
00
ENDCHAR
ENDFONT
