STARTFONT 2.1
FONT -jmk-Neep-Medium-R-Normal--10-80-75-75-C-50-ISO8859-15
SIZE 8 75 75
FONTBOUNDINGBOX 5 10 0 -2
STARTPROPERTIES 29
FONTNAME_REGISTRY ""
FOUNDRY "jmk"
FAMILY_NAME "Neep"
WEIGHT_NAME "Medium"
SLANT "R"
SETWIDTH_NAME "Normal"
ADD_STYLE_NAME ""
PIXEL_SIZE 10
POINT_SIZE 80
RESOLUTION_X 75
RESOLUTION_Y 75
SPACING "C"
AVERAGE_WIDTH 50
CHARSET_REGISTRY "ISO8859"
CHARSET_ENCODING "15"
COPYRIGHT "Jim Knoble <jmknoble@pobox.com>"
WEIGHT 140
RESOLUTION 75
X_HEIGHT 4
FIGURE_WIDTH 5
QUAD_WIDTH 5
FONT_ASCENT 8
FONT_DESCENT 2
_XMBDFED_INFO "Edited with xmbdfed 3.7."
RELATIVE_WEIGHT 50
RELATIVE_SETWIDTH 50
CAP_HEIGHT 6
UNDERLINE_POSITION 1
UNDERLINE_THICKNESS 1
ENDPROPERTIES
CHARS 128
STARTCHAR nil
ENCODING 128
SWIDTH 600 0
DWIDTH 5 0
BBX 5 10 0 -2
BITMAP
00
F0
90
90
90
90
90
90
F0
00
ENDCHAR
STARTCHAR nil
ENCODING 129
SWIDTH 600 0
DWIDTH 5 0
BBX 5 10 0 -2
BITMAP
00
F0
90
90
90
90
90
90
F0
00
ENDCHAR
STARTCHAR nil
ENCODING 130
SWIDTH 600 0
DWIDTH 5 0
BBX 5 10 0 -2
BITMAP
00
F0
90
90
90
90
90
90
F0
00
ENDCHAR
STARTCHAR nil
ENCODING 131
SWIDTH 600 0
DWIDTH 5 0
BBX 5 10 0 -2
BITMAP
00
F0
90
90
90
90
90
90
F0
00
ENDCHAR
STARTCHAR nil
ENCODING 132
SWIDTH 600 0
DWIDTH 5 0
BBX 5 10 0 -2
BITMAP
00
F0
90
90
90
90
90
90
F0
00
ENDCHAR
STARTCHAR nil
ENCODING 133
SWIDTH 600 0
DWIDTH 5 0
BBX 5 10 0 -2
BITMAP
00
F0
90
90
90
90
90
90
F0
00
ENDCHAR
STARTCHAR nil
ENCODING 134
SWIDTH 600 0
DWIDTH 5 0
BBX 5 10 0 -2
BITMAP
00
F0
90
90
90
90
90
90
F0
00
ENDCHAR
STARTCHAR nil
ENCODING 135
SWIDTH 600 0
DWIDTH 5 0
BBX 5 10 0 -2
BITMAP
00
F0
90
90
90
90
90
90
F0
00
ENDCHAR
STARTCHAR nil
ENCODING 136
SWIDTH 600 0
DWIDTH 5 0
BBX 5 10 0 -2
BITMAP
00
F0
90
90
90
90
90
90
F0
00
ENDCHAR
STARTCHAR nil
ENCODING 137
SWIDTH 600 0
DWIDTH 5 0
BBX 5 10 0 -2
BITMAP
00
F0
90
90
90
90
90
90
F0
00
ENDCHAR
STARTCHAR nil
ENCODING 138
SWIDTH 600 0
DWIDTH 5 0
BBX 5 10 0 -2
BITMAP
00
F0
90
90
90
90
90
90
F0
00
ENDCHAR
STARTCHAR nil
ENCODING 139
SWIDTH 600 0
DWIDTH 5 0
BBX 5 10 0 -2
BITMAP
00
F0
90
90
90
90
90
90
F0
00
ENDCHAR
STARTCHAR nil
ENCODING 140
SWIDTH 600 0
DWIDTH 5 0
BBX 5 10 0 -2
BITMAP
00
F0
90
90
90
90
90
90
F0
00
ENDCHAR
STARTCHAR nil
ENCODING 141
SWIDTH 600 0
DWIDTH 5 0
BBX 5 10 0 -2
BITMAP
00
F0
90
90
90
90
90
90
F0
00
ENDCHAR
STARTCHAR nil
ENCODING 142
SWIDTH 600 0
DWIDTH 5 0
BBX 5 10 0 -2
BITMAP
00
F0
90
90
90
90
90
90
F0
00
ENDCHAR
STARTCHAR nil
ENCODING 143
SWIDTH 600 0
DWIDTH 5 0
BBX 5 10 0 -2
BITMAP
00
F0
90
90
90
90
90
90
F0
00
ENDCHAR
STARTCHAR nil
ENCODING 144
SWIDTH 600 0
DWIDTH 5 0
BBX 5 10 0 -2
BITMAP
00
F0
90
90
90
90
90
90
F0
00
ENDCHAR
STARTCHAR nil
ENCODING 145
SWIDTH 600 0
DWIDTH 5 0
BBX 5 10 0 -2
BITMAP
00
F0
90
90
90
90
90
90
F0
00
ENDCHAR
STARTCHAR nil
ENCODING 146
SWIDTH 600 0
DWIDTH 5 0
BBX 5 10 0 -2
BITMAP
00
F0
90
90
90
90
90
90
F0
00
ENDCHAR
STARTCHAR nil
ENCODING 147
SWIDTH 600 0
DWIDTH 5 0
BBX 5 10 0 -2
BITMAP
00
F0
90
90
90
90
90
90
F0
00
ENDCHAR
STARTCHAR nil
ENCODING 148
SWIDTH 600 0
DWIDTH 5 0
BBX 5 10 0 -2
BITMAP
00
F0
90
90
90
90
90
90
F0
00
ENDCHAR
STARTCHAR nil
ENCODING 149
SWIDTH 600 0
DWIDTH 5 0
BBX 5 10 0 -2
BITMAP
00
F0
90
90
90
90
90
90
F0
00
ENDCHAR
STARTCHAR nil
ENCODING 150
SWIDTH 600 0
DWIDTH 5 0
BBX 5 10 0 -2
BITMAP
00
F0
90
90
90
90
90
90
F0
00
ENDCHAR
STARTCHAR nil
ENCODING 151
SWIDTH 600 0
DWIDTH 5 0
BBX 5 10 0 -2
BITMAP
00
F0
90
90
90
90
90
90
F0
00
ENDCHAR
STARTCHAR nil
ENCODING 152
SWIDTH 600 0
DWIDTH 5 0
BBX 5 10 0 -2
BITMAP
00
F0
90
90
90
90
90
90
F0
00
ENDCHAR
STARTCHAR nil
ENCODING 153
SWIDTH 600 0
DWIDTH 5 0
BBX 5 10 0 -2
BITMAP
00
F0
90
90
90
90
90
90
F0
00
ENDCHAR
STARTCHAR nil
ENCODING 154
SWIDTH 600 0
DWIDTH 5 0
BBX 5 10 0 -2
BITMAP
00
F0
90
90
90
90
90
90
F0
00
ENDCHAR
STARTCHAR nil
ENCODING 155
SWIDTH 600 0
DWIDTH 5 0
BBX 5 10 0 -2
BITMAP
00
F0
90
90
90
90
90
90
F0
00
ENDCHAR
STARTCHAR nil
ENCODING 156
SWIDTH 600 0
DWIDTH 5 0
BBX 5 10 0 -2
BITMAP
00
F0
90
90
90
90
90
90
F0
00
ENDCHAR
STARTCHAR nil
ENCODING 157
SWIDTH 600 0
DWIDTH 5 0
BBX 5 10 0 -2
BITMAP
00
F0
90
90
90
90
90
90
F0
00
ENDCHAR
STARTCHAR nil
ENCODING 158
SWIDTH 600 0
DWIDTH 5 0
BBX 5 10 0 -2
BITMAP
00
F0
90
90
90
90
90
90
F0
00
ENDCHAR
STARTCHAR nil
ENCODING 159
SWIDTH 600 0
DWIDTH 5 0
BBX 5 10 0 -2
BITMAP
00
F0
90
90
90
90
90
90
F0
00
ENDCHAR
STARTCHAR U+00a0 no-break space
ENCODING 160
SWIDTH 600 0
DWIDTH 5 0
BBX 5 10 0 -2
BITMAP
00
00
00
00
00
00
00
00
00
00
ENDCHAR
STARTCHAR U+00a1 inverted exclamation mark
ENCODING 161
SWIDTH 600 0
DWIDTH 5 0
BBX 5 10 0 -2
BITMAP
00
00
00
00
20
00
20
20
20
20
ENDCHAR
STARTCHAR U+00a2 cent sign
ENCODING 162
SWIDTH 600 0
DWIDTH 5 0
BBX 5 10 0 -2
BITMAP
00
00
00
20
70
A0
A0
70
20
00
ENDCHAR
STARTCHAR U+00a3 pound sign
ENCODING 163
SWIDTH 600 0
DWIDTH 5 0
BBX 5 10 0 -2
BITMAP
00
00
20
50
40
E0
40
F0
00
00
ENDCHAR
STARTCHAR U+20ac euro sign
ENCODING 164
SWIDTH 600 0
DWIDTH 5 0
BBX 5 10 0 -2
BITMAP
00
00
30
48
E0
40
E0
48
30
00
ENDCHAR
STARTCHAR U+00a5 yen sign
ENCODING 165
SWIDTH 600 0
DWIDTH 5 0
BBX 5 10 0 -2
BITMAP
00
00
90
60
F0
20
F0
20
00
00
ENDCHAR
STARTCHAR U+0160 latin capital letter S with caron
ENCODING 166
SWIDTH 600 0
DWIDTH 5 0
BBX 5 10 0 -2
BITMAP
90
60
00
70
80
60
10
E0
00
00
ENDCHAR
STARTCHAR U+00a7 section sign
ENCODING 167
SWIDTH 600 0
DWIDTH 5 0
BBX 5 10 0 -2
BITMAP
00
70
80
60
90
60
10
E0
00
00
ENDCHAR
STARTCHAR U+0161 latin small letter s with caron
ENCODING 168
SWIDTH 600 0
DWIDTH 5 0
BBX 5 10 0 -2
BITMAP
00
90
60
00
70
C0
30
E0
00
00
ENDCHAR
STARTCHAR U+00a9 copyright sign
ENCODING 169
SWIDTH 600 0
DWIDTH 5 0
BBX 5 10 0 -2
BITMAP
00
70
88
A8
C8
C8
A8
88
70
00
ENDCHAR
STARTCHAR U+00aa feminine ordinal indicator
ENCODING 170
SWIDTH 600 0
DWIDTH 5 0
BBX 5 10 0 -2
BITMAP
00
70
90
B0
50
00
F0
00
00
00
ENDCHAR
STARTCHAR U+00ab left-pointing double angle quotation mark
ENCODING 171
SWIDTH 600 0
DWIDTH 5 0
BBX 5 10 0 -2
BITMAP
00
00
00
48
90
90
48
00
00
00
ENDCHAR
STARTCHAR U+00ac not sign
ENCODING 172
SWIDTH 600 0
DWIDTH 5 0
BBX 5 10 0 -2
BITMAP
00
00
00
00
F0
10
10
00
00
00
ENDCHAR
STARTCHAR U+00ad soft hyphen
ENCODING 173
SWIDTH 600 0
DWIDTH 5 0
BBX 5 10 0 -2
BITMAP
00
00
00
00
00
70
00
00
00
00
ENDCHAR
STARTCHAR U+00ae registered sign
ENCODING 174
SWIDTH 600 0
DWIDTH 5 0
BBX 5 10 0 -2
BITMAP
00
70
88
B8
A8
A8
A8
88
70
00
ENDCHAR
STARTCHAR U+00af macron
ENCODING 175
SWIDTH 600 0
DWIDTH 5 0
BBX 5 10 0 -2
BITMAP
00
00
F0
00
00
00
00
00
00
00
ENDCHAR
STARTCHAR U+00b0 degree sign
ENCODING 176
SWIDTH 600 0
DWIDTH 5 0
BBX 5 10 0 -2
BITMAP
00
60
90
60
00
00
00
00
00
00
ENDCHAR
STARTCHAR U+00b1 plus-minus sign
ENCODING 177
SWIDTH 600 0
DWIDTH 5 0
BBX 5 10 0 -2
BITMAP
00
00
20
20
F8
20
20
00
F8
00
ENDCHAR
STARTCHAR U+00b2 superscript two
ENCODING 178
SWIDTH 600 0
DWIDTH 5 0
BBX 5 10 0 -2
BITMAP
00
40
A0
20
40
E0
00
00
00
00
ENDCHAR
STARTCHAR U+00b3 superscript three
ENCODING 179
SWIDTH 600 0
DWIDTH 5 0
BBX 5 10 0 -2
BITMAP
00
E0
40
20
A0
40
00
00
00
00
ENDCHAR
STARTCHAR U+017d latin capital letter Z with caron
ENCODING 180
SWIDTH 600 0
DWIDTH 5 0
BBX 5 10 0 -2
BITMAP
90
60
00
F0
10
20
40
F0
00
00
ENDCHAR
STARTCHAR U+00b5 micro sign
ENCODING 181
SWIDTH 600 0
DWIDTH 5 0
BBX 5 10 0 -2
BITMAP
00
00
00
00
90
90
B0
D0
80
00
ENDCHAR
STARTCHAR U+00b6 pilcrow sign
ENCODING 182
SWIDTH 600 0
DWIDTH 5 0
BBX 5 10 0 -2
BITMAP
00
00
70
90
90
70
30
30
00
00
ENDCHAR
STARTCHAR U+00b7 middle dot
ENCODING 183
SWIDTH 600 0
DWIDTH 5 0
BBX 5 10 0 -2
BITMAP
00
00
00
00
40
40
00
00
00
00
ENDCHAR
STARTCHAR U+017e latin small letter z with caron
ENCODING 184
SWIDTH 600 0
DWIDTH 5 0
BBX 5 10 0 -2
BITMAP
00
90
60
00
F0
20
40
F0
00
00
ENDCHAR
STARTCHAR U+00b9 superscript one
ENCODING 185
SWIDTH 600 0
DWIDTH 5 0
BBX 5 10 0 -2
BITMAP
00
20
60
20
20
20
00
00
00
00
ENDCHAR
STARTCHAR U+00ba masculine ordinal indicator
ENCODING 186
SWIDTH 600 0
DWIDTH 5 0
BBX 5 10 0 -2
BITMAP
00
60
90
90
60
00
F0
00
00
00
ENDCHAR
STARTCHAR U+00bb right-pointing double angle quotation mark
ENCODING 187
SWIDTH 600 0
DWIDTH 5 0
BBX 5 10 0 -2
BITMAP
00
00
00
90
48
48
90
00
00
00
ENDCHAR
STARTCHAR U+0152 latin capital ligature OE
ENCODING 188
SWIDTH 600 0
DWIDTH 5 0
BBX 5 10 0 -2
BITMAP
00
00
70
A0
B0
A0
A0
70
00
00
ENDCHAR
STARTCHAR U+0153 latin small ligature oe
ENCODING 189
SWIDTH 600 0
DWIDTH 5 0
BBX 5 10 0 -2
BITMAP
00
00
00
00
70
B0
A0
70
00
00
ENDCHAR
STARTCHAR U+0178 latin capital letter Y with diaresis
ENCODING 190
SWIDTH 600 0
DWIDTH 5 0
BBX 5 10 0 -2
BITMAP
90
90
00
90
90
60
20
20
00
00
ENDCHAR
STARTCHAR U+00bf inverted question mark
ENCODING 191
SWIDTH 600 0
DWIDTH 5 0
BBX 5 10 0 -2
BITMAP
00
00
00
00
20
00
20
40
80
70
ENDCHAR
STARTCHAR U+00c0 latin capital letter A with grave
ENCODING 192
SWIDTH 600 0
DWIDTH 5 0
BBX 5 10 0 -2
BITMAP
40
20
00
60
90
F0
90
90
00
00
ENDCHAR
STARTCHAR U+00c1 latin capital letter A with acute
ENCODING 193
SWIDTH 600 0
DWIDTH 5 0
BBX 5 10 0 -2
BITMAP
20
40
00
60
90
F0
90
90
00
00
ENDCHAR
STARTCHAR U+00c2 latin capital letter A with circumflex
ENCODING 194
SWIDTH 600 0
DWIDTH 5 0
BBX 5 10 0 -2
BITMAP
60
90
00
60
90
F0
90
90
00
00
ENDCHAR
STARTCHAR U+00c3 latin capital letter A with tilde
ENCODING 195
SWIDTH 600 0
DWIDTH 5 0
BBX 5 10 0 -2
BITMAP
50
A0
00
60
90
F0
90
90
00
00
ENDCHAR
STARTCHAR U+00c4 latin capital letter A with diaresis
ENCODING 196
SWIDTH 600 0
DWIDTH 5 0
BBX 5 10 0 -2
BITMAP
90
90
00
60
90
F0
90
90
00
00
ENDCHAR
STARTCHAR U+00c5 latin capital letter A with ring above
ENCODING 197
SWIDTH 600 0
DWIDTH 5 0
BBX 5 10 0 -2
BITMAP
60
90
60
60
90
F0
90
90
00
00
ENDCHAR
STARTCHAR U+00c6 latin capital ligature AE
ENCODING 198
SWIDTH 600 0
DWIDTH 5 0
BBX 5 10 0 -2
BITMAP
00
00
70
A0
B0
E0
A0
B0
00
00
ENDCHAR
STARTCHAR U+00c7 latin capital letter C with cedilla
ENCODING 199
SWIDTH 600 0
DWIDTH 5 0
BBX 5 10 0 -2
BITMAP
00
00
60
90
80
80
90
60
20
40
ENDCHAR
STARTCHAR U+00c8 latin capital letter E with grave
ENCODING 200
SWIDTH 600 0
DWIDTH 5 0
BBX 5 10 0 -2
BITMAP
40
20
00
F0
80
E0
80
F0
00
00
ENDCHAR
STARTCHAR U+00c9 latin capital letter E with acute
ENCODING 201
SWIDTH 600 0
DWIDTH 5 0
BBX 5 10 0 -2
BITMAP
20
40
00
F0
80
E0
80
F0
00
00
ENDCHAR
STARTCHAR U+00ca latin capital letter E with circumflex
ENCODING 202
SWIDTH 600 0
DWIDTH 5 0
BBX 5 10 0 -2
BITMAP
60
90
00
F0
80
E0
80
F0
00
00
ENDCHAR
STARTCHAR U+00cb latin capital letter E with diaresis
ENCODING 203
SWIDTH 600 0
DWIDTH 5 0
BBX 5 10 0 -2
BITMAP
90
90
00
F0
80
E0
80
F0
00
00
ENDCHAR
STARTCHAR U+00cc latin capital letter I with grave
ENCODING 204
SWIDTH 600 0
DWIDTH 5 0
BBX 5 10 0 -2
BITMAP
80
40
00
E0
40
40
40
E0
00
00
ENDCHAR
STARTCHAR U+00cd latin capital letter I with acute
ENCODING 205
SWIDTH 600 0
DWIDTH 5 0
BBX 5 10 0 -2
BITMAP
20
40
00
E0
40
40
40
E0
00
00
ENDCHAR
STARTCHAR U+00ce latin capital letter I with circumflex
ENCODING 206
SWIDTH 600 0
DWIDTH 5 0
BBX 5 10 0 -2
BITMAP
60
90
00
E0
40
40
40
E0
00
00
ENDCHAR
STARTCHAR U+00cf latin capital letter I with diaresis
ENCODING 207
SWIDTH 600 0
DWIDTH 5 0
BBX 5 10 0 -2
BITMAP
90
90
00
E0
40
40
40
E0
00
00
ENDCHAR
STARTCHAR U+00d0 latin capital letter Eth
ENCODING 208
SWIDTH 600 0
DWIDTH 5 0
BBX 5 10 0 -2
BITMAP
00
00
60
50
48
E8
50
60
00
00
ENDCHAR
STARTCHAR U+00d1 latin capital letter N with tilde
ENCODING 209
SWIDTH 600 0
DWIDTH 5 0
BBX 5 10 0 -2
BITMAP
50
A0
00
90
D0
D0
B0
90
00
00
ENDCHAR
STARTCHAR U+00d2 latin capital letter O with grave
ENCODING 210
SWIDTH 600 0
DWIDTH 5 0
BBX 5 10 0 -2
BITMAP
40
20
00
60
90
90
90
60
00
00
ENDCHAR
STARTCHAR U+00d3 latin capital letter O with acute
ENCODING 211
SWIDTH 600 0
DWIDTH 5 0
BBX 5 10 0 -2
BITMAP
20
40
00
60
90
90
90
60
00
00
ENDCHAR
STARTCHAR U+00d4 latin capital letter O with circumflex
ENCODING 212
SWIDTH 600 0
DWIDTH 5 0
BBX 5 10 0 -2
BITMAP
60
90
00
60
90
90
90
60
00
00
ENDCHAR
STARTCHAR U+00d5 latin capital letter O with tilde
ENCODING 213
SWIDTH 600 0
DWIDTH 5 0
BBX 5 10 0 -2
BITMAP
50
A0
00
60
90
90
90
60
00
00
ENDCHAR
STARTCHAR U+00d6 latin capital letter O with diaresis
ENCODING 214
SWIDTH 600 0
DWIDTH 5 0
BBX 5 10 0 -2
BITMAP
90
90
00
60
90
90
90
60
00
00
ENDCHAR
STARTCHAR U+00d7 multiplication sign
ENCODING 215
SWIDTH 600 0
DWIDTH 5 0
BBX 5 10 0 -2
BITMAP
00
00
00
88
50
20
50
88
00
00
ENDCHAR
STARTCHAR U+00d8 latin capital letter O with stroke
ENCODING 216
SWIDTH 600 0
DWIDTH 5 0
BBX 5 10 0 -2
BITMAP
00
10
70
B0
B0
D0
D0
E0
80
00
ENDCHAR
STARTCHAR U+00d9 latin capital letter U with grave
ENCODING 217
SWIDTH 600 0
DWIDTH 5 0
BBX 5 10 0 -2
BITMAP
40
20
00
90
90
90
90
60
00
00
ENDCHAR
STARTCHAR U+00da latin capital letter U with acute
ENCODING 218
SWIDTH 600 0
DWIDTH 5 0
BBX 5 10 0 -2
BITMAP
20
40
00
90
90
90
90
60
00
00
ENDCHAR
STARTCHAR U+00db latin capital letter U with circumflex
ENCODING 219
SWIDTH 600 0
DWIDTH 5 0
BBX 5 10 0 -2
BITMAP
60
90
00
90
90
90
90
60
00
00
ENDCHAR
STARTCHAR U+00dc latin capital letter U with diaresis
ENCODING 220
SWIDTH 600 0
DWIDTH 5 0
BBX 5 10 0 -2
BITMAP
90
90
00
90
90
90
90
60
00
00
ENDCHAR
STARTCHAR U+00dd latin capital letter Y with acute
ENCODING 221
SWIDTH 600 0
DWIDTH 5 0
BBX 5 10 0 -2
BITMAP
20
40
00
90
90
60
20
20
00
00
ENDCHAR
STARTCHAR U+00de latin capital letter Thorn
ENCODING 222
SWIDTH 600 0
DWIDTH 5 0
BBX 5 10 0 -2
BITMAP
00
00
80
E0
90
E0
80
80
00
00
ENDCHAR
STARTCHAR U+00df latin small letter sharp s
ENCODING 223
SWIDTH 600 0
DWIDTH 5 0
BBX 5 10 0 -2
BITMAP
00
00
60
90
A0
90
90
A0
80
00
ENDCHAR
STARTCHAR U+00e0 latin small letter a with grave
ENCODING 224
SWIDTH 600 0
DWIDTH 5 0
BBX 5 10 0 -2
BITMAP
00
40
20
00
70
90
B0
50
00
00
ENDCHAR
STARTCHAR U+00e1 latin small letter a with acute
ENCODING 225
SWIDTH 600 0
DWIDTH 5 0
BBX 5 10 0 -2
BITMAP
00
20
40
00
70
90
B0
50
00
00
ENDCHAR
STARTCHAR U+00e2 latin small letter a with circumflex
ENCODING 226
SWIDTH 600 0
DWIDTH 5 0
BBX 5 10 0 -2
BITMAP
00
60
90
00
70
90
B0
50
00
00
ENDCHAR
STARTCHAR U+00e3 latin small letter a with tilde
ENCODING 227
SWIDTH 600 0
DWIDTH 5 0
BBX 5 10 0 -2
BITMAP
00
50
A0
00
70
90
B0
50
00
00
ENDCHAR
STARTCHAR U+00e4 latin small letter a with diaresis
ENCODING 228
SWIDTH 600 0
DWIDTH 5 0
BBX 5 10 0 -2
BITMAP
00
90
90
00
70
90
B0
50
00
00
ENDCHAR
STARTCHAR U+00e5 latin small letter a with ring above
ENCODING 229
SWIDTH 600 0
DWIDTH 5 0
BBX 5 10 0 -2
BITMAP
60
90
60
00
70
90
B0
50
00
00
ENDCHAR
STARTCHAR U+00e6 latin small ligature ae
ENCODING 230
SWIDTH 600 0
DWIDTH 5 0
BBX 5 10 0 -2
BITMAP
00
00
00
00
70
B0
A0
F0
00
00
ENDCHAR
STARTCHAR U+00e7 latin small letter c with cedilla
ENCODING 231
SWIDTH 600 0
DWIDTH 5 0
BBX 5 10 0 -2
BITMAP
00
00
00
00
60
80
80
60
20
40
ENDCHAR
STARTCHAR U+00e8 latin small letter e with grave
ENCODING 232
SWIDTH 600 0
DWIDTH 5 0
BBX 5 10 0 -2
BITMAP
00
40
20
00
60
B0
C0
70
00
00
ENDCHAR
STARTCHAR U+00e9 latin small letter e with acute
ENCODING 233
SWIDTH 600 0
DWIDTH 5 0
BBX 5 10 0 -2
BITMAP
00
20
40
00
60
B0
C0
70
00
00
ENDCHAR
STARTCHAR U+00ea latin small letter e with circumflex
ENCODING 234
SWIDTH 600 0
DWIDTH 5 0
BBX 5 10 0 -2
BITMAP
00
60
90
00
60
B0
C0
70
00
00
ENDCHAR
STARTCHAR U+00eb latin small letter e with diaresis
ENCODING 235
SWIDTH 600 0
DWIDTH 5 0
BBX 5 10 0 -2
BITMAP
00
90
90
00
60
B0
C0
70
00
00
ENDCHAR
STARTCHAR U+00ec latin small letter i with grave
ENCODING 236
SWIDTH 600 0
DWIDTH 5 0
BBX 5 10 0 -2
BITMAP
00
40
20
00
60
20
20
20
00
00
ENDCHAR
STARTCHAR U+00ed latin small letter i with acute
ENCODING 237
SWIDTH 600 0
DWIDTH 5 0
BBX 5 10 0 -2
BITMAP
00
10
20
00
60
20
20
20
00
00
ENDCHAR
STARTCHAR U+00ee latin small letter i with circumflex
ENCODING 238
SWIDTH 600 0
DWIDTH 5 0
BBX 5 10 0 -2
BITMAP
00
60
90
00
60
20
20
20
00
00
ENDCHAR
STARTCHAR U+00ef latin small letter i with diaresis
ENCODING 239
SWIDTH 600 0
DWIDTH 5 0
BBX 5 10 0 -2
BITMAP
00
90
90
00
60
20
20
20
00
00
ENDCHAR
STARTCHAR U+00f0 latin small letter eth
ENCODING 240
SWIDTH 600 0
DWIDTH 5 0
BBX 5 10 0 -2
BITMAP
00
A0
40
A0
20
50
90
60
00
00
ENDCHAR
STARTCHAR U+00f1 latin small letter n with tilde
ENCODING 241
SWIDTH 600 0
DWIDTH 5 0
BBX 5 10 0 -2
BITMAP
00
50
A0
00
E0
90
90
90
00
00
ENDCHAR
STARTCHAR U+00f2 latin small letter o with grave
ENCODING 242
SWIDTH 600 0
DWIDTH 5 0
BBX 5 10 0 -2
BITMAP
00
40
20
00
60
90
90
60
00
00
ENDCHAR
STARTCHAR U+00f3 latin small letter o with acute
ENCODING 243
SWIDTH 600 0
DWIDTH 5 0
BBX 5 10 0 -2
BITMAP
00
20
40
00
60
90
90
60
00
00
ENDCHAR
STARTCHAR U+00f4 latin small letter o with circumflex
ENCODING 244
SWIDTH 600 0
DWIDTH 5 0
BBX 5 10 0 -2
BITMAP
00
60
90
00
60
90
90
60
00
00
ENDCHAR
STARTCHAR U+00f5 latin small letter o with tilde
ENCODING 245
SWIDTH 600 0
DWIDTH 5 0
BBX 5 10 0 -2
BITMAP
00
50
A0
00
60
90
90
60
00
00
ENDCHAR
STARTCHAR U+00f6 latin small letter o with diaresis
ENCODING 246
SWIDTH 600 0
DWIDTH 5 0
BBX 5 10 0 -2
BITMAP
00
90
90
00
60
90
90
60
00
00
ENDCHAR
STARTCHAR U+00f7 division sign
ENCODING 247
SWIDTH 600 0
DWIDTH 5 0
BBX 5 10 0 -2
BITMAP
00
20
20
00
F8
00
20
20
00
00
ENDCHAR
STARTCHAR U+00f8 latin small letter o with stroke
ENCODING 248
SWIDTH 600 0
DWIDTH 5 0
BBX 5 10 0 -2
BITMAP
00
00
00
00
70
B0
D0
E0
00
00
ENDCHAR
STARTCHAR U+00f9 latin small letter u with grave
ENCODING 249
SWIDTH 600 0
DWIDTH 5 0
BBX 5 10 0 -2
BITMAP
00
40
20
00
90
90
90
70
00
00
ENDCHAR
STARTCHAR U+00fa latin small letter u with acute
ENCODING 250
SWIDTH 600 0
DWIDTH 5 0
BBX 5 10 0 -2
BITMAP
00
20
40
00
90
90
90
70
00
00
ENDCHAR
STARTCHAR U+00fb latin small letter u with circumflex
ENCODING 251
SWIDTH 600 0
DWIDTH 5 0
BBX 5 10 0 -2
BITMAP
00
60
90
00
90
90
90
70
00
00
ENDCHAR
STARTCHAR U+00fc latin small letter u with diaresis
ENCODING 252
SWIDTH 600 0
DWIDTH 5 0
BBX 5 10 0 -2
BITMAP
00
90
90
00
90
90
90
70
00
00
ENDCHAR
STARTCHAR U+00fd latin small letter y with acute
ENCODING 253
SWIDTH 600 0
DWIDTH 5 0
BBX 5 10 0 -2
BITMAP
00
20
40
00
90
90
90
70
90
60
ENDCHAR
STARTCHAR U+00fe latin small letter thorn
ENCODING 254
SWIDTH 600 0
DWIDTH 5 0
BBX 5 10 0 -2
BITMAP
00
00
80
80
E0
90
90
E0
80
80
ENDCHAR
STARTCHAR U+00ff latin small letter y with diaresis
ENCODING 255
SWIDTH 600 0
DWIDTH 5 0
BBX 5 10 0 -2
BITMAP
00
90
90
00
90
90
90
70
90
60
ENDCHAR
ENDFONT
